#TITLE:VOL.1;
#SUBTITLE:;
#ARTIST:SILK CUTS;
#TITLETRANSLIT:;
#SUBTITLETRANSLIT:;
#ARTISTTRANSLIT:;
#CREDIT:DigiMindAxel;
#BANNER:VOL.1.png;
#BACKGROUND:VOL.1-bg.png;
#LYRICSPATH:;
#CDTITLE:Dancemania SPEED 2.png;
#MUSIC:VOL.1.ogg;
#METERTYPE:DDR X;
#OFFSET:-11.046;
#SAMPLESTART:33.130;
#SAMPLELENGTH:12.000;
#SELECTABLE:YES;
#BPMS:0.000=173.600;
#STOPS:;
#BGCHANGES:;

//---------------dance-single - ----------------
#NOTES:
     dance-single:
     :
     Easy:
     7:
     0.350,0.381,0.249,0.030,0.000:
0001
0000
0000
0000
,
0100
0000
0000
0000
,
0010
0000
0000
0000
,
0100
0000
0000
0000
,
0001
0000
0000
0000
,
1000
0000
0000
0000
,
0001
0000
0000
0000
,
1000
0000
0000
0000
,
0001
1000
0001
0000
,
0010
0100
1000
0000
,
0100
0010
0001
0000
,
0010
0001
0100
0000
,
0010
1000
0100
0000
,
1000
0010
0100
0000
,
0001
0010
0100
0000
,
1000
0100
0010
0000
,
1001
0010
0100
1000
,
0100
0010
0001
0100
,
0001
0100
0001
0100
,
0010
1000
0010
1000
,
0100
1000
0100
1000
,
0001
0010
0001
0010
,
0001
1000
0001
1000
,
0001
0100
0010
0100
,
1001
0010
0100
1000
,
1001
0100
0010
0001
,
1001
0010
0100
1000
,
0010
0010
0010
0010
,
1001
0100
0010
0001
,
1001
0010
0100
1000
,
1001
0100
0010
0001
,
0100
0100
0100
0100
,
1001
0010
0100
0001
,
1001
0100
0010
1000
,
1001
0010
0100
0001
,
1001
0100
0010
1000
,
1001
0010
0100
0010
,
1001
0100
0010
0100
,
1000
0001
0000
0010
,
0002
0000
0000
1003
,
1001
0100
1000
0100
,
1001
0010
0001
0010
,
1001
0010
0100
1000
,
1001
0100
0010
0001
,
1001
0100
0010
0100
,
0110
0010
0100
0010
,
1001
1000
0001
1000
,
2002
0000
0000
3003
,
0001
0010
0001
1000
,
0001
0010
0001
1000
,
0001
0100
0001
1000
,
0001
0100
0001
1000
,
0100
1000
0001
1000
,
0100
1000
0001
1000
,
0010
0010
0010
0010
,
1001
1000
1000
1000
,
0001
0010
0001
1000
,
0010
1000
0001
0010
,
0001
0100
0010
0100
,
0001
1000
0100
1000
,
0001
0010
0100
0010
,
0001
0100
0010
0100
,
0001
0001
1000
1000
,
1001
1001
1001
0100
;

//---------------dance-single - ----------------
#NOTES:
     dance-single:
     :
     Medium:
     10:
     0.526,0.571,0.209,0.249,0.000:
1001
0001
0100
0010
,
0100
0001
0100
0010
,
1000
0100
1000
0001
,
1000
0100
1000
0001
,
0100
0010
1000
0010
,
0100
0001
1000
0100
,
0010
0001
1000
0001
,
1000
0100
0010
0100
,
1000
0001
0000
0100
0000
0001
0000
1000
,
0100
1000
0000
0100
0000
1000
0000
0001
,
1000
0001
0000
0100
0000
0001
0000
0100
,
0010
0100
0000
0010
0000
0100
0000
0001
,
0010
0100
0000
1000
0000
0010
0000
1000
,
0100
0010
0000
0100
0000
1000
0000
0010
,
0100
0001
0000
1000
0000
0100
0000
0010
,
0100
1000
0000
0001
0000
0100
0000
0001
,
1001
0000
1000
0010
0000
1000
0000
0001
,
1000
0000
0001
1000
0000
0100
0000
0010
,
0001
0000
0010
0001
0000
0100
0000
0010
,
1000
0000
0001
0100
0000
0010
0000
1000
,
0100
0000
0010
0001
0000
0100
0000
0010
,
1000
0100
1000
0010
0000
0100
0000
0001
,
0100
0010
0100
0001
0000
0010
0000
0001
,
1000
1001
0001
1001
,
2000
3100
0010
0001
,
0020
0130
1000
0010
,
0200
0301
0010
0100
,
2000
3001
1000
0010
,
0200
0301
0010
0100
,
2000
3100
0010
0100
,
2000
3001
0100
0010
,
0200
0000
0301
0000
1000
0000
0100
1000
,
0002
0000
0013
0100
0010
0100
0010
0000
,
1002
0000
1003
0010
0100
0010
0100
0000
,
2001
0000
3001
0010
0100
0010
0100
0000
,
1002
0000
1003
0010
0100
0010
1000
0000
,
1002
0000
0013
0100
1000
0100
0010
0000
,
2001
0000
3001
0100
0010
0100
0001
0000
,
1002
0000
1003
0100
0010
0100
1000
0000
,
1001
0000
0001
0100
0000
0000
0001
0000
,
1000
0100
0010
0001
0100
0001
1000
0000
,
0001
0010
0100
1000
0010
1000
0001
0000
,
1000
0010
0100
0001
0010
0001
1000
0000
,
0001
0100
0010
1000
0100
1000
0001
0000
,
1000
0100
0010
0001
0100
0001
1000
0000
,
0001
0010
0100
1000
0010
1000
0001
0000
,
1000
0100
0010
0001
0100
0001
1000
0000
,
2002
0000
0000
3003
,
1020
0000
0100
0100
0000
0000
0130
0000
,
0002
0000
1000
1000
0000
0000
1003
0000
,
0200
0000
1000
1000
0000
0000
1300
0000
,
0020
0000
0100
0100
0000
0000
0130
0000
,
0002
0000
0010
0010
0000
0000
0013
0000
,
0200
0000
0010
0010
0000
0000
0310
0000
,
0002
0000
0100
0100
0000
0000
0103
0000
,
0020
0000
1000
1000
0000
0000
1030
0000
,
0001
0010
0100
1000
0001
0100
0001
0000
,
1000
0100
0010
0100
1000
0001
0100
0000
,
0010
1000
0001
0010
0100
0010
0001
0000
,
0010
0001
0100
0010
1000
0100
0010
0000
,
0100
1000
0010
0100
0001
0010
0100
0000
,
0010
0001
0100
0010
1000
0100
0010
0000
,
0101
1001
1100
1001
,
0110
0110
0110
1001
;

//---------------dance-single - ----------------
#NOTES:
     dance-single:
     :
     Hard:
     13:
     0.714,0.666,0.318,0.159,0.164:
1000
0100
1000
1000
0000
0001
0001
0000
,
0010
0000
0100
0010
0001
0010
0100
0000
,
1000
0010
1000
1000
0000
0001
0001
0000
,
0010
0100
1000
0001
0100
0001
1000
0000
,
0100
0010
0001
0001
0000
1000
1000
0000
,
0010
0000
0100
0001
0010
0001
0100
0000
,
0001
1000
0010
0001
0010
1000
0001
0000
,
1000
0001
0100
1000
0100
0001
1000
0000
,
0001
0010
0001
0001
0000
0100
0010
1000
,
0100
0010
0100
0100
0000
1000
0001
0010
,
0100
0010
0001
0001
0000
0100
0001
0010
,
0100
1000
0001
0001
0000
1000
0001
0100
,
0001
1000
0010
0010
0000
0100
0001
1000
,
0100
0010
0100
0100
0000
1000
0001
0010
,
0100
0010
0001
0001
0000
1000
0010
1000
,
0001
0000
0010
0000
0100
0000
0100
0000
0000
0000
0010
0000
0001
1000
0001
1000
,
0002
0000
0100
0100
0103
0001
1000
0100
,
0020
0000
0001
0001
0031
1000
0010
0100
,
0002
0000
1000
1000
1003
0001
0100
0010
,
0200
0000
0000
0000
0302
0000
0000
0000
2003
0000
0000
0000
3001
0000
1000
0010
,
2000
0000
0001
0001
3001
1000
0100
0010
,
0200
0000
1000
1000
1300
0010
0100
0001
,
0010
0110
0100
0110
,
1001
0001
0100
0000
1001
1000
0010
0000
,
1002
0000
1003
1010
0000
0010
0100
0001
,
2001
0000
3100
1100
0000
1000
0010
0100
,
0102
0000
1003
1100
0000
0100
0010
0001
,
2001
0000
3010
0110
0000
0100
0001
1000
,
1200
0000
1300
1001
0000
0001
0100
0010
,
2010
0000
3001
1001
0000
1000
0010
0100
,
0102
0000
1003
1100
0000
0100
0010
0001
,
2001
0000
0000
0000
3010
0000
0110
0000
0000
0000
0100
0000
0001
0100
0001
0100
,
0001
1000
0100
0010
0100
1000
0001
0010
,
0100
1000
0010
0001
0010
1000
0100
0010
,
0001
1000
0010
0100
0010
1000
0001
0100
,
1000
0100
0001
1000
0100
0010
0100
1000
,
0001
0010
0100
1000
0010
0100
1000
0100
,
0001
1000
0001
0010
0100
1000
0001
0100
,
0001
0000
1000
0001
0000
0001
0000
0010
,
0100
0000
0100
0010
0000
0000
0010
0000
,
1001
0000
0000
0001
0100
0000
0010
0000
0000
0100
0001
0000
0010
0000
0100
0000
,
1000
0000
0000
0010
1000
0000
0100
0000
0000
1000
0010
0000
1000
0000
0100
0000
,
0010
0000
0000
0001
1000
0000
0001
0000
0000
1000
0001
0000
0100
0000
0010
0000
,
1000
0000
0000
0001
1000
0000
0001
0000
0000
0100
0001
0000
0010
0000
0100
0000
,
1000
0000
0000
0010
0100
0000
0001
0000
0000
0010
0001
0000
0010
0000
0100
0000
,
1000
0000
0000
0100
1000
0000
0010
0000
0000
1000
0010
0000
1000
0000
0100
0000
,
0010
0000
0000
0001
0100
0000
0010
0000
0000
0100
0001
0000
0010
0000
0100
0000
,
1000
0000
0000
0100
0010
0000
0001
0000
1000
0001
1000
0000
0010
0000
0100
0000
,
0001
0100
0010
0001
0010
0100
0001
1000
,
0001
0100
1000
0100
0010
1000
0001
1000
,
0001
0100
1000
0100
1000
0100
0001
1000
,
0001
0010
0100
0001
0100
0010
0001
1000
,
0001
0010
1000
0010
1000
0010
0001
1000
,
0001
0010
1000
0010
0001
1000
0001
0100
,
0101
0101
1100
1100
,
1001
0000
0110
0000
1001
0001
0010
0100
,
1000
0000
0000
1000
0001
0000
0100
0000
0001
0100
0001
0000
0010
0000
0100
0000
,
0010
0000
0000
0010
0001
0000
0100
0000
0010
0100
0010
0000
1000
0000
0001
0000
,
0010
0000
0000
0010
0100
0000
1000
0000
0001
1000
0001
0000
0100
0000
0001
0000
,
1000
0000
0000
1000
0100
0000
0010
0000
0001
0100
0001
0000
0100
0000
0010
0000
,
0100
0000
0000
0100
0001
0000
1000
0000
0100
1000
0100
0000
0010
0000
0100
0000
,
1000
0000
0000
1000
0001
0000
0100
0000
0001
0100
0001
0000
0010
0000
0100
0000
,
1100
0000
1000
0001
1001
0000
0001
0100
,
0110
0010
0010
1001
;

//---------------dance-single - ----------------
#NOTES:
     dance-single:
     :
     Beginner:
     3:
     0.152,0.190,0.050,0.000,0.000: // measure 1
1000
0000
0000
0000
,  // measure 2
1000
0000
0000
0000
,  // measure 3
1000
0000
0000
0000
,  // measure 4
1000
0000
0000
0000
,  // measure 5
0001
0000
0000
0000
,  // measure 6
0001
0000
0000
0000
,  // measure 7
0001
0000
0000
0000
,  // measure 8
0001
0000
0000
0000
,  // measure 9
1001
0000
0000
0000
,  // measure 10
0010
0000
0000
0000
,  // measure 11
0010
0000
0000
0000
,  // measure 12
0010
0000
0000
0000
,  // measure 13
0100
0000
0000
0000
,  // measure 14
0100
0000
0000
0000
,  // measure 15
0100
0000
0000
0000
,  // measure 16
0100
0000
0000
0000
,  // measure 17
0001
0000
0001
0000
,  // measure 18
0001
0000
0001
0000
,  // measure 19
1000
0000
1000
0000
,  // measure 20
1000
0000
1000
0000
,  // measure 21
0010
0000
0010
0000
,  // measure 22
0010
0000
0010
0000
,  // measure 23
0100
0000
0100
0000
,  // measure 24
0100
0000
0100
0000
,  // measure 25
0001
0000
1000
0000
,  // measure 26
0001
0000
0001
0000
,  // measure 27
1000
0000
0001
0000
,  // measure 28
1000
0000
1000
0000
,  // measure 29
0010
0000
0100
0000
,  // measure 30
0010
0000
0010
0000
,  // measure 31
0100
0000
0010
0000
,  // measure 32
0100
0000
0100
0000
,  // measure 33
1001
0000
1000
0000
,  // measure 34
1000
0000
0010
0000
,  // measure 35
0010
0000
0100
0000
,  // measure 36
0100
0000
0001
0000
,  // measure 37
0001
0000
0010
0000
,  // measure 38
0010
0000
0100
0000
,  // measure 39
0100
0000
1000
0000
,  // measure 40
1000
0000
0000
0000
,  // measure 41
1001
0000
0000
0000
,  // measure 42
0010
0000
0000
0000
,  // measure 43
0100
0000
0000
0000
,  // measure 44
1000
0000
0000
0000
,  // measure 45
0010
0000
0000
0000
,  // measure 46
0100
0000
0000
0000
,  // measure 47
0001
0000
0000
0000
,  // measure 48
1001
0000
0000
0000
,  // measure 49
0001
0000
1000
0000
,  // measure 50
0001
0000
1000
0000
,  // measure 51
0100
0000
1000
0000
,  // measure 52
0100
0000
1000
0000
,  // measure 53
0010
0000
0100
0000
,  // measure 54
0010
0000
0100
0000
,  // measure 55
0010
0000
0100
0000
,  // measure 56
0001
0000
0000
0000
,  // measure 57
1001
0000
0001
0000
,  // measure 58
1000
0000
1000
0000
,  // measure 59
0001
0000
0010
0000
,  // measure 60
0001
0000
1000
0000
,  // measure 61
0100
0000
1000
0000
,  // measure 62
0010
0000
1000
0000
,  // measure 63
0001
0000
1000
0000
,  // measure 64
0010
0000
0010
0000
;
