#TITLE:Unpronounceable;
#SUBTITLE:;
#ARTIST:they might be giants;
#TITLETRANSLIT:;
#SUBTITLETRANSLIT:;
#ARTISTTRANSLIT:;
#CREDIT:DigiMindAxel;
#BANNER:Unpronounceable.png;
#BACKGROUND:Unpronounceable-bg.png;
#LYRICSPATH:Unpronounceable.lrc;
#CDTITLE:DigiMindAxel original simfile.png;
#MUSIC:Unpronounceable.ogg;
#METERTYPE:DDR X;
#OFFSET:-0.279;
#SAMPLESTART:20.597;
#SAMPLELENGTH:12.000;
#SELECTABLE:YES;
#BPMS:0.000=140.000;
#STOPS:144.500=0.214
,145.500=0.429
,146.500=0.214
,147.500=0.857
,148.500=0.214
,149.500=0.429
,150.500=0.214
,151.500=0.857
,152.500=0.214
,153.500=0.214
,154.500=0.214
,155.500=0.214
,158.500=0.214
,159.500=0.429
,160.500=0.214
;
#BGCHANGES:0.000=Unpronounceable.avi=1.000=1=1=0,
99999=-nosongbg-=1.000=0=0=0 // don't automatically add -songbackground-
;

//---------------dance-single - ----------------
#NOTES:
     dance-single:
     :
     Easy:
     5:
     0.181,0.236,0.008,0.107,0.000: // measure 1
0000
0000
0000
0000
,  // measure 2
0000
0000
0000
0000
,  // measure 3
0000
0000
0000
0000
,  // measure 4
0000
0000
0000
0000
,  // measure 5
0000
0000
0000
0000
,  // measure 6
0000
0000
0000
0000
,  // measure 7
0000
0000
0000
0000
,  // measure 8
0000
0000
0000
0000
,  // measure 9
2000
0000
3001
0000
,  // measure 10
0200
0000
0301
0000
,  // measure 11
2000
0000
3100
0000
,  // measure 12
0020
0000
0130
0000
,  // measure 13
1000
0000
0000
1000
0000
0000
0000
0000
,  // measure 14
0001
0000
0000
0001
0000
0000
0000
0000
,  // measure 15
0010
0000
0000
0010
0000
0000
0000
0000
,  // measure 16
0100
0000
0000
0100
0000
0000
0000
0000
,  // measure 17
1000
0000
0000
1000
0000
0000
1000
0000
,  // measure 18
0000
1000
0000
0000
0002
0000
0000
0000
,  // measure 19
1003
0000
0000
1000
0000
0000
0000
0000
,  // measure 20
0001
0000
0000
0001
0000
0000
0000
0000
,  // measure 21
0100
0000
0000
0100
0000
0000
0000
0000
,  // measure 22
0010
0000
0000
0010
0000
0000
0000
0000
,  // measure 23
1000
0000
0000
1000
0000
0000
0000
0000
,  // measure 24
0001
0000
0000
0001
0000
0000
0000
0000
,  // measure 25
0100
0000
0000
0100
0000
0000
0100
0000
,  // measure 26
0000
0100
0000
0000
0020
0000
0000
0000
,  // measure 27
1030
0000
0000
1000
0000
0000
0000
0000
,  // measure 28
0001
0000
0000
0001
0000
0000
0000
0000
,  // measure 29
0020
0000
0230
0000
,  // measure 30
1300
0000
0001
0000
,  // measure 31
0200
0000
0320
0000
,  // measure 32
1030
0000
0100
0000
,  // measure 33
1000
0000
0000
1000
0000
0000
0001
0000
,  // measure 34
0000
0001
0000
0000
2000
0000
0000
0000
,  // measure 35
3100
0000
0010
0000
,  // measure 36
0001
0000
0100
0000
,  // measure 37
0010
0010
0100
0100
,  // measure 38
0010
0010
0100
0100
,  // measure 39
0001
0010
0100
1000
,  // measure 40
0002
0000
1003
1000
,  // measure 41
0001
0001
0000
0000
,  // measure 42
0100
0001
0100
0000
,  // measure 43
0001
1000
0001
0000
,  // measure 44
1000
0100
1000
0000
,  // measure 45
0001
1000
0001
0000
,  // measure 46
0010
0001
0100
0000
,  // measure 47
0010
1000
0100
0000
,  // measure 48
0010
0001
0010
0000
,  // measure 49
0001
1000
0001
0000
,  // measure 50
1000
0010
1000
0010
,  // measure 51
0100
0001
0100
0000
,  // measure 52
0001
1000
0001
1000
,  // measure 53
0100
1000
0100
0000
,  // measure 54
0010
0000
0000
0001
0000
0000
0010
0000
,  // measure 55
0000
0100
0000
0000
1000
0000
0000
0000
,  // measure 56
0001
1000
0001
1000
,  // measure 57
0100
1000
0100
0010
,  // measure 58
0001
0100
0001
0000
,  // measure 59
1000
0001
1000
0000
,  // measure 60
0100
1000
0100
0000
,  // measure 61
0010
0100
0010
0000
,  // measure 62
0001
0000
0000
0100
0000
0000
0010
0000
,  // measure 63
0000
1000
0000
0000
0001
0000
0000
0000
,  // measure 64
1000
0100
1000
0000
,  // measure 65
0001
1000
0001
0000
,  // measure 66
2002
0000
0000
0000
,  // measure 67
0000
0000
0003
0000
,  // measure 68
0000
0000
0000
0000
,  // measure 69
0000
0000
0000
0000
,  // measure 70
3000
0000
0000
0000
;

//---------------dance-single - ----------------
#NOTES:
     dance-single:
     :
     Medium:
     8:
     0.323,0.446,0.008,0.114,0.000: // measure 1
0000
0000
0000
0000
,  // measure 2
0000
0000
0000
0000
,  // measure 3
0000
0000
0000
0000
,  // measure 4
0000
0000
0000
0000
,  // measure 5
0000
0000
0000
0000
,  // measure 6
0000
0000
0000
0000
,  // measure 7
0000
0000
0000
0000
,  // measure 8
0000
0000
0000
0000
,  // measure 9
2000
0000
0000
0001
3001
0000
0000
0000
,  // measure 10
0200
0000
0000
0010
0310
0000
0000
0000
,  // measure 11
2000
0000
0000
0100
3100
0000
0000
0000
,  // measure 12
0020
0000
0001
0031
,  // measure 13
1000
0100
0000
1000
0100
0000
0000
0010
,  // measure 14
0001
0000
0010
0001
0000
0000
0000
0000
,  // measure 15
0100
0010
0000
0100
0010
0000
0000
1000
,  // measure 16
0010
0000
1000
0010
0000
0000
0000
0000
,  // measure 17
1000
0001
0000
1000
0001
0000
1000
0001
,  // measure 18
0000
0010
0100
0000
0020
0000
0000
0000
,  // measure 19
0130
1000
0000
0100
1000
0000
0000
0010
,  // measure 20
0100
0000
0010
0100
0000
0000
0000
0000
,  // measure 21
0001
0100
0000
0001
0100
0000
0000
0001
,  // measure 22
1000
0000
0001
1000
0000
0000
0000
0000
,  // measure 23
0100
1000
0000
0100
1000
0000
0000
0100
,  // measure 24
0010
0000
0100
0010
0000
0000
0000
0000
,  // measure 25
0001
0100
0000
0001
0100
0000
0001
0100
,  // measure 26
0000
0001
1000
0000
0200
0000
0000
0000
,  // measure 27
1300
0100
0000
1000
0100
0000
0000
0010
,  // measure 28
0001
0000
0010
0001
0000
0100
0010
0000
,  // measure 29
1000
0001
1000
0000
0100
1000
0100
0000
,  // measure 30
1000
0001
1000
0000
0001
0100
0001
0000
,  // measure 31
0100
0010
0100
0000
0001
1000
0001
0000
,  // measure 32
1000
0100
1000
0000
0010
0100
0010
0000
,  // measure 33
1000
0001
0000
1000
0001
0000
1000
0001
,  // measure 34
0000
0100
0001
0000
0200
0000
0000
0000
,  // measure 35
0320
0000
0100
0130
0000
0000
0001
2000
,  // measure 36
0000
0000
0001
3001
0000
0000
0000
0000
,  // measure 37
1000
0001
1000
0001
0010
0100
0010
0100
,  // measure 38
1000
0010
1000
0010
1000
0001
1000
0001
,  // measure 39
0100
0001
0100
0001
0100
0001
0100
0001
,  // measure 40
0200
0000
0000
0000
0301
1000
0001
1000
,  // measure 41
0100
1000
0100
1000
0000
0000
0000
0000
,  // measure 42
0001
0100
0001
0000
0100
0010
0100
0000
,  // measure 43
0001
1000
0001
0000
1000
0100
1000
0000
,  // measure 44
0001
0100
0001
0000
0100
0010
0100
0000
,  // measure 45
0001
1000
0001
0000
1000
0100
1000
0000
,  // measure 46
0010
0100
0000
0010
0100
0000
0010
0001
,  // measure 47
0000
0010
0001
0000
0200
0000
0000
0000
,  // measure 48
0310
1000
0000
0010
1000
0000
0000
0100
,  // measure 49
0010
0000
0100
0010
0000
0000
0001
0000
,  // measure 50
1000
0100
1000
0000
0001
1000
0001
0000
,  // measure 51
1000
0100
1000
0000
0001
1000
0001
0000
,  // measure 52
0100
0010
1000
0000
0010
0100
0010
0000
,  // measure 53
0100
0010
1000
0000
0010
0100
0010
0000
,  // measure 54
1000
0100
0000
0010
0001
0000
0100
0010
,  // measure 55
0000
1000
0100
0000
0020
0000
0000
0000
,  // measure 56
0031
0100
0001
0000
1000
0001
1000
0000
,  // measure 57
0100
1000
0100
0000
0010
0001
0010
0001
,  // measure 58
0100
0010
0000
1000
0100
0000
0010
0001
,  // measure 59
0100
0000
0001
0100
0000
0000
0001
0000
,  // measure 60
0010
0100
0000
0010
0100
0000
1000
0001
,  // measure 61
0100
0000
0001
0100
0000
0000
0010
0000
,  // measure 62
1000
0100
0000
0010
0001
0000
0100
0010
,  // measure 63
0000
1000
0100
0000
0020
0000
0000
0000
,  // measure 64
0031
0100
0000
0010
0100
0000
0001
1000
,  // measure 65
0100
0000
1000
0100
0000
0000
0010
0000
,  // measure 66
2002
0000
0000
0000
,  // measure 67
0000
0000
0003
0000
,  // measure 68
0000
0000
0000
0000
,  // measure 69
0000
0000
0000
0000
,  // measure 70
3000
0000
0000
0000
;

//---------------dance-single - ----------------
#NOTES:
     dance-single:
     :
     Hard:
     10:
     0.470,0.692,0.008,0.244,0.019: // measure 1
0000
0000
0000
0000
,  // measure 2
0000
0000
0000
0000
,  // measure 3
0000
0000
0000
0000
,  // measure 4
0000
0000
0000
0000
,  // measure 5
0000
0000
0000
0000
,  // measure 6
0000
0000
0000
0000
,  // measure 7
0000
0000
0000
0000
,  // measure 8
0000
0000
0000
0000
,  // measure 9
1000
0010
0000
2000
0002
0000
3003
0000
,  // measure 10
0001
0010
0000
0200
0020
0000
0330
0000
,  // measure 11
0100
1000
0000
0002
0200
0000
0303
0000
,  // measure 12
0001
1000
0000
0010
1000
0100
0010
0001
,  // measure 13
1000
0100
0000
0100
0001
0000
0000
0001
,  // measure 14
0100
0000
0100
1000
0000
0000
0001
0000
,  // measure 15
1000
0010
0000
0010
0001
0000
0000
0001
,  // measure 16
0010
0000
0010
1000
0000
0000
0001
0000
,  // measure 17
0100
0001
0000
0001
1000
0000
1000
0100
,  // measure 18
0000
0100
0010
0000
0020
0000
0000
0000
,  // measure 19
0031
0100
0000
0100
1000
0000
0000
1000
,  // measure 20
0100
0000
0100
0001
0000
0000
1000
0000
,  // measure 21
0001
0010
0001
1000
0010
0000
1000
0100
,  // measure 22
0010
0000
0001
0100
0010
0000
0100
0000
,  // measure 23
0001
1000
0100
1000
0001
0000
0010
0100
,  // measure 24
1000
0000
0010
0100
0001
0000
0100
0000
,  // measure 25
0001
1000
0100
0001
0100
0000
1000
0001
,  // measure 26
0010
1000
0010
0000
0002
0000
0000
0000
,  // measure 27
1003
0010
0100
0010
1000
0000
0001
1000
,  // measure 28
0100
0000
0000
0000
0010
0000
0100
0000
1000
0000
0001
0000
0100
0000
0001
0100
,  // measure 29
0001
1000
0001
1000
0100
1000
0100
1000
,  // measure 30
0100
0001
0100
0001
0100
1000
0100
0010
,  // measure 31
0001
0100
0001
0100
1000
0100
1000
0100
,  // measure 32
0001
0100
0001
0100
0010
0100
0010
0100
,  // measure 33
0001
0001
1000
0100
0100
0010
0001
0001
,  // measure 34
1000
0010
0010
0100
0002
0000
1000
0000
,  // measure 35
1003
0010
0001
0010
1000
0100
1000
0100
,  // measure 36
1000
0010
0001
0010
1000
0001
1000
0001
,  // measure 37
0010
0000
0000
0000
0000
0000
0200
0300
0000
0000
0000
0000
1000
0000
0000
0000
0000
0000
0020
0030
0000
0000
0000
0000
0100
0000
0000
0000
0000
0000
0002
0003
0000
0000
0000
0000
0010
0000
0000
0000
0000
0000
0200
0300
0000
0000
0000
0000
,  // measure 38
1000
0000
0000
0000
0000
0000
0020
0030
0000
0000
0000
0000
1000
0000
0000
0000
0000
0000
0002
0003
0000
0000
0000
0000
0010
0000
0000
0000
0000
0000
0200
0300
0000
0000
0000
0000
1000
0000
0000
0000
0000
0000
0020
0030
0000
0000
0000
0000
,  // measure 39
0100
0000
0000
0000
0000
0000
0002
0003
0000
0000
0000
0000
1000
0000
0000
0000
0000
0000
0200
0300
0000
0000
0000
0000
0010
0000
0000
0000
0000
0000
0200
0300
0000
0000
0000
0000
1000
0000
0000
0000
0000
0000
0002
0003
0000
0000
0000
0000
,  // measure 40
0200
0000
0000
0000
0000
0000
0000
0000
0000
0000
0000
0000
0000
0000
0000
0000
0000
0000
0000
0000
0000
0000
0000
0000
0301
0000
0000
0000
0000
0000
2000
3000
0000
0000
0000
0000
0100
0000
0000
0000
0000
0000
0020
0030
0000
0000
0000
0000
,  // measure 41
0001
0000
0000
0000
0000
0000
0200
0300
0000
0000
0000
0000
0010
0000
0000
0000
0000
0000
0100
0000
0000
0000
0000
0000
0001
0000
0000
0000
0000
0000
0010
0000
0000
0000
0000
0000
0100
0000
0000
0000
0000
0000
1000
0000
0000
0000
0000
0000
,  // measure 42
0001
0100
0010
0100
0001
0000
0100
0010
,  // measure 43
1000
0000
0100
0010
0002
0000
1000
0000
,  // measure 44
1003
0001
0100
0001
1000
0000
0100
0010
,  // measure 45
0001
0000
1000
0001
0200
0000
0010
0000
,  // measure 46
0310
1000
0100
0001
0100
0000
1000
0001
,  // measure 47
0100
1000
0100
0000
0002
0000
1000
0000
,  // measure 48
1003
0001
0000
0001
0100
0000
0010
1000
,  // measure 49
0001
0010
0100
2000
0000
0000
3001
0000
,  // measure 50
1000
0001
0010
0001
1000
0001
0010
0001
,  // measure 51
1000
0100
0001
0100
1000
0010
0001
0010
,  // measure 52
1000
0100
0010
0100
1000
0100
0010
0100
,  // measure 53
1000
0010
0001
0010
1000
0100
0001
0100
,  // measure 54
1000
1000
0001
0100
0100
0010
1000
1000
,  // measure 55
0100
0010
0010
0001
0200
0000
0000
0000
,  // measure 56
0301
1000
0010
1000
0001
1000
0010
1000
,  // measure 57
0001
0000
0000
0001
1000
0000
0100
0000
0010
0001
0010
0001
0010
0001
0010
0000
,  // measure 58
0001
0100
0010
0100
0001
0000
1000
0100
,  // measure 59
0001
0000
1000
0010
0001
0000
1000
0000
,  // measure 60
0001
0010
0100
0010
0001
0000
1000
0100
,  // measure 61
0001
0000
1000
0010
0001
0000
1000
0000
,  // measure 62
0100
0100
0010
0001
0001
1000
0010
0010
,  // measure 63
0100
0001
0001
0000
2000
0000
0001
0000
,  // measure 64
3001
0100
0010
0100
0001
0000
1000
0100
,  // measure 65
0001
0000
1000
0010
0001
0000
1000
0000
,  // measure 66
2001
0001
0000
0001
0001
0000
0000
0100
,  // measure 67
0100
0000
0100
0100
0000
0000
0000
0000
,  // measure 68
0001
0001
0000
0001
0001
0000
0000
0010
,  // measure 69
0010
0000
0010
0010
0000
0000
0000
0000
,  // measure 70
3100
0100
0000
0010
0010
0000
0001
0001
,  // measure 71
0000
1000
1000
0000
0010
0000
0000
0000
,  // measure 72
0100
0100
0000
0001
0001
0000
0000
0010
,  // measure 73
0010
0000
0100
0100
0000
1000
1000
0000
;

//---------------dance-single - ----------------
#NOTES:
     dance-single:
     :
     Beginner:
     1:
     0.060,0.124,0.008,0.000,0.000:
0000
0000
0000
0000
,
0000
0000
0000
0000
,
0000
0000
0000
0000
,
0000
0000
0000
0000
,
0000
0000
0000
0000
,
0000
0000
0000
0000
,
0000
0000
0000
0000
,
0000
0000
0000
0000
,
1000
0000
0000
0000
,
0100
0000
0000
0000
,
1000
0000
0000
0000
,
0001
0000
0000
0000
,
0100
0000
0000
0000
,
0100
0000
0000
0000
,
0010
0000
0000
0000
,
0010
0000
0000
0000
,
0100
0000
0000
0000
,
0000
0000
0000
0000
,
0001
0000
0000
0000
,
0001
0000
0000
0000
,
1000
0000
0000
0000
,
0100
0000
0000
0000
,
1000
0000
0000
0000
,
0100
0000
0000
0000
,
1000
0000
0000
0000
,
0000
0000
0000
0000
,
0010
0000
0000
0000
,
0010
0000
0000
0000
,
0100
0000
0000
0000
,
0001
0000
0000
0000
,
1000
0000
0000
0000
,
0100
0000
0000
0000
,
0010
0000
0000
0000
,
0000
0000
0000
0000
,
0001
0000
0000
0000
,
0100
0000
0000
0000
,
0010
0000
0000
0000
,
0000
0000
0000
0000
,
0000
0000
0000
0000
,
1000
0000
0001
0000
,
0000
0000
0000
0000
,
1000
0000
0000
0000
,
0010
0000
0000
0000
,
0100
0000
0000
0000
,
0010
0000
0000
0000
,
1000
0000
0000
0000
,
0000
0000
0000
0000
,
0001
0000
0000
0000
,
0010
0000
0000
0000
,
0001
0000
0001
0000
,
0001
0000
0001
0000
,
1000
0000
1000
0000
,
1000
0000
1000
0000
,
0100
0000
0000
0000
,
0000
0000
0000
0000
,
0010
0000
0000
0000
,
0001
0000
0000
0000
,
1000
0000
0000
0000
,
0001
0000
0000
0000
,
0010
0000
0000
0000
,
0100
0000
0000
0000
,
1000
0000
0000
0000
,
0000
0000
0000
0000
,
0001
0000
0000
0000
,
0100
0000
0000
0000
,
0110
0000
0000
0000
;
