#TITLE:Toothless Hawkins;
#SUBTITLE:(And His Robot Jazz Band);
#ARTIST:Varien & Razihel;
#TITLETRANSLIT:;
#SUBTITLETRANSLIT:;
#ARTISTTRANSLIT:;
#CREDIT:DigiMindAxel;
#BANNER:Toothless Hawkins (And His Robot Jazz Band).png;
#BACKGROUND:Toothless Hawkins (And His Robot Jazz Band)-bg.png;
#LYRICSPATH:;
#CDTITLE:DigiMindAxel original simfile.png;
#MUSIC:Toothless Hawkins (And His Robot Jazz Band).ogg;
#METERTYPE:DDR X;
#OFFSET:-8.938;
#SAMPLESTART:26.118;
#SAMPLELENGTH:12.000;
#SELECTABLE:YES;
#BPMS:0.000=110.000,192.000=82.150,193.000=83.845,194.000=86.000,195.000=88.477,196.000=91.255,197.000=94.000,198.000=97.647,199.000=103.500,200.000=109.050,201.000=114.500,202.000=122.000,203.000=130.500,204.000=134.300,205.000=135.115;
#STOPS:;
#BGCHANGES:;

//---------------dance-single - ----------------
#NOTES:
     dance-single:
     :
     Easy:
     5:
     0.209,0.208,0.087,0.222,0.000:
1000
1000
0000
0000
,
0001
0001
0000
0000
,
1000
1000
0000
0000
,
0001
0001
0000
0000
,
1000
1000
0010
0000
,
0100
0100
0001
0000
,
0010
0010
0100
0000
,
2000
0000
0000
3000
,
0001
1000
0100
0010
,
0002
0000
0203
0000
,
0310
0100
0001
1000
,
0200
0000
0320
0000
,
0031
1000
0010
0100
,
0020
0000
2030
0000
,
3001
0010
0100
0010
,
0002
0000
0203
0000
,
0301
1000
0100
0010
,
0200
0000
2300
0000
,
3001
0100
0010
0100
,
0002
0000
2003
0000
,
3100
0010
0001
0010
,
0200
0000
0320
0000
,
0031
1000
0010
1000
,
0002
0000
0000
0003
,
1001
1000
0000
0000
,
0110
0010
0000
0000
,
1001
0001
0000
0000
,
0110
0100
0000
0000
,
1001
1000
0001
0010
,
0100
0100
0010
0001
,
1000
1000
0010
0100
,
0002
0000
0000
0003
,
1000
0100
1000
0100
,
0010
0001
0010
0001
,
1000
0010
1000
0010
,
0100
0001
0100
0000
,
0001
1000
0001
1000
,
0100
0010
0100
0010
,
0001
1000
0001
1000
,
0020
0000
0230
0000
,
0301
1000
0100
0010
,
0002
0000
0203
0000
,
0310
1000
0001
0010
,
0200
0000
0320
0000
,
0031
1000
0010
0100
,
0002
0000
2003
0000
,
3100
0010
0001
0010
,
0200
0000
0000
0300
,
1001
0000
0110
0000
,
1001
0000
0110
0000
,
1001
1000
1000
0000
,
0000
0000
2002
0000
,
0000
0000
3003
0000
;

//---------------dance-single - ----------------
#NOTES:
     dance-single:
     :
     Medium:
     8:
     0.395,0.374,0.277,0.372,0.000:
1100
1100
0010
0001
,
0011
0011
0100
1000
,
1100
1100
0010
0001
,
0011
0011
0100
1000
,
1001
0001
1000
1000
,
0100
0010
0100
0000
0010
0000
0001
0000
,
1000
0010
1000
0010
1000
0001
1000
0001
,
2000
0000
0000
0000
0000
0000
0000
3001
,
2000
0000
3200
0000
0320
0000
0031
1000
,
0100
0000
0100
0000
0010
0001
1000
0000
,
0200
0000
0320
0000
0230
0000
1300
0001
,
0100
0000
0100
0000
0001
0010
0100
1000
,
0002
0203
0320
0230
,
0301
0010
0100
0000
1000
0100
0010
0000
,
0002
2003
3200
2300
,
3010
0100
0001
0000
0100
0010
1000
0000
,
0200
0320
0032
2003
,
3100
0010
0001
0000
1000
0010
0100
0000
,
0002
2003
3200
0320
,
0031
0100
0001
1000
0100
0010
0001
0000
,
2000
3020
0230
0320
,
1030
0100
0010
0000
0001
1000
0010
0000
,
0200
0320
2030
3002
,
1003
0100
0010
0001
1000
0010
0100
0000
,
1001
1001
0100
0100
,
1001
1001
0010
0010
,
1001
1001
0100
0100
,
1001
1001
0110
0110
,
1001
0000
1001
0000
1000
0010
0100
0001
,
1001
0000
1001
0000
0001
0100
0010
1000
,
1001
0000
1001
0000
1000
0100
0010
0001
,
2000
0000
0000
0000
0000
0000
0000
3001
,
1000
0010
0001
0010
1000
0100
0010
0000
,
0001
0100
1000
0100
0001
0010
0100
0000
,
0010
0001
0100
0010
1000
0100
0010
0000
,
0100
0100
1000
0000
0010
0010
0100
0000
,
0001
0010
0100
1000
0100
0010
0001
0000
,
1000
0100
0010
0001
0010
0100
1000
0000
,
0001
0010
1000
0010
0001
0010
0100
0000
,
1000
0100
0010
0000
0100
0010
0001
0000
,
2001
3020
0230
0302
,
1003
0001
0010
1000
0010
0001
1000
0000
,
1020
0000
0130
0001
0010
0100
2000
0000
,
3001
1000
0100
0010
0001
0001
1000
1000
,
0020
0230
0302
2003
,
3001
1000
0100
0001
0100
1000
0010
0000
,
0200
0000
0301
1000
0100
0010
0002
0000
,
0203
0000
0000
0310
,
1001
1000
0110
0001
,
0110
1000
0110
0001
,
1000
0110
0110
0010
,
0100
1001
2002
0000
,
0000
0000
3003
0000
;

//---------------dance-single - ----------------
#NOTES:
     dance-single:
     :
     Hard:
     12:
     0.578,0.561,0.372,0.277,0.360:
0101
0000
0101
0000
0100
0001
0010
0100
,
1100
0000
1100
0000
0010
0001
0100
0010
,
1001
0000
1001
0000
0001
0010
0100
1000
,
0110
0110
0011
1100
,
1001
0000
0000
0001
0000
0000
0100
0000
0000
0001
0000
1000
0001
0000
0000
0100
0000
0000
0010
0000
0000
0100
0000
0000
,
0001
0000
0000
0010
0000
0000
0001
0000
0000
0010
0000
0001
1000
0000
0000
0010
0000
0000
0100
0000
0000
0010
0000
0000
,
1000
0000
0000
0001
0000
0000
0010
0000
0000
0100
0000
1000
0010
0000
0000
0100
0000
0000
0010
0000
0000
1000
0000
0000
,
0002
0000
0000
0000
2003
0000
0000
3001
,
1100
0100
1000
0010
0100
0001
0010
0100
,
1000
0000
0001
0100
0000
0001
0100
0000
0000
0000
0000
0000
0001
0000
1000
0100
1000
0100
2000
0000
0000
0000
0000
0000
,
3001
0000
0000
1000
0000
0000
0100
0000
0010
0100
0000
0000
1000
0000
0001
0100
0000
0000
0001
0000
0000
0000
0000
0000
,
1000
0000
0000
1000
0000
0000
0001
0000
0010
0000
0000
0001
1000
0000
0000
1000
0000
0000
0010
0000
0000
0010
0000
0000
,
0100
0001
0010
0100
1000
0001
0010
0100
,
0010
0000
0001
0100
0000
0001
0100
0000
0000
0000
0000
0000
0001
0000
1000
0100
1000
0100
2000
0000
0000
0000
0000
0000
,
3001
0000
0000
1000
0000
0000
0100
0000
0010
0100
0000
0000
1000
0000
0001
0100
0000
0000
0010
0000
0000
0000
0000
0000
,
1000
0000
0100
1000
0000
0100
0000
0000
0000
0010
0000
0000
0100
0000
0010
0001
0000
0010
0000
0000
0000
1001
0000
0000
,
1000
0100
0001
0100
1000
0001
0100
0010
,
0100
0000
0001
1000
0000
0001
1000
0000
0000
0100
0000
0000
0010
0000
0001
1000
0001
1000
0002
0000
0000
0000
0000
0000
,
1003
0000
0000
0010
0000
0000
1000
0000
0001
0010
0000
0000
0001
0000
1000
0010
0000
0000
1000
0000
0000
0001
0000
0000
,
0100
0000
0000
0100
0000
0000
0010
0000
1000
0000
0000
0001
0010
0000
0000
0010
0000
0000
0100
0000
0000
1000
0000
0000
,
1001
0000
0000
0001
0000
0000
1000
0000
0001
0100
0000
0000
0001
0000
0100
0010
0000
0000
1000
0000
0000
0010
0000
0000
,
1000
0000
0001
0010
0000
0001
0010
0000
0000
0100
0000
0000
0010
0000
0001
1000
0001
1000
0002
0000
0000
0000
0000
0000
,
1003
0000
0000
0100
0000
0000
0010
0000
0001
0100
0000
0000
0010
0000
1000
0100
0000
0000
0010
0000
0000
0000
0000
0000
,
0001
0001
0001
0000
0000
0011
1001
0000
,
1010
0000
0000
0010
0000
0000
1010
0000
0000
0000
0000
0000
0100
0000
0000
0000
0000
0001
0000
0000
0000
1000
0000
0000
,
1100
0100
1100
0010
0001
0100
0010
0000
,
1010
0000
0000
1000
0000
0000
1010
0000
0000
0000
0000
0000
0100
0000
0000
0000
0000
0001
0000
0000
0000
0010
0000
0000
,
0011
0001
0011
0000
1100
1000
1100
0000
,
1001
0001
1001
1000
0100
0010
0001
0100
,
0110
0010
0110
0100
0001
1000
0100
0010
,
0011
0001
0011
0010
0100
1000
0001
0100
,
0020
0000
0000
1000
2030
0000
0000
3001
,
0011
0000
0100
1000
0010
0100
0001
0000
0010
0100
1000
0100
0020
0000
0001
0000
,
0031
0000
1000
0001
0010
0100
1000
0000
0100
1000
0001
0100
0020
0000
0000
0000
,
1030
0000
0001
0010
1000
0010
0001
0000
1000
0010
0001
0010
2000
0000
0000
0000
,
3100
0000
0000
0010
0000
0000
0001
0000
0100
0000
0000
0010
1000
0000
0000
0100
0000
0000
0010
0000
0000
0011
0000
0000
,
1001
0000
0001
0010
1000
0010
0001
0000
1000
0010
0001
0010
2000
0000
0001
0000
,
3001
0000
1000
0100
0001
0100
1000
0000
0001
0100
1000
0100
0002
0000
0000
0000
,
1003
0000
0001
0100
0010
1000
0100
0000
0010
0100
1000
0100
0020
0000
0000
0000
,
0031
0000
1000
0010
0000
1000
0000
0000
0000
0001
0000
0000
0010
0000
0001
0010
0000
0100
0000
0000
0000
1010
0000
0000
,
1002
0010
2003
0010
3002
0010
2003
0010
,
3001
0000
1000
0100
0000
1000
0100
0000
0000
0010
0000
0000
0001
0000
0100
0010
0100
0010
0200
0000
0000
0000
0000
0000
,
0302
0010
2003
0010
3002
0010
2003
0010
,
3001
0000
0000
0001
0000
0000
0100
0000
0010
0000
0000
1000
0010
0000
0000
0010
0000
0000
0100
0000
0000
0101
0000
0000
,
1002
0100
2003
0100
3002
0100
2003
0100
,
3001
0000
1000
0010
0000
1000
0010
0000
0000
0100
0000
0000
0001
0000
0010
0001
0010
0001
0020
0000
0000
0000
0000
0000
,
0032
0010
2003
0010
3002
0010
2003
0010
,
3002
0000
0000
1003
,
1100
0000
0000
1100
0000
0100
0010
0000
0000
0011
0000
0010
,
0100
0000
0000
1100
0000
1000
0001
0000
0000
1001
0000
0100
,
0010
0000
0000
0110
0000
0000
0110
0000
0000
0100
0010
0001
,
0100
0000
2002
0000
,
0000
0000
3003
0000
;

//---------------dance-single - ----------------
#NOTES:
     dance-single:
     :
     Challenge:
     15:
     0.762,0.748,0.483,0.435,0.835: // measure 1
1001
0000
0000
0000
0000
0000
1001
0000
0000
0001
0000
0100
0001
0000
0000
0000
1000
0000
0000
0000
0000
0100
0000
0000
,  // measure 2
1100
0000
0000
0000
0000
0000
1100
0000
0000
1000
0000
0001
1000
0000
0000
0010
0000
0000
0100
0000
0000
0000
0000
0000
,  // measure 3
0101
0000
0000
0000
0000
0000
0101
0000
0000
0100
0000
0001
1000
0000
0000
0000
0100
0000
0000
0000
0000
0010
0000
0000
,  // measure 4
0011
0000
0000
0000
0000
0000
0011
0000
0000
0001
0000
1000
0010
0000
0000
1000
0000
0001
0010
0000
0000
0100
0000
0000
,  // measure 5
1000
0000
0000
1000
0000
0000
0001
0000
0000
0001
0000
0100
0010
0000
0000
1000
0000
0000
0100
0000
0000
0010
0000
0000
,  // measure 6
0100
0000
0000
0100
0000
0000
0010
0000
0000
0010
0000
0001
0100
0000
0000
0010
0000
0000
1000
0000
0000
0001
0000
0000
,  // measure 7
0010
0000
0001
0010
0000
0001
0010
0000
0001
0010
0000
0100
1000
0000
0100
1000
0000
0100
1000
0000
0010
0100
0000
0010
,  // measure 8
0100
0000
0001
1000
0000
1000
0000
0000
0000
0010
0000
0000
0100
0000
0001
1000
0000
1000
0000
0000
0000
0110
0000
0000
,  // measure 9
1002
0000
0000
0010
0000
0000
2003
0000
0000
0010
0000
0000
3002
0000
0000
0010
0000
0000
1003
0000
0001
0010
0000
0010
,  // measure 10
0100
0000
1000
0010
0000
1000
0010
0000
1000
0001
0010
0100
1000
0000
0001
0100
0010
0100
0002
0000
0000
0000
0000
0000
,  // measure 11
2003
0000
0000
0100
0000
0000
3001
0000
1000
0100
0000
0100
0010
0000
0001
0100
0000
0100
0010
0000
1000
0001
0010
0001
,  // measure 12
1000
0000
0000
1000
0000
0000
0010
0000
0110
0000
0000
0001
0100
0000
0100
0010
0000
0010
1000
0000
0000
0110
0000
0000
,  // measure 13
1002
0000
0000
0100
0000
0000
2003
0000
0000
0100
0000
0000
3002
0000
0000
0100
0000
0000
1003
0000
0001
0100
0000
0100
,  // measure 14
0010
0000
1000
0001
0000
1000
0001
0000
0010
0100
1000
0001
0100
0000
0001
1000
0100
1000
0002
0000
0000
0000
0000
0000
,  // measure 15
2003
0000
0000
0010
0000
0000
3001
0000
1000
0100
0010
0100
1000
0000
0010
0100
0000
0100
0001
0000
1000
0010
0100
0010
,  // measure 16
1000
0000
0001
0010
0000
0010
0000
0000
0000
0100
0000
0000
0010
0000
0001
0010
0000
0010
0000
0000
0000
0110
0000
0000
,  // measure 17
2001
0000
0000
0000
0000
0000
3010
0000
0000
0200
0000
0002
0000
0303
0000
0200
0000
0020
0000
0330
0000
0100
0000
0001
,  // measure 18
0010
0000
0100
1000
0000
0100
1000
0000
0001
0100
0010
1000
0100
0000
0010
0100
1000
0100
0020
0000
0000
0000
0000
0000
,  // measure 19
0230
0000
0000
0000
0000
0000
1300
0000
0100
0010
0000
0010
0001
0000
0100
0010
0000
0010
1000
0000
0100
0010
0001
0100
,  // measure 20
0010
0000
0000
0010
0000
0000
1000
0000
1100
0000
0000
0010
0100
0000
0100
0001
0000
0001
1000
0000
0000
0110
0000
0000
,  // measure 21
1002
0000
0000
0000
0000
0000
0103
0000
0000
0020
0000
2000
0000
3030
0000
0020
0000
0200
0000
0330
0000
0010
0000
1000
,  // measure 22
0100
0000
0010
0100
0000
0100
1000
0000
0001
0100
0010
0100
0001
0000
1000
0100
0010
0100
2000
0000
0000
0000
0000
0000
,  // measure 23
3020
0000
0000
0000
0000
0000
0130
0000
0001
0100
0010
0100
0001
0000
1000
0100
0000
0100
0010
0000
0001
0010
0100
0010
,  // measure 24
0001
0000
0000
0000
0000
0011
1001
0000
,  // measure 25
0110
0000
0000
1000
0000
0000
0110
0000
0000
1000
0000
0001
0200
0000
0000
0000
0000
0010
0000
0000
0000
0310
0000
0000
,  // measure 26
0110
0000
0000
1000
0000
0000
0110
0000
0000
1000
0000
0001
0100
0000
0000
0010
0000
0000
1000
0000
0000
0001
0000
0000
,  // measure 27
0110
0000
0000
0001
0000
0000
0110
0000
0000
0001
0000
1000
0200
0000
0000
0000
0000
0010
0000
0000
0000
0310
0000
0000
,  // measure 28
0110
0001
0110
0001
0011
0110
1100
1001
,  // measure 29
0110
0000
0000
1000
0000
0000
0110
0000
0000
1000
0000
0001
0010
0000
0000
0100
0000
1000
0010
0000
0000
0100
0000
0000
,  // measure 30
0110
0000
0000
0001
0000
0000
0110
0000
0000
0001
0000
1000
0100
0000
0000
0010
0000
0001
0100
0000
0000
0010
0000
0000
,  // measure 31
0110
0000
0000
1000
0000
0000
0110
0000
0000
1000
0000
0001
0100
0000
0000
0010
0000
1000
0001
1000
0001
1000
0001
1000
,  // measure 32
0001
0000
0000
0000
0000
0000
0000
0000
0000
0000
0000
0000
0000
0000
0000
0100
0000
0100
0010
0000
0000
0010
0000
0000
,  // measure 33
1001
0000
0001
0100
1000
0100
0002
0000
0013
0100
1000
0001
0200
0000
0302
0000
,  // measure 34
1003
0000
0000
0000
0000
0000
0001
0000
0000
0100
0000
0000
1000
0000
0000
0100
0000
0000
0002
0000
0000
0000
0000
0000
1003
0000
0000
0100
0000
0000
0010
0000
0000
0100
0000
0000
2000
0000
0000
0000
0000
0000
3001
0000
0100
0000
0010
0000
,  // measure 35
1000
0000
0001
0010
1000
0010
0002
0000
1003
0010
0100
0010
2000
0000
3002
0000
,  // measure 36
0013
0000
0000
0010
0000
0000
0100
0000
1100
0000
0000
0010
0100
0000
0100
0001
0000
0001
1000
0000
0000
1100
0000
0000
,  // measure 37
1001
0000
1000
0100
0001
0100
2000
0000
3001
0010
0100
0010
0002
0000
0203
0000
,  // measure 38
0310
0000
0000
0000
0000
0000
1000
0000
0000
0010
0000
0000
0001
0000
0000
0010
0000
0000
2000
0000
0000
0000
0000
0000
3100
0000
0000
0010
0000
0000
0001
0000
0000
0010
0000
0000
0200
0000
0000
0000
0000
0000
1300
0000
0001
0000
0100
0000
,  // measure 39
0010
0000
1000
0100
0001
0100
2000
0000
3010
0100
0001
0100
0020
0000
2030
0000
,  // measure 40
3001
0000
1000
0100
0000
0100
0000
0000
0000
0010
0000
0000
0100
0000
1000
0100
0000
0100
0000
0000
0000
0110
0000
0000
,  // measure 41
1001
0000
0000
1000
0000
0000
0001
0000
1000
0020
0000
0130
0002
0000
1003
0020
0000
0130
0002
0000
1003
0010
0000
0010
,  // measure 42
0100
0000
0001
0010
0000
0010
0100
0000
1000
0010
1000
0001
0010
0000
0001
0010
0100
1000
0020
0000
0000
0000
0000
0000
,  // measure 43
0130
0000
0000
0001
0000
0000
1000
0000
0100
1000
0000
1000
0001
0000
0100
0010
0000
0010
1000
0000
0000
0010
1000
0100
,  // measure 44
0010
0000
0000
0010
0000
0000
0001
0000
0101
0000
0000
0010
1000
0000
1000
0100
0000
0100
0010
0000
0000
0011
0000
0000
,  // measure 45
1001
0000
0000
0001
0000
0000
1000
0000
0001
0020
0000
0130
2000
0000
3001
0020
0000
0130
2000
0000
3001
0010
0000
0010
,  // measure 46
0100
0000
1000
0010
0000
0010
0100
0000
0010
1000
0001
0010
0100
0000
0010
0001
1000
0010
2000
0000
0000
0000
0000
0000
,  // measure 47
3001
0000
0000
0100
0000
0000
0001
0000
1000
0100
1000
0010
0100
0000
0001
0100
0000
0100
0010
0000
0000
0100
0001
0010
,  // measure 48
0200
0000
0000
0310
,  // measure 49
1001
0000
0000
1001
0000
0100
1100
0000
0000
0011
0000
0100
,  // measure 50
0110
0000
0000
1001
0000
0100
0101
0000
0000
1010
0000
1000
,  // measure 51
1001
0000
0000
0110
0000
0000
0110
0000
0000
1001
0010
0100
,  // measure 52
1100
0000
0000
0000
0010
0100
0010
0000
0000
0000
1000
0000
2002
0000
0000
0000
0000
0000
0000
0000
0000
0000
0000
0000
,  // measure 53
0000
0000
3003
0000
;

//---------------dance-single - ----------------
#NOTES:
     dance-single:
     :
     Beginner:
     2:
     0.088,0.122,0.055,0.000,0.000:
1000
0000
0000
0000
,
1000
0000
0000
0000
,
0001
0000
0000
0000
,
0001
0000
0010
0000
,
0100
0000
0000
0000
,
0100
0000
0000
0000
,
0010
0000
0000
0000
,
0010
0000
0000
0000
,
1001
0000
0000
0000
,
1000
0000
0100
0000
,
1000
0000
0000
0000
,
0001
0000
1000
0000
,
0001
0000
0000
0000
,
0100
0000
0010
0000
,
0100
0000
0000
0000
,
0001
0000
1000
0000
,
0100
0000
0000
0000
,
0010
0000
0100
0000
,
0010
0000
0000
0000
,
0001
0000
0100
0000
,
0001
0000
0000
0000
,
1000
0000
0100
0000
,
0010
0000
0000
0000
,
0100
0000
0000
0000
,
1001
0000
0000
0000
,
1000
0000
0000
0000
,
0001
0000
0000
0000
,
0001
0000
0000
0000
,
0010
0000
0000
0000
,
0100
0000
0000
0000
,
1000
0000
0000
0000
,
1001
0000
0000
0000
,
1001
0000
0001
0000
,
0100
0000
0001
0000
,
1000
0000
0100
0000
,
1000
0000
0000
0000
,
0001
0000
1000
0000
,
0100
0000
1000
0000
,
0001
0000
0010
0000
,
0001
0000
0000
0000
,
1001
0000
0000
0000
,
1000
0000
0100
0000
,
0010
0000
0000
0000
,
0001
0000
0100
0000
,
0010
0000
0000
0000
,
0100
0000
0010
0000
,
1000
0000
0000
0000
,
0001
0000
0000
0000
,
1001
0000
1000
0000
,
0001
0000
1000
0000
,
0001
0000
0000
0000
,
0000
0000
1001
0000
;
