#TITLE:Tizona d'El Cid;
#SUBTITLE:;
#ARTIST:TOMOSUKE;
#TITLETRANSLIT:;
#SUBTITLETRANSLIT:;
#ARTISTTRANSLIT:;
#CREDIT:DigiMindAxel;
#BANNER:Tizona d'El Cid.png;
#BACKGROUND:Tizona d'El Cid-bg.png;
#LYRICSPATH:;
#CDTITLE:beatmania IIDX.png;
#MUSIC:Tizona d'El Cid.ogg;
#METERTYPE:DDR X;
#OFFSET:-0.465;
#SAMPLESTART:38.654;
#SAMPLELENGTH:12.000;
#SELECTABLE:YES;
#BPMS:0.000=265.000;
#STOPS:;
#BGCHANGES:-10.000=Tizona d'El Cid.avi=1.000=1=1=0,
99999=-nosongbg-=1.000=0=0=0 // don't automatically add -songbackground-
;

//---------------dance-single - ----------------
#NOTES:
     dance-single:
     :
     Easy:
     5:
     0.149,0.322,0.166,0.150,0.000:
0000
0000
0000
0000
,
0000
0000
0000
0000
,
0000
0000
0000
0000
,
0000
0000
0000
0000
,
0000
0000
0000
0000
,
0000
0000
0000
0000
,
0000
0000
0000
0000
,
1000
0000
0000
0000
,
0100
0000
0000
0000
,
1000
0000
0000
0000
,
0001
0000
0000
0000
,
1000
0000
0000
0000
,
0100
0000
0000
0000
,
0010
0000
0000
0000
,
0100
0000
0000
0000
,
0010
0000
0000
0000
,
0001
0000
0000
0000
,
0100
0000
0000
0000
,
0001
0000
0000
0000
,
1000
0000
0000
0000
,
0001
0000
0000
0000
,
0100
0000
0000
0000
,
0010
0000
0000
0000
,
2002
0000
0000
0000
,
3003
0000
0000
0000
,
2002
0000
0000
0000
,
0000
3003
0000
0000
0000
0000
0000
0000
0000
0000
0000
0000
0000
0000
0000
0000
0000
0000
0000
0000
0000
0000
0000
0000
0000
0000
0000
0000
0000
0000
0000
0000
0000
0000
0000
0000
0000
0000
0000
0000
0000
0000
0000
0000
0000
0000
0000
0000
0000
0000
0000
0000
0000
0000
0000
0000
0000
0000
0000
0000
0000
0000
0000
0000
0000
0000
0000
0000
0000
0000
0000
0000
0000
0000
0000
0000
0000
0000
0000
0000
0000
0000
0000
0000
0000
0000
0000
0000
0000
0000
0000
0000
0000
0000
0000
0000
0000
0000
0000
0000
0000
0000
0000
0000
0000
0000
0000
0000
0000
0000
0000
0000
0000
0000
0000
0000
0000
0000
0000
0000
0000
0000
0000
0000
0000
0000
0000
0000
0000
0000
0000
0000
0000
0000
0000
0000
0000
0000
0000
0000
0000
0000
0000
0000
0000
0000
0000
0000
0000
0000
0000
0000
0000
0000
0000
0000
0000
0000
0000
0000
0000
0000
0000
0000
0000
0000
0000
0000
0000
0000
0000
0000
0000
0000
0000
0000
0000
0000
0000
0000
0000
0000
0000
0000
0000
0000
0000
0000
0000
0000
0000
0000
,
2002
0000
0000
0000
,
3003
0000
0000
0000
,
2002
0000
0000
0000
,
3003
0000
0000
0000
,
2002
0000
0000
0000
,
3003
0000
0000
0000
,
0001
0000
0000
0000
,
0000
0000
0000
0000
,
1000
0000
0000
0000
,
0010
0000
0000
0000
,
0100
0000
0000
0000
,
0010
0000
0000
0000
,
1000
0000
0000
0000
,
1000
0000
0000
0000
,
0001
0000
0000
0000
,
0001
0000
0000
0000
,
0010
0000
0000
0000
,
0100
0000
0000
0000
,
0010
0000
0000
0000
,
0100
0000
0000
0000
,
1000
0000
0000
0000
,
0001
0000
0000
0000
,
0100
0000
0000
0000
,
0100
0000
0000
0000
,
1001
0000
0000
0000
,
0001
0000
0000
0000
,
0100
0000
0001
0000
,
0100
0000
0000
0000
,
0001
0000
0000
0000
,
1000
0000
0000
0000
,
0100
0000
1000
0000
,
0100
0000
0000
0000
,
1001
0000
0000
0000
,
0000
0000
0000
0000
,
1001
0000
0000
0000
,
0000
0000
0000
0000
,
0110
0000
0000
0000
,
0000
0000
0000
0000
,
0110
0000
0000
0000
,
0000
0000
0000
0000
,
1001
0000
0000
0000
,
0000
0000
0000
0000
,
1001
0000
0000
0000
,
0000
0000
0000
0000
,
0000
0001
0000
0000
,
0000
0000
0000
0000
,
0100
0000
0000
0000
,
0000
0010
0000
0000
,
0000
1000
0000
0000
,
0000
0000
0000
0000
,
0100
0000
0000
0000
,
0000
0000
0000
0010
,
0000
0000
0000
0000
,
0000
0000
0000
0001
,
0000
0000
0000
0000
,
0000
0000
0000
0100
,
0000
0000
0000
0000
,
0000
0000
0000
0001
,
0000
0000
0000
0000
,
0000
0000
0000
1000
,
0000
0000
0000
0000
,
0000
0000
0000
0100
,
0000
0000
0000
0000
,
0000
0000
0000
1000
,
0000
0000
0000
0000
,
0000
0000
0000
0001
,
0000
0000
0000
0000
,
0000
0000
0000
0100
,
0000
0000
0000
0000
,
0000
0000
0000
0000
,
0000
0000
0000
0000
,
0000
0000
0000
0000
0000
0000
0000
1001
,
0000
0000
0000
0000
,
1001
0000
0000
0000
,
0000
0000
0000
0000
,
0000
0000
0000
0000
0000
0000
0000
0110
,
0000
0000
0000
0000
,
0110
0000
0000
1001
,
0000
0000
0000
0000
0000
0000
0000
1001
,
0000
0000
0000
0000
,
0000
0000
0000
0000
,
0000
0000
0000
0000
,
0000
0000
0000
1000
,
0000
0000
0000
0100
,
0000
0000
0000
1000
,
0000
0000
0000
0001
,
0000
0000
0000
0100
,
0000
0000
0000
0001
,
0000
0000
0000
1000
,
0000
0000
0000
0000
,
0000
0000
0000
0100
,
0000
0000
0000
0010
,
0000
0000
0000
0001
,
0000
1000
0000
0001
,
0000
0000
0000
0000
,
0220
0000
0000
0000
,
0330
0000
0000
0000
,
2002
0000
0000
0000
,
3003
0000
0000
0000
,
0220
0000
0000
0000
,
0330
0000
0000
0000
,
0000
0000
0000
0000
,
0000
0000
0000
0000
0000
0000
0000
2000
,
0000
0000
0000
0000
0000
3002
0000
0000
,
0000
0000
0000
0203
0000
0000
0000
0000
,
0000
0000
0000
0000
,
0000
0000
0000
0000
,
0000
0000
0000
0000
,
0000
0000
0300
0000
;

//---------------dance-single - ----------------
#NOTES:
     dance-single:
     :
     Medium:
     8:
     0.420,0.483,0.245,0.206,0.000:
0000
0000
0000
0000
,
0000
0000
0000
0000
,
0000
0000
0000
0000
,
0000
0000
0000
0000
,
0000
0000
0000
0000
,
0000
0000
0000
0000
,
0000
0000
0000
0000
,
1000
0001
1000
0000
,
0100
0010
0001
0010
,
0100
1000
0100
0000
,
0010
0001
0100
0001
,
0010
0100
0010
0000
,
0001
0100
0001
1000
,
0100
0010
0100
0000
,
1000
0010
1000
0001
,
0010
0100
1000
0000
,
0001
0100
0001
1000
,
0100
0000
0010
0000
,
0001
0000
1000
0001
,
1000
0010
0100
0000
,
0001
0100
0001
1000
,
0100
1000
0010
0000
,
0100
0000
0001
0000
,
1001
0000
0000
2002
0000
0000
0000
0000
,
0000
0000
3003
0000
,
0010
0000
0000
0020
0000
0000
0000
0000
,
0000
0000
0030
0000
,
1001
0000
0000
2002
0000
0000
0000
0000
,
0000
0000
3003
0000
,
0010
0000
0000
0020
0000
0000
0000
0000
,
0000
0000
0030
0000
,
0110
0000
0000
0220
0000
0000
0000
0000
,
0000
0000
0330
0000
,
2002
0000
0000
0000
,
0000
0000
0000
3003
,
0001
0100
0001
1000
,
0100
1000
0001
1000
,
0001
0010
0100
1000
,
0001
0100
0001
0000
,
1000
0100
1000
0001
,
0100
0001
0010
0100
,
1000
0000
0010
0000
0000
0010
0000
0000
,
0100
0001
0010
0100
,
2000
0000
3000
0001
,
0200
0000
0310
0100
,
0002
0000
1003
0100
,
0010
0000
0100
1000
,
0020
0000
0130
0001
,
1000
0000
0000
1000
0000
0000
0010
0000
,
0100
0000
0001
0000
0000
0001
0000
0000
,
0010
0100
1000
0001
,
1001
0000
1000
0001
,
2000
0000
3100
1000
,
0020
0000
0130
0001
,
0010
0000
0100
1000
,
0001
0000
0100
0010
,
1000
0000
0000
1000
0000
0000
0001
0000
,
0100
0000
0010
0000
0000
0010
0000
0000
,
1000
0100
0010
0001
,
0010
0000
0000
0011
0000
0000
0000
0000
,
0000
0000
0000
0000
,
0100
0000
0000
1100
0000
0000
0000
0000
,
0000
0000
0000
0000
,
1001
0000
0000
1001
0000
0000
0000
0000
,
0000
0000
0000
0000
,
0001
0000
0000
1001
0000
0000
0000
0000
,
0000
0000
0000
0000
,
0110
0000
0000
0110
0000
0000
0000
0000
,
0000
0000
0000
0000
,
1000
0000
0000
1001
0000
0000
0000
0000
,
0000
0000
0000
0000
,
0000
0000
0010
0000
0000
0001
0000
0000
,
0010
0000
0000
0100
0000
0000
1000
0000
,
0020
0000
0000
0000
,
0000
0000
0130
0000
0000
0110
0000
0000
,
0000
0000
0100
0000
0000
0010
0000
0000
,
0001
0000
0000
1000
0000
0000
0001
0000
,
0200
0000
0000
0000
,
0000
0000
0310
0000
0000
0110
0000
0000
,
1000
0100
1000
0100
,
1000
0100
0010
0100
,
0010
0001
0010
0001
,
0010
0001
1000
0001
,
1000
0010
1000
0010
,
1000
0001
0010
0001
,
0010
0100
0010
0100
,
0010
0001
0100
0001
,
0100
0010
0100
0010
,
1000
0100
1000
0100
,
0010
0100
0010
0100
,
0010
0001
0010
0001
,
1000
0010
1000
0010
,
1000
0001
1000
0001
,
0010
0001
0010
0001
,
0100
0010
0100
0010
,
1000
0100
1000
0100
,
1000
0001
1000
0000
,
0020
0000
0000
0000
0000
1000
0000
1000
,
0000
1030
0000
0000
0000
0000
0000
0001
,
0000
0000
0100
0000
0000
0010
0000
0000
,
1000
0000
0000
0000
,
0200
0000
0000
0000
0000
0010
0000
0010
,
0000
0310
0000
0000
0000
0000
0000
0001
,
0000
0000
0100
0000
0000
0010
0000
0000
,
0100
0000
0000
0001
,
0000
0010
0000
0000
0100
0000
0000
2002
,
0000
0000
0000
0000
,
0000
0000
0000
0000
,
0000
0000
0000
3003
,
0000
0000
0000
1000
,
0100
1000
0001
1000
,
0001
0010
0100
1000
,
0000
0100
0010
0001
,
0000
1000
0010
0100
,
0000
0010
0100
0001
,
0000
0001
0000
0000
0010
0000
0100
0000
,
1000
0000
0000
1000
0000
0000
0100
0000
,
0010
0100
0010
0001
,
0200
0000
0301
2000
,
0000
3100
0010
0001
,
0000
0100
0010
1000
,
0000
0000
0100
0000
0010
0000
0000
1001
,
0000
0000
0000
1100
,
0000
1100
0000
0000
0000
0000
0000
1001
,
0000
0000
0000
0011
,
0000
0011
0000
0000
0000
0000
0000
1001
,
0000
0000
0000
0110
,
0000
0110
0000
0000
0000
0000
0000
0000
,
0000
0000
0000
0000
,
0000
0000
0000
0000
0000
0000
0000
1100
,
0000
0000
0100
0000
0000
0110
0000
0000
,
0010
0000
0000
2002
0000
0000
0000
0000
,
0000
0000
0000
0000
,
0000
0000
0000
0000
,
0000
0000
0000
0000
,
0000
0000
3003
0000
;

//---------------dance-single - ----------------
#NOTES:
     dance-single:
     :
     Hard:
     13:
     0.619,0.697,0.531,0.317,0.055: // measure 1
0000
0000
0000
0000
,  // measure 2
0000
0000
0000
0000
,  // measure 3
0000
0000
0000
0000
,  // measure 4
0000
0000
0000
0000
,  // measure 5
0000
0000
0000
0000
,  // measure 6
0000
0000
0000
0000
,  // measure 7
0000
0000
0000
0000
,  // measure 8
1001
0000
0000
1002
0000
0000
0000
0000
,  // measure 9
0000
0103
0000
0010
0100
0010
0100
0001
,  // measure 10
0020
0000
0000
0100
0000
0000
0230
0000
,  // measure 11
0000
0000
1300
0000
0010
0000
0100
0001
,  // measure 12
2000
0000
0000
3200
0000
0000
0000
0000
,  // measure 13
0300
0000
0000
0000
1000
0000
0001
0010
,  // measure 14
0200
0000
0000
0320
0000
0000
0000
0000
,  // measure 15
0030
0000
0001
0000
0010
0000
0100
0000
1000
0000
0001
0000
,  // measure 16
0100
0000
0000
0101
0000
0000
0000
0001
,  // measure 17
0000
0100
0010
0100
0010
1000
0100
0010
,  // measure 18
0200
0000
0000
1000
0000
0000
2300
0000
,  // measure 19
0000
0000
3100
0000
0010
0000
0001
0100
,  // measure 20
0020
0000
0000
2030
0000
0000
0000
0000
,  // measure 21
3000
0000
0000
0000
0100
0000
0010
0001
,  // measure 22
0200
0000
0000
0320
0000
0000
0000
0000
,  // measure 23
0030
0000
1000
0000
0100
0000
0010
0000
0001
0000
1000
0000
,  // measure 24
0010
0000
0000
2020
0000
0000
0000
0000
,  // measure 25
0000
0000
3030
0000
,  // measure 26
0010
0000
0000
0020
0000
0000
0000
0000
,  // measure 27
0000
0000
0030
0000
,  // measure 28
1001
0000
0000
2002
0000
0000
0000
0000
,  // measure 29
0000
0000
3003
0000
,  // measure 30
0010
0000
0000
0020
0000
0000
0000
0000
,  // measure 31
0000
0000
0030
0000
,  // measure 32
0011
0000
0000
0022
0000
0000
0000
0000
,  // measure 33
0000
0000
0033
0000
,  // measure 34
0001
0000
1000
0000
0100
0000
0010
0000
0001
0000
0010
0000
,  // measure 35
0100
0000
1000
0000
0020
0000
0000
0000
0000
0130
0000
0000
,  // measure 36
0001
0000
1000
0010
1000
0000
0001
0000
,  // measure 37
0100
0000
0010
0100
0010
0000
0100
0000
,  // measure 38
0001
0000
0010
0001
0010
0000
0100
0010
,  // measure 39
0100
0000
1000
0100
1000
0000
0001
0000
,  // measure 40
0010
0000
0100
0010
0100
0000
1000
0000
,  // measure 41
0010
0000
0100
0010
0100
0000
0010
0000
,  // measure 42
1000
0000
0001
0010
0000
0001
0010
0000
,  // measure 43
0100
0000
1000
0000
0001
0100
0000
0002
,  // measure 44
0000
0000
1003
0001
,  // measure 45
0011
0000
0100
1000
,  // measure 46
1001
0000
0000
0000
0001
0010
0100
1000
,  // measure 47
0010
0000
0000
0100
0001
0010
0100
1000
,  // measure 48
0010
0000
0100
0001
,  // measure 49
0101
0000
0000
0100
0000
0000
0100
0000
,  // measure 50
1001
0000
0001
0100
0000
0001
0100
0000
,  // measure 51
0010
1000
0010
1000
0001
0010
0000
1200
,  // measure 52
0000
0000
1300
0010
,  // measure 53
0110
0000
0001
0100
,  // measure 54
0110
0000
0000
0000
1000
0100
0010
0001
,  // measure 55
1000
0000
0000
0010
1000
0100
0010
0001
,  // measure 56
0100
0000
0001
1000
,  // measure 57
1010
0000
0000
0010
0000
0000
0010
0000
,  // measure 58
1001
0000
1000
0100
0000
1000
0100
0000
,  // measure 59
0010
0001
0010
0001
0100
0010
0100
0000
,  // measure 60
1010
0000
0000
1010
0000
0000
0010
0000
,  // measure 61
1000
0100
0010
0001
,  // measure 62
1000
0000
0000
1000
0000
0000
1000
0000
,  // measure 63
0001
0100
0010
0000
,  // measure 64
1010
0000
0000
1010
0000
0000
1000
0000
,  // measure 65
0100
0010
0001
1000
,  // measure 66
0010
0000
0000
0010
0000
0000
0010
0000
,  // measure 67
1000
0100
0010
0000
,  // measure 68
0011
0000
0000
0011
0000
0000
0001
0000
,  // measure 69
1000
0100
0010
0100
,  // measure 70
1000
0000
0000
1000
0000
0000
1000
0000
,  // measure 71
0010
0100
0001
1000
,  // measure 72
0000
0000
1001
0000
0000
0011
0000
0000
,  // measure 73
1001
0000
0000
0011
0000
0000
1001
0000
,  // measure 74
2000
0000
0000
0010
0000
0010
0000
3010
,  // measure 75
0000
0000
1010
0000
0000
1001
0000
0000
,  // measure 76
0000
0000
1001
0000
0000
1100
0000
0000
,  // measure 77
1001
0000
0000
1100
0000
0000
1001
0000
,  // measure 78
0002
0000
0000
0100
0000
0100
0000
0103
,  // measure 79
0000
0000
0101
0000
0000
1001
0000
0000
,  // measure 80
1000
0010
1000
0000
0001
0000
0010
0000
,  // measure 81
0100
0010
0100
0000
1000
0000
0010
0000
,  // measure 82
0100
0010
0100
0000
0010
0000
1000
0000
,  // measure 83
0100
0000
0010
0100
0000
1000
0010
0000
,  // measure 84
0100
0001
0100
0000
0001
0000
1000
0000
,  // measure 85
0100
1000
0100
0000
0010
0000
0100
0000
,  // measure 86
1000
0010
1000
0000
0001
0000
0010
0000
,  // measure 87
0100
0010
0100
0000
1000
0000
0010
0000
,  // measure 88
0100
0010
0100
0000
0001
0000
0010
0000
,  // measure 89
0100
0010
0100
0000
1000
0000
0001
0000
,  // measure 90
0100
0001
0100
0000
0010
0000
1000
0000
,  // measure 91
0100
0000
0010
0100
0000
1000
0010
0000
,  // measure 92
0100
0010
0100
0010
0100
0000
0001
0000
,  // measure 93
1000
0000
0001
0010
0000
0100
0010
0000
,  // measure 94
0001
0100
0001
0100
0001
0000
1000
0000
,  // measure 95
0100
0000
0010
0100
0000
1000
0010
0000
,  // measure 96
0100
0010
0100
0010
0100
0000
0010
0000
,  // measure 97
1000
0001
0000
0010
0000
0001
0000
0000
,  // measure 98
1000
0100
1000
0100
0000
0001
0000
0100
,  // measure 99
0000
1000
0000
0000
0000
0000
0000
1001
,  // measure 100
0000
0000
0110
0000
0000
1001
0000
0000
,  // measure 101
0220
0000
0000
0330
,  // measure 102
0001
0100
0001
0100
0000
1000
0000
0100
,  // measure 103
0000
0001
0000
0000
0000
0000
0000
1001
,  // measure 104
0000
0000
0110
0000
0000
1001
0000
0000
,  // measure 105
0220
0000
0330
1010
,  // measure 106
0000
0101
0000
0000
1010
0000
0000
0201
,  // measure 107
0000
0000
0000
0000
,  // measure 108
0001
0000
0000
0000
,  // measure 109
0002
0000
0000
0303
,  // measure 110
0001
0000
1000
0010
0000
2000
0000
0000
,  // measure 111
0000
3100
0010
0011
,  // measure 112
0000
0100
1000
1001
,  // measure 113
0000
0000
0100
0010
1000
0100
0010
0000
,  // measure 114
0000
0001
0100
0010
1000
0100
0010
0000
,  // measure 115
0000
1001
0001
0201
,  // measure 116
0000
0010
0000
0000
0310
0000
1010
0000
,  // measure 117
1000
0001
0000
1000
0001
0000
0100
0000
,  // measure 118
0010
0000
1000
0100
0000
0020
0000
0000
,  // measure 119
0000
0031
0100
0101
,  // measure 120
0000
0010
1000
1001
,  // measure 121
0000
0000
0001
0010
0100
1000
0010
0000
,  // measure 122
0000
0100
0001
0010
0100
1000
0000
1020
,  // measure 123
0000
1000
1000
1030
,  // measure 124
0000
1001
0000
0000
0000
0000
0000
0201
,  // measure 125
0000
0001
0001
0301
,  // measure 126
0000
1001
0000
0000
0000
0000
0000
0210
,  // measure 127
0000
0001
0001
0301
,  // measure 128
0000
1001
0000
0000
0000
0000
0000
0000
,  // measure 129
0000
0000
0000
0000
,  // measure 130
0000
0000
0000
0000
0000
0000
0000
0011
,  // measure 131
0000
0000
0110
0000
0000
1100
0000
0000
,  // measure 132
0110
0000
0000
2001
0000
0000
0000
0000
,  // measure 133
0000
0000
0000
0020
0000
0000
0000
0000
,  // measure 134
0000
0000
0000
0000
,  // measure 135
0000
0000
0000
0000
,  // measure 136
0000
0000
3030
0000
;

//---------------dance-single - ----------------
#NOTES:
     dance-single:
     :
     Beginner:
     2:
     0.097,0.208,0.111,0.000,0.000:
0000
0000
0000
0000
,
0000
0000
0000
0000
,
0000
0000
0000
0000
,
0000
0000
0000
0000
,
0000
0000
0000
0000
,
0000
0000
0000
0000
,
0000
0000
0000
0000
,
0001
0000
0000
0000
,
0100
0000
0000
0000
,
0010
0000
0000
0000
,
0100
0000
0000
0000
,
0001
0000
0000
0000
,
0000
0000
0000
0000
,
1000
0000
0000
0000
,
0100
0000
0000
0000
,
0010
0000
0000
0000
,
0100
0000
0000
0000
,
0010
0000
0000
0000
,
0001
0000
0000
0000
,
1000
0000
0000
0000
,
0000
0000
0000
0000
,
0100
0000
0000
0000
,
1000
0000
0000
0000
,
1001
0000
0000
0000
,
0000
0000
0000
0000
,
0001
0000
0000
0000
,
0000
0000
0000
0000
,
1001
0000
0000
0000
,
0000
0000
0000
0000
,
1000
0000
0000
0000
,
0000
0000
0000
0000
,
0110
0000
0000
0000
,
0000
0000
0000
0000
,
0010
0000
0000
0000
,
0000
0000
0000
0000
,
1001
0000
0000
0000
,
0000
0000
0000
0000
,
1000
0000
0000
0000
,
0000
0000
0000
0000
,
0001
0000
0000
0000
,
0000
0000
0000
0000
,
0100
0000
0000
0000
,
0000
0000
0000
0000
,
0001
0000
0000
0000
,
0000
0000
0000
0000
,
1000
0000
0000
0000
,
0000
0000
0000
0000
,
0100
0000
0000
0000
,
0000
0000
0000
0000
,
0010
0000
0000
0000
,
0000
0000
0000
0000
,
0001
0000
0000
0000
,
1000
0000
0000
0000
,
0001
0000
0000
0000
,
0100
0000
0000
0000
,
0001
0000
0000
0000
,
1000
0000
0000
0000
,
0001
0000
0000
0000
,
0000
0000
0000
0000
,
1001
0000
0000
0000
,
0000
0000
0000
0000
,
1000
0000
0000
0000
,
0000
0000
0000
0000
,
1001
0000
0000
0000
,
0000
0000
0000
0000
,
0001
0000
0000
0000
,
0000
0000
0000
0000
,
1001
0000
0000
0000
,
0000
0000
0000
0000
,
1000
0000
0000
0000
,
0000
0000
0000
0000
,
0000
0100
0000
0000
,
0000
0000
0000
0000
,
0000
0000
0000
0000
,
0000
0000
0000
0000
,
0000
0100
0000
0000
,
0000
0000
0000
0000
,
0000
0000
0000
0000
,
0000
0000
0000
1000
,
0000
0000
0000
0000
,
0000
0000
0000
0001
,
0000
0000
0000
0000
,
0000
0000
0000
0100
,
0000
0000
0000
0000
,
0000
0000
0000
0001
,
0000
0000
0000
0000
,
0000
0000
0000
1000
,
0000
0000
0000
0000
,
0000
0000
0000
0100
,
0000
0000
0000
0000
,
0000
0000
0000
0010
,
0000
0000
0000
0001
,
0000
0000
0000
0010
,
0000
0000
0000
0001
,
0000
0000
0000
1000
,
0000
0000
0000
0010
,
0000
0000
0000
0000
,
0000
0000
0000
0000
,
0000
0000
0000
0000
,
1001
0000
0000
0000
,
0000
0000
0000
0000
,
0000
0000
0000
0000
,
0000
0000
0000
0000
,
1001
0000
0000
0000
,
0000
0000
0000
0000
,
0110
0000
0000
0000
,
0000
0000
0000
0000
,
0000
0000
0000
0000
,
0000
0000
0000
0000
,
0000
0000
0000
1000
,
0000
0000
0000
0100
,
0000
0000
0000
1000
,
0000
0000
0000
0000
,
0000
0000
0000
0001
,
0000
0000
0000
0100
,
0000
0000
0000
0010
,
0000
0000
0000
0000
,
0000
0000
0000
0100
,
0000
0000
0000
0010
,
0000
0000
0000
1000
,
0000
0000
0000
0001
,
0000
0000
0000
0000
,
1001
0000
0000
0000
,
0000
0000
0000
0000
,
0110
0000
0000
0000
,
0000
0000
0000
0000
,
1001
0000
0000
0000
,
0000
0000
0000
0000
,
0000
0000
0000
0000
,
0000
0000
0000
0000
,
0000
0000
0000
0000
,
0000
0000
1001
0000
;
