#TITLE:The Riddle Story;
#SUBTITLE:;
#ARTIST:Cranky;
#TITLETRANSLIT:;
#SUBTITLETRANSLIT:;
#ARTISTTRANSLIT:;
#CREDIT:DigiMindAxel;
#BANNER:The Riddle Story.png;
#BACKGROUND:The Riddle Story-bg.png;
#LYRICSPATH:The Riddle Story.lrc;
#CDTITLE:Cytus.png;
#MUSIC:The Riddle Story.ogg;
#METERTYPE:DDR X;
#OFFSET:-10.090;
#SAMPLESTART:112.944;
#SAMPLELENGTH:12.000;
#SELECTABLE:YES;
#DISPLAYBPM:88.000:175.000;
#BPMS:0.000=87.500,2.000=175.000,42.000=87.500,58.000=175.000,170.000=87.500,206.000=43.750,208.000=87.500,224.000=175.000,300.000=87.500;
#STOPS:;
#BGCHANGES:;

//---------------dance-single - ----------------
#NOTES:
     dance-single:
     :
     Easy:
     5:
     0.227,0.264,0.042,0.298,0.000:
2000
0000
3001
0000
,
0100
0001
0200
0000
,
0310
0000
0000
1000
,
0100
0010
0002
0000
,
1003
0000
0010
0000
,
0010
0000
0110
0000
,
1001
0000
2002
0000
,
0000
0000
0000
0000
,
3003
0000
0020
0000
,
0000
0000
0200
0000
,
0330
0000
0010
0100
,
0010
0000
0000
1000
,
1000
0001
0010
0000
,
0100
0010
0001
0000
,
0100
0000
1001
0000
,
1000
0100
1000
0000
,
0010
0000
0100
0001
,
0010
0100
1000
0010
,
1000
0010
0100
0000
,
0001
0000
1000
0000
,
0100
0000
0010
0000
,
0001
0100
0020
0000
,
0000
0100
0130
0000
,
0001
0000
0100
0000
,
0010
0000
1000
0000
,
0010
0000
0100
0000
,
0001
0000
1000
0001
,
1000
0001
0010
0100
,
0010
0100
1000
0000
,
0010
0000
0100
0100
,
0100
0010
0200
0000
,
0000
0000
0302
0000
,
0000
0000
1003
0100
,
1000
0000
0010
0010
,
0010
0100
0020
0000
,
0000
0000
2030
0000
,
0000
0000
3001
0010
,
0001
0010
0001
1000
,
0001
1000
0200
0000
,
0320
0000
0230
0000
,
0320
0000
0032
0000
,
0000
0000
0103
0000
,
0000
0000
0002
0000
,
0000
0000
0000
2003
,
3200
0000
0000
0320
,
0032
0000
0000
0000
,
0003
0000
0200
0000
,
0320
0000
0230
0000
,
0302
0000
2003
0000
,
0000
3000
0002
0000
,
1000
0000
2000
0000
,
0000
0000
3003
0000
,
0001
0001
1000
1000
,
0001
0001
0010
0100
,
1000
1000
0001
0001
,
0100
0010
2000
0000
,
3001
0000
1000
0010
,
0200
0000
0310
0000
,
0000
1000
0100
0010
,
0002
0000
0103
0000
,
0020
0000
2030
0000
,
3200
0000
0320
0000
,
0032
0000
2003
0000
,
3020
0000
2030
0000
,
3002
0000
0010
0000
,
0010
0000
0010
0000
,
0013
0100
1000
0010
,
0100
0001
0100
0010
,
0110
0100
0100
0000
,
0000
0001
0010
0100
,
1000
1000
1000
0000
,
0000
0010
0100
0001
,
1000
0100
1000
0000
,
0100
0010
0001
0100
,
0001
1000
0100
0010
,
2002
0000
0000
0000
,
3003
0000
0000
0000
;

//---------------dance-single - ----------------
#NOTES:
     dance-single:
     :
     Medium:
     9:
     0.414,0.422,0.194,0.354,0.055: // measure 1
2000
0000
0000
0000
3010
0100
0010
0000
,  // measure 2
1000
0010
1000
0000
2001
0000
0000
0000
,  // measure 3
0002
0000
0000
0000
3003
0000
1000
0100
,  // measure 4
0010
0000
0001
0100
0020
0000
0000
0000
,  // measure 5
0230
0000
0000
0000
0301
0000
1000
0100
,  // measure 6
0010
0000
0001
0010
0100
0000
1000
0100
,  // measure 7
0010
0000
0001
0010
0200
0000
0000
0000
,  // measure 8
0010
0000
0010
0000
,  // measure 9
0310
0000
0102
0000
,  // measure 10
0100
0000
2000
0000
,  // measure 11
3003
0000
0000
0000
1100
0000
0010
0001
,  // measure 12
1000
0000
0000
0000
0000
0000
0000
0000
0000
0000
0001
0000
0001
0000
0000
1000
,  // measure 13
0100
0000
0010
0000
0000
0001
0100
0010
,  // measure 14
1000
0000
0001
0000
1000
0000
0000
0000
0100
0000
0010
0000
0100
0000
0000
1000
,  // measure 15
0001
0001
0010
0100
1100
0000
1000
0000
,  // measure 16
0100
0010
0001
0000
0101
0000
0100
0000
,  // measure 17
0010
1000
0100
0000
1100
0000
0020
0000
,  // measure 18
0032
0203
0320
2030
,  // measure 19
0000
0000
3100
0010
0001
0000
1000
0000
,  // measure 20
0010
1000
0001
0000
0011
0000
0100
0000
,  // measure 21
1000
0010
0100
0001
0010
0000
0100
0000
,  // measure 22
0010
0001
1000
0001
0020
0000
0000
0000
,  // measure 23
0000
0000
0031
0100
0010
0000
1000
0001
,  // measure 24
0000
1000
0010
0000
0100
0000
0001
0010
,  // measure 25
0000
0001
1000
0000
0100
0000
0010
0001
,  // measure 26
0000
1000
0010
0000
0100
0000
0001
0010
,  // measure 27
0000
0100
1000
0000
0010
0100
0010
0000
,  // measure 28
0010
0100
0010
0000
1000
0001
1000
0001
,  // measure 29
2000
0000
3001
1001
,  // measure 30
1100
0000
0000
0010
0000
0010
0001
0000
0100
0010
0000
1000
,  // measure 31
0100
0000
1100
0000
0010
0100
0010
0000
,  // measure 32
0010
0100
0010
0000
0001
1000
0001
1000
,  // measure 33
0002
0000
0103
0101
,  // measure 34
1001
0000
0000
1000
0000
1000
0100
0000
0010
0100
0000
0010
,  // measure 35
0001
0000
0000
1001
0000
0000
1000
0000
0010
1000
0000
0010
,  // measure 36
0100
0000
0000
1001
0000
0000
0001
0000
0010
0001
0000
0010
,  // measure 37
0100
1001
0002
0023
,  // measure 38
0230
2300
3002
0203
,  // measure 39
0320
0000
2030
0000
3001
0010
0100
0000
,  // measure 40
0010
0000
0010
0001
0100
0000
0010
0000
,  // measure 41
1000
0100
0010
0000
0001
0100
0010
1000
,  // measure 42
0100
0010
2002
0000
,  // measure 43
0000
0000
3003
0000
1000
0000
0010
1000
,  // measure 44
0002
0000
0000
0000
0000
0013
0100
1000
,  // measure 45
0010
0000
0000
0000
0000
0100
0010
0100
,  // measure 46
0002
0000
0023
0000
,  // measure 47
0000
0230
2300
0000
,  // measure 48
3020
0000
0230
0000
,  // measure 49
0302
0000
0000
0000
0013
0100
1000
0000
,  // measure 50
0000
0000
0002
0000
,  // measure 51
0203
0000
0320
0000
,  // measure 52
0000
0000
0030
0000
,  // measure 53
1000
0010
1000
0000
0000
0001
0010
0100
,  // measure 54
2000
3020
0230
0302
,  // measure 55
1003
0100
1000
0000
0000
0001
0100
0010
,  // measure 56
0200
0302
2003
0000
,  // measure 57
3001
0000
1000
0000
0100
0010
0100
0000
,  // measure 58
1000
0010
0100
0010
1000
0000
0001
0000
,  // measure 59
1000
0002
0023
0230
,  // measure 60
1300
0001
0100
0001
1000
0000
0100
0000
,  // measure 61
0011
0001
1000
0100
,  // measure 62
0010
0100
0010
0000
0001
0100
0001
0000
,  // measure 63
1000
0100
0010
0000
0100
0010
0001
0000
,  // measure 64
1000
0010
0100
0000
0010
0100
0001
0000
,  // measure 65
1000
0100
0010
0001
1000
0000
0010
0000
,  // measure 66
1000
0100
0010
0001
1000
0000
0010
0000
,  // measure 67
1001
0001
0100
0010
,  // measure 68
1000
0100
0010
0001
1000
0000
0010
0000
,  // measure 69
1001
1001
1001
1000
,  // measure 70
0010
0000
0000
0100
0000
0000
0001
0000
0010
0000
0100
0000
,  // measure 71
1001
1001
1001
0001
,  // measure 72
0010
0000
0000
0100
0000
0000
1000
0000
0010
0000
0100
0000
,  // measure 73
0020
1000
2030
0001
,  // measure 74
3001
1001
0110
1001
,  // measure 75
1000
0010
0100
0001
0010
0000
0100
0000
,  // measure 76
2020
0000
0000
0000
,  // measure 77
3030
0000
0000
0000
;

//---------------dance-single - ----------------
#NOTES:
     dance-single:
     :
     Hard:
     14:
     0.649,0.738,0.368,0.277,0.427:
0001
0000
0000
0100
0000
0000
0001
0000
0000
1000
0000
0000
0100
0000
0010
0000
0100
0000
0010
0000
0001
0000
0100
0000
0001
0000
0000
0000
0000
0000
1000
0000
0000
0000
0000
0000
0100
0000
0000
0000
0000
0000
1000
0000
0000
0000
0000
0000
,
0001
0100
1000
0100
0002
0000
0013
0100
,
2000
0000
3010
0000
0110
0000
0100
0001
,
1000
0010
0001
0010
2000
0000
3100
0010
,
0002
0000
0000
0000
1003
0000
0000
0001
0200
0000
0000
0000
0310
0000
0000
0010
,
2000
0000
0000
0000
3001
0000
0000
0001
0020
0000
0000
0000
0130
0000
0000
0100
,
2000
0000
0000
0000
3010
0000
0000
0010
0100
0000
0001
0000
0010
0000
0100
0000
,
1000
0001
0100
0001
1000
0000
0100
1000
,
0001
1000
0100
0010
0001
0100
0010
0100
,
0001
1000
0100
0010
0200
0000
0000
0000
,
1300
0000
0000
0000
1100
0000
0010
0001
,
1000
0000
0000
0000
0000
0000
0000
0000
0000
0000
0010
0000
0110
0000
0000
0100
,
0100
0000
0000
0000
0000
0000
0101
0000
0000
0000
0000
0000
0000
0000
0000
0001
0000
0000
1000
0100
1000
0100
0010
0001
,
0100
0000
0010
0000
0100
0000
0001
0000
0010
0000
1000
0000
0010
0000
0000
0001
,
0001
0010
1100
0011
1001
0000
1000
0010
,
0001
0000
0010
0000
1000
0000
0100
0010
0001
0000
0001
0000
0100
0000
0100
0000
,
0010
0100
0001
1000
0100
0000
1000
0100
,
0001
0000
0100
0000
1000
0000
0001
0010
0100
0000
0100
0000
1000
0000
1000
0000
,
0010
0100
0001
0100
0010
0000
0100
0001
,
1000
0000
0100
0000
0010
0000
0001
1000
0010
0000
1000
0010
1000
0000
0001
0000
,
0100
1000
0100
0001
1000
0000
0100
1000
,
0010
0000
0100
0000
0010
0000
1000
0001
0010
0000
0010
0000
0100
0000
0100
0000
,
1000
0010
0100
0010
1000
0000
0200
1000
,
0000
0000
1300
0000
0010
0100
0010
0000
0100
0000
0001
0000
0020
0000
0100
0000
,
0000
0000
0130
0000
1000
0010
1000
0000
0001
0000
0010
0000
0200
0000
0010
0000
,
0000
0000
0310
0000
0001
0100
0001
0000
1000
0001
1000
0000
1010
0000
0000
0010
,
0000
1000
0010
0000
1000
0001
1000
0000
0100
0000
0100
0000
1000
0000
1000
0000
,
0010
0010
0100
0100
1001
1000
1001
0001
,
0202
0000
0000
0303
1001
0000
1100
0000
,
0120
0000
0000
0031
0010
0001
0010
1000
0010
0001
0010
0100
,
1000
0000
1010
0000
0010
0100
0010
0100
,
0001
0000
0010
0000
0001
0000
0010
0000
0100
1000
0100
0000
1000
0001
1000
0000
,
2002
0000
0000
3003
0011
0000
0110
0000
,
1200
0000
0000
1300
0100
1000
0100
0001
0100
1000
0010
0100
,
0001
0000
0000
1001
0000
0000
0001
0010
1000
0010
0001
1000
,
0010
0000
0000
1001
0000
0000
1000
0010
0001
0010
1000
0100
,
0010
0000
0000
0000
1001
0000
0000
0000
0001
0000
0000
0001
0010
0000
0000
0010
,
0100
0000
0000
0100
1000
0000
0000
1000
0010
0000
0000
0010
0100
0000
0000
0100
,
0001
0000
0000
0001
1000
0000
0000
0000
0100
0000
0010
0000
0001
0000
0010
0000
,
1000
0000
0001
0000
1000
0100
0010
0000
0001
0000
0100
0000
1000
0000
0100
0000
,
0010
0000
1000
0000
0001
0000
0100
0000
0010
1000
0100
0000
0010
0100
0010
0000
,
0001
0100
0010
0000
1000
0001
1000
0000
2002
0000
0000
0000
0000
0000
0000
0000
,
0000
0000
0000
3003
0002
0000
1003
0100
,
0020
0000
0000
0000
0030
0100
1000
0010
,
0200
0000
0302
0000
0000
0013
0100
1000
,
0010
0000
0200
0000
0000
0000
0301
1000
0200
0000
0000
0000
0000
0000
0000
0000
,
0000
0300
2000
0000
3200
0000
0000
0000
,
0320
0000
0031
1000
0020
0000
0130
0001
,
0020
0000
0000
0000
0000
0000
0230
0000
0000
0000
0000
0000
1300
0000
0000
0001
0100
0001
2000
0000
0000
0000
0000
0000
,
0000
0000
0000
0000
0000
0000
0000
0000
3200
0000
0000
0000
0000
0000
0310
0001
,
2000
0000
0000
0000
0000
0000
3100
0010
0002
0000
0000
0000
0000
0000
0000
0000
,
0000
0000
0003
0000
,
1001
0000
0100
0000
1100
0000
0000
0000
0000
0000
1000
0001
0010
0100
1000
0001
,
0100
0000
0010
0000
0100
0000
0001
0000
0010
0000
0100
0000
0010
0001
0010
0001
0100
0010
1000
0000
0100
0000
0010
0000
,
1001
0000
0001
0000
0101
0000
0000
0000
0000
0000
0100
0000
0010
1000
0100
0010
,
0001
0000
0000
0000
0100
0000
0000
0000
0010
0000
0000
0000
0100
0000
0000
0000
0001
0000
0000
0000
1000
0000
0000
0000
0100
0000
0000
0010
0000
0000
0100
0000
0000
0010
0000
0000
0001
0000
0100
0000
0010
0000
0100
0000
0001
0000
1000
0000
,
0100
0000
0010
0000
0100
0000
1000
0000
0001
0100
0001
0000
1000
0010
1000
0000
,
0100
0000
0010
0000
0001
0000
1000
0000
0100
1000
0010
0000
0100
0001
0010
0000
,
0100
0000
0000
0000
1000
0000
0000
1000
0010
0000
0000
0010
0100
0000
0000
0100
,
0001
0000
1000
0000
0100
0000
0010
0000
0100
1000
0010
0000
0100
0001
0010
0000
,
1001
0000
0001
0000
1000
0000
0100
0000
0010
0100
0010
0000
0001
0000
0000
0000
,
1001
0000
1000
0000
0001
0000
0100
0000
0010
0100
0010
0000
1000
0000
0000
0000
,
1001
0000
0001
0000
0010
0000
0100
0000
1000
0010
1000
0000
0010
0100
0010
0000
,
1001
0000
1000
0000
0100
0000
0010
0000
0001
0100
0001
0000
0100
0010
0100
0000
,
1001
0000
0001
0000
1000
0100
0010
0000
0100
0010
0001
0000
1000
0000
0010
0000
,
1000
1000
0001
0001
0101
0000
0110
0000
,
1001
0000
1000
0000
0001
0100
0010
0000
0100
0010
1000
0000
0001
0000
0010
0000
,
1100
0000
1000
0000
0010
0000
0100
0000
0001
0000
1000
0100
1000
0100
1000
0000
,
1001
0000
0011
0000
1200
0000
1000
1000
,
1300
0000
0000
0011
0000
0000
1100
0000
0110
0000
0011
0000
,
1001
0000
1010
0000
0102
0000
0100
0100
,
0103
0000
0000
1010
0000
0000
0101
0000
0110
0000
1010
0000
,
1001
0000
0001
0000
0100
0000
0001
0000
1000
0100
1000
0000
0010
0100
0010
0000
,
1001
0000
1000
0000
0010
0000
1000
0000
0001
0010
0001
0000
0010
0100
0010
0000
,
0100
1000
0001
0000
0001
0000
0010
0000
0100
0000
1000
0000
0001
0000
0100
0000
,
2002
0000
0000
0000
,
3003
0000
0000
0000
;

//---------------dance-single - ----------------
#NOTES:
     dance-single:
     :
     Beginner:
     2:
     0.092,0.130,0.042,0.000,0.000:
0000
0000
1000
0000
,
0000
0000
0100
0000
,
0000
0000
1000
0000
,
0000
0000
0001
0000
,
0000
0000
0100
0000
,
0100
0000
0100
0000
,
0100
0000
0100
0000
,
0000
0000
0000
0000
,
0000
0000
0010
0000
,
0000
0000
0100
0000
,
0000
0000
0001
0000
,
0000
0000
0000
0000
,
0010
0000
0000
0000
,
0100
0000
0000
0000
,
1000
0000
0001
0000
,
0000
0000
0100
0000
,
0000
0000
0001
0000
,
0000
0000
1000
0000
,
0000
0000
0100
0000
,
0000
0000
0010
0000
,
0000
0000
0001
0000
,
0000
0000
0100
0000
,
0000
0000
0010
0000
,
0000
0000
0010
0000
,
0000
0000
0100
0000
,
0000
0000
0100
0000
,
0000
0000
1001
0000
,
0000
0000
0000
0000
,
0000
0000
0001
0000
,
0010
0000
0001
0000
,
0000
0000
1000
0000
,
1000
0000
0001
0000
,
0001
0000
1000
0000
,
0100
0000
1000
0000
,
0000
0000
1001
0000
,
0000
0000
1001
0000
,
0000
0000
1001
0000
,
0000
0000
0000
0000
,
0000
0000
0001
0000
,
0100
0000
0001
0000
,
1000
0000
0100
0000
,
0000
0000
0100
0000
,
0000
0000
1001
0000
,
0000
0000
0000
0000
,
0000
0000
0000
0000
,
0000
0000
0000
0000
,
0000
1000
0001
0000
,
0010
0000
0100
0000
,
1000
0000
0001
0000
,
0000
0000
1000
0000
,
0000
0000
0001
0000
,
0000
0000
0000
0000
,
1000
0000
0000
0000
,
0100
0000
0000
0000
,
1000
0000
0000
0000
,
0001
0000
0000
0000
,
0100
0000
0000
0000
,
0010
0000
0000
0000
,
0100
0000
0000
0000
,
0001
0000
0000
0000
,
1000
0000
0000
0000
,
0100
0000
0000
0000
,
0010
0000
0000
0000
,
0001
0000
0000
0000
,
1000
0000
0001
0000
,
1000
0000
0000
0000
,
0100
0000
1000
0000
,
0100
0000
0000
0000
,
0010
0000
0100
0000
,
0010
0000
0000
0000
,
0001
0000
0100
0000
,
0001
0000
0000
0000
,
1000
0000
0010
0000
,
1000
0000
0001
0000
,
1000
0000
1000
0000
,
1001
0000
0000
0000
;
