#TITLE:The Legend Of Cirno;
#SUBTITLE:;
#ARTIST:uno;
#TITLETRANSLIT:;
#SUBTITLETRANSLIT:;
#ARTISTTRANSLIT:;
#CREDIT:DigiMindAxel;
#BANNER:The Legend Of Cirno.png;
#BACKGROUND:The Legend Of Cirno-bg.png;
#LYRICSPATH:;
#CDTITLE:DigiMindAxel original simfile.png;
#MUSIC:The Legend Of Cirno.ogg;
#METERTYPE:DDR X;
#OFFSET:-7.903;
#SAMPLESTART:63.367;
#SAMPLELENGTH:12.000;
#SELECTABLE:YES;
#BPMS:0.000=128.000;
#STOPS:48.000=3.28125
;
#BGCHANGES:;

//---------------dance-single - ----------------
#NOTES:
     dance-single:
     :
     Easy:
     5:
     0.257,0.354,0.018,0.310,0.000:
0002
1000
0000
1003
,
0200
1000
0000
1300
,
0020
0100
0000
0130
,
0002
0000
0000
0000
,
1003
0010
0100
0000
,
0010
0100
0001
0000
,
1000
0100
0010
0000
,
0100
0010
0001
0000
,
1000
0010
0100
0000
,
0001
1000
0100
0000
,
0010
0001
1000
0000
,
0001
0100
0010
1000
,
2002
3003
0000
0000
0000
0000
0000
0000
0000
0000
0000
0000
0000
0000
0000
0000
1000
0000
0000
0000
0000
0000
0000
0000
0000
0000
0000
0000
0000
0000
0000
0000
1000
0000
0000
0000
0000
0000
0000
0000
0000
0000
0000
0000
0000
0000
0000
0000
1000
0000
0000
0000
0000
0000
0000
0000
0000
0000
0000
0000
0000
0000
0000
0000
,
1000
0001
0001
0001
,
0001
1000
1000
1000
,
1000
0001
0001
0001
,
0001
0010
0100
0010
,
0100
1000
0010
1000
,
0010
1000
0001
1000
,
0001
0010
0100
0010
,
0100
2000
0000
3020
,
0000
0230
0000
0302
,
0000
2003
0000
3020
,
0000
0230
0000
0302
,
0000
2003
3200
0320
,
0032
2003
3200
0320
,
0032
1003
0100
0010
,
0001
1000
0000
0000
,
0000
1001
0001
0010
,
0100
1000
0000
0000
,
0001
1000
0100
1000
,
0010
0100
0000
0000
,
0001
1000
0100
0010
,
0100
1000
1000
0001
,
0001
0100
0010
0100
,
0001
0200
0000
0320
,
0000
1030
0100
0010
,
0001
0100
0000
0000
,
0010
0100
0001
0010
,
0100
1000
0000
0000
,
0100
1000
0010
0100
,
0010
1000
1000
0001
,
0001
0010
0100
0010
,
0100
2000
0000
3020
,
0000
0130
0001
1000
,
0100
0020
0000
0230
,
0000
0310
0001
0010
,
0001
0200
0000
0320
,
0000
1030
0100
0010
,
0001
0200
0000
0320
,
0000
0130
0001
0010
,
0100
0020
0000
0032
,
0000
2003
0000
0000
,
0000
3000
0000
0000
;

//---------------dance-single - ----------------
#NOTES:
     dance-single:
     :
     Medium:
     8:
     0.437,0.401,0.053,0.443,0.000: // measure 1
0000
1000
0000
1000
0010
0000
0000
1001
,  // measure 2
0000
0001
0000
0001
0010
0000
0000
1001
,  // measure 3
0000
1000
0000
1000
0100
0000
0000
1001
,  // measure 4
0001
1000
0001
1000
0001
0000
1001
0000
,  // measure 5
1000
0010
1000
0010
0100
0000
0000
0001
,  // measure 6
0010
0100
0010
0100
1000
0000
0000
0010
,  // measure 7
0100
0001
0100
0001
1000
0000
0000
0100
,  // measure 8
0010
0001
0010
0001
0100
0000
0000
0001
,  // measure 9
1000
0100
1000
0100
0010
0000
0000
0001
,  // measure 10
0100
0010
0100
0001
0100
0000
0000
0001
,  // measure 11
1000
0100
1000
0001
1000
0000
0000
0010
,  // measure 12
0100
0001
0010
0100
0010
0001
0100
0010
,  // measure 13
2000
3000
0000
0000
0000
0000
0000
0000
0000
0000
0000
0000
0000
0000
0000
0000
0100
0000
0000
0000
0000
0000
0000
0000
1000
0000
0000
0000
0000
0000
0000
0000
0100
0000
0000
0000
0000
0000
0000
0000
0020
0000
0000
0000
0000
0000
0000
0000
0000
0000
0000
0000
0000
0000
0000
0000
0000
0000
0000
0000
0000
0000
0000
0000
,  // measure 14
0000
0030
0001
0100
0001
2000
0000
3001
,  // measure 15
0100
0001
1000
0100
0010
0002
0000
0000
,  // measure 16
0000
0003
0010
0100
1000
0020
0000
0130
,  // measure 17
0010
0000
0100
0001
0010
0200
0000
0000
,  // measure 18
0000
0300
1000
0100
0010
0200
0000
0310
,  // measure 19
0001
0010
0100
1000
0010
0200
0000
0000
,  // measure 20
0000
0300
0001
0010
0100
2000
0000
3001
,  // measure 21
0100
0002
0023
0230
,  // measure 22
2300
3002
0203
0320
,  // measure 23
2030
3002
0023
0230
,  // measure 24
2300
3002
0203
0320
,  // measure 25
2030
0000
3001
0010
0001
0010
0100
1000
,  // measure 26
0100
1000
0001
0100
0001
0100
0010
1000
,  // measure 27
0010
1000
0100
0010
0100
0010
0001
1000
,  // measure 28
0001
1000
0100
0000
0000
0000
0000
1000
,  // measure 29
0100
0010
0002
0000
0000
0103
0010
0100
,  // measure 30
0001
1000
0200
0000
0000
0000
0300
1000
,  // measure 31
0010
0100
0002
0000
0000
0013
0100
0010
,  // measure 32
0001
0100
0002
0000
0000
0000
0003
0000
,  // measure 33
0020
0000
0230
0000
0000
1300
0010
1000
,  // measure 34
0001
0010
0100
1000
0100
1000
0001
0100
,  // measure 35
0001
0000
0100
0010
0100
0001
1000
0001
,  // measure 36
0100
0001
2000
0000
0000
3001
0200
0000
,  // measure 37
0300
0000
1001
0000
1000
0010
0100
0001
,  // measure 38
0010
0001
2000
0000
0000
0000
3000
0001
,  // measure 39
0010
0100
2000
0000
0000
3010
0100
0010
,  // measure 40
1000
0001
0020
0000
0000
0000
0030
0000
,  // measure 41
0002
0000
0023
0000
0000
0130
1000
0001
,  // measure 42
1000
0100
1000
0001
1000
0001
0100
0001
,  // measure 43
0100
0000
0001
1000
0001
1000
0100
0010
,  // measure 44
0100
0010
0002
0000
0000
1003
0200
0000
,  // measure 45
0310
0000
0001
0100
0001
0100
0010
1000
,  // measure 46
0100
1000
0200
0000
0000
0310
0002
0000
,  // measure 47
0003
1000
0010
0100
0010
0100
0001
0010
,  // measure 48
0100
0010
0002
0000
0000
0103
0020
0000
,  // measure 49
1030
0000
0001
0010
0001
0010
0100
1000
,  // measure 50
0010
1000
0200
0000
0000
0310
0002
0000
,  // measure 51
0003
0100
0001
1000
0001
1000
0010
0100
,  // measure 52
0010
1000
0020
0000
0000
0130
0002
0000
,  // measure 53
0000
0003
0220
0000
0000
0000
0000
0000
,  // measure 54
0000
0330
0000
0000
;

//---------------dance-single - ----------------
#NOTES:
     dance-single:
     :
     Hard:
     12:
     0.543,0.495,0.151,0.319,0.199:
0000
0000
0001
0000
1000
0000
0001
0000
1000
0200
0000
0000
0000
0000
1300
0000
,
0000
0000
0010
0000
0100
0000
0010
0000
0100
0002
0000
0000
0000
0000
0013
0000
,
0000
0000
0100
0000
1000
0000
0100
0000
1000
0020
0000
0000
0000
0000
0130
0000
,
0001
0010
0100
1000
0010
0100
0110
0000
,
1000
0000
0010
0000
0100
0000
1000
0000
0100
0010
0000
0000
0000
0000
1001
0000
,
0001
0000
0100
0000
0010
0000
0001
0000
0010
0100
0000
0000
0000
0000
1001
0000
,
1000
0000
0100
0000
0010
0000
1000
0000
0010
0100
0000
0000
0000
0000
1001
0000
,
0001
0000
0100
0000
0010
0000
0100
0000
0001
1000
0100
0000
0010
0000
0001
0000
,
1000
0000
0010
0000
0001
0000
0010
0000
1000
0100
0000
0000
0000
0000
1001
0000
,
0001
0000
0010
0000
1000
0000
0010
0000
0001
1000
0000
0000
0000
0000
1001
0000
,
1000
0000
0010
0000
0001
0000
0010
0000
1000
0100
0000
0000
0000
0000
1001
0000
,
0001
0000
0100
0000
1000
0000
0100
0000
0001
1000
0100
0000
0010
0000
0001
0000
,
2002
3003
0000
0000
0000
0000
0000
0000
0000
0000
0000
0000
0000
0000
0000
0000
0001
0000
0000
0000
0000
0000
0000
0000
0010
0000
0000
0000
0000
0000
0000
0000
0200
0000
0000
0000
0000
0000
0000
0000
2000
0000
0000
0000
0000
0000
0000
0000
0000
0000
0000
0000
0000
0000
0000
0000
0000
0000
0000
0000
0000
0000
0000
0000
,
0000
3300
0100
1000
0100
0020
0000
0130
,
1000
0010
0001
0010
2000
0200
0000
0000
,
0000
3300
1000
0100
0010
0002
0000
0100
,
0103
0000
0001
0010
0200
2000
0000
0000
,
0000
3300
0100
1000
0100
0020
0000
0031
,
0100
1000
0100
0001
0020
0200
0000
0000
,
0000
0330
0010
0100
1000
0020
0000
1000
,
1030
0000
0001
0010
0100
1000
0001
0010
,
0100
1000
0001
0100
0010
1000
0001
0100
,
0010
1000
0001
0100
1000
0100
0001
0100
,
1000
0100
0001
0010
1000
0010
0001
0010
,
1000
0010
0001
0001
0100
0100
0010
0010
,
1000
1000
0001
0001
0010
0010
0100
0100
,
1000
0000
1000
0000
0001
1000
0001
1000
0001
1000
0001
1000
0100
0010
0100
0010
,
0100
0010
0100
0000
0000
0000
0000
0000
0000
0000
0000
0000
0000
0000
1000
0000
,
0100
0000
0000
0010
0000
0000
1002
0000
0000
0000
0000
0000
0000
0000
0000
0013
0000
0000
0100
0000
0000
1000
0010
1000
,
0010
0000
0000
0100
0000
0000
0002
0000
0000
0000
0000
0000
0010
0000
0010
0000
0010
0000
0013
0000
0000
0100
0000
0000
,
1000
0000
0000
0010
0000
0000
0200
0000
0000
0000
0000
0000
0000
0000
0000
0301
0000
0000
1000
0000
0000
0100
1000
0100
,
1000
0000
0000
0100
0000
0000
0020
0000
0000
0000
0000
0000
0001
0000
0001
0000
0001
0000
0031
0000
0000
1000
0000
0000
,
0020
0000
2000
0000
3030
0001
0100
0100
,
0001
1000
1000
0100
0001
0100
1000
0100
,
0010
0000
0001
0010
1000
0010
0001
0010
,
0100
0000
1000
0000
0001
0000
0100
0001
0100
0000
0010
1000
0010
0000
1000
0001
,
1000
0000
0000
0000
0000
0000
1002
0000
0000
0000
0000
0000
0000
0000
0000
0013
0000
0000
0100
0000
0000
1000
0010
1000
,
0010
0000
0000
0100
0000
0000
0002
0000
0000
0000
0000
0000
1000
0000
1000
0000
1000
0000
1003
0000
0000
0001
0000
0000
,
0010
0000
0000
0100
0000
0000
2000
0000
0000
0000
0000
0000
0000
0000
0000
3001
0000
0000
0010
0000
0000
0100
0010
0100
,
0010
0000
0000
0001
0000
0000
0200
0000
0000
0000
0000
0000
0010
0000
0010
0000
0010
0000
0310
0000
0000
1000
0000
0000
,
0020
0000
2000
0000
3030
0001
0100
0100
,
0001
1000
1000
0100
0001
0100
1000
0100
,
0010
0000
0001
0010
1000
0010
0001
0100
,
0010
0000
1000
0000
0100
0000
0010
0001
0010
0000
0100
0010
0100
0000
1000
0010
,
1000
0000
0000
0000
1001
0000
0001
0000
0001
0000
0010
0100
1000
0000
1000
0000
,
0010
0000
0100
0000
0002
0000
0000
0000
0000
0000
0103
0010
2000
0000
0000
0000
,
3000
0000
0001
0000
1000
0000
0010
0000
0010
0000
0100
0001
1000
0000
1000
0000
,
0100
0010
0002
0000
0000
0013
2000
0000
,
3010
0000
0000
0000
1001
0000
0001
0000
0001
0000
1000
0010
0100
0000
0100
0000
,
0010
1000
0020
0000
0000
0130
0002
0000
,
0003
1000
1001
0001
0010
0100
0110
0010
,
0100
1000
1010
0010
0110
0100
0101
0001
,
0010
0000
0100
1000
0020
0000
0000
0000
0000
0000
0000
0000
0000
0000
0000
0000
,
0000
0030
0000
0000
;

//---------------dance-single - ----------------
#NOTES:
     dance-single:
     :
     Beginner:
     1:
     0.075,0.093,0.071,0.000,0.000:
1000
0000
0000
0000
,
1000
0000
0000
0000
,
0001
0000
0000
0000
,
0001
0000
0000
0000
,
1001
0000
0000
0000
,
1000
0000
0000
0000
,
0010
0000
0000
0000
,
1000
0000
0000
0000
,
0001
0000
0000
0000
,
0100
0000
0000
0000
,
0001
0000
0000
0000
,
1000
0000
0000
0000
,
1001
0001
0000
0000
,
0000
0000
0000
0000
,
0000
0001
0000
0000
,
0000
0000
0000
0000
,
0000
1000
0000
0000
,
0000
0000
0000
0000
,
0000
1000
0000
0000
,
0000
0000
0000
0000
,
0000
0100
0000
0000
,
0000
0100
0000
0000
,
0000
0100
0000
0000
,
0000
0100
0000
0000
,
0000
0100
0000
0000
,
0000
0100
0000
0000
,
0000
0100
0000
0000
,
0000
0100
0000
0000
,
0000
1001
0000
0000
,
0000
0001
0000
0000
,
0000
0100
0000
0000
,
0000
0010
0000
0000
,
0000
0100
0000
0000
,
0000
0001
0000
0000
,
0000
1000
0000
0000
,
0000
0100
0000
0000
,
0000
1000
0000
0000
,
0000
0001
0000
0000
,
0000
0100
0000
0000
,
0000
0001
0000
0000
,
0000
1000
0000
0000
,
0000
1000
0000
0000
,
0000
0001
0000
0000
,
0000
0001
0000
0000
,
0000
1001
0000
0000
,
0000
1000
0000
0000
,
0000
1001
0000
0000
,
0000
0001
0000
0000
,
0000
1001
0000
0000
,
0000
0100
0000
0000
,
0000
0110
0000
0010
,
0000
0010
0000
0000
,
0000
1001
0000
0000
;
