#TITLE:The Last Illusion;
#SUBTITLE:;
#ARTIST:Kiryu;
#TITLETRANSLIT:;
#SUBTITLETRANSLIT:;
#ARTISTTRANSLIT:;
#CREDIT:DigiMindAxel;
#BANNER:The Last Illusion.png;
#BACKGROUND:The Last Illusion-bg.png;
#LYRICSPATH:;
#CDTITLE:Cytus.png;
#MUSIC:The Last Illusion.ogg;
#METERTYPE:DDR X;
#OFFSET:-8.205;
#SAMPLESTART:82.235;
#SAMPLELENGTH:12.000;
#SELECTABLE:YES;
#BPMS:0.000=132.000;
#STOPS:225.750=0.681818
;
#BGCHANGES:;

//---------------dance-single - ----------------
#NOTES:
     dance-single:
     :
     Easy:
     4:
     0.222,0.220,0.022,0.246,0.000:
1000
0001
0100
0000
,
0001
1000
0100
0000
,
1000
0100
0010
0000
,
0001
0010
0100
0100
,
1000
0010
0100
0000
,
0001
0100
0010
0000
,
1000
0001
0100
0000
,
0001
1000
0010
0010
,
0220
0000
0330
0000
,
0002
0000
0000
1003
,
0200
0000
1300
0000
,
0002
0000
0203
0000
,
0320
0000
2030
0000
,
3002
0000
0000
0013
,
0200
0000
2300
0000
,
3002
0000
0000
0000
,
0203
0000
0320
0000
,
0230
0000
0000
0301
,
2000
0000
3100
0000
,
0020
0000
0032
0000
,
0203
0000
0310
0000
,
2000
0000
0000
3001
,
0200
0000
0302
0000
,
2003
0000
0000
3100
,
0020
0000
0000
0000
,
0031
0000
0000
0000
,
0001
0000
0000
0000
,
1000
0000
0000
0000
,
1000
0000
0000
0000
,
0100
0000
0000
0000
,
0010
0000
0000
0000
,
0002
0000
0000
0000
,
2003
0000
0000
0000
,
3001
0100
0001
0000
,
1000
0001
1000
0000
,
0100
1000
0100
0000
,
0010
0100
0010
0000
,
0001
0100
0001
0000
,
1000
0100
0010
0000
,
0001
0100
0010
0100
,
0002
0000
0003
0000
,
1000
0100
0010
0001
,
1000
1000
0000
0001
,
1000
0100
0010
0001
,
0100
0100
0000
0001
,
1000
0010
0100
0001
,
1000
1000
0000
0001
,
2000
0000
3200
0000
,
2300
0000
3002
0000
,
0013
0100
1000
0001
,
0100
0100
0100
0000
,
0001
1000
0100
0010
,
0001
1000
1000
0000
,
0001
0100
0010
0100
,
0001
1000
1000
0000
,
0200
0000
2300
0000
,
3010
0000
0000
0000
0000
0110
0000
0100
,
0000
0100
0000
0100
0000
0001
0000
0001
,
0000
0001
0000
0001
0000
1000
0000
1000
,
0000
1000
0000
1000
0000
0001
0000
0001
,
0000
0010
0000
0100
0000
1000
0000
1000
,
0000
1000
0000
1000
0000
0010
0000
0010
,
0000
0010
0000
0010
0000
0100
0000
0100
,
0000
0100
0000
0100
0000
0001
0000
0001
,
0000
1000
0000
0100
0000
0010
0000
0000
,
0010
0000
0000
0010
0000
0000
0110
0000
;

//---------------dance-single - ----------------
#NOTES:
     dance-single:
     :
     Medium:
     7:
     0.381,0.368,0.112,0.350,0.041:
1000
0000
0010
0000
1000
0001
0010
0001
,
1000
0000
0100
0000
0010
0001
0100
0001
,
0010
0000
0100
0000
0010
0001
0100
0010
,
1000
0000
0100
0000
0010
0100
1000
0001
,
0100
0000
0010
0000
0100
0001
1000
0001
,
0100
0000
0010
0000
1000
0100
0010
0100
,
1000
0000
0001
0000
0100
0010
1000
0100
,
0010
0000
0001
0000
0100
0010
1000
0100
,
0010
0000
0000
0011
0000
0000
0000
0001
,
2000
0000
0000
3100
,
0020
0000
0000
0001
0032
0000
0000
0103
,
0010
0000
0000
1000
0000
0000
0010
0000
2000
0000
0000
0000
0000
0000
3001
0000
,
0100
0000
0000
0001
0000
0000
1000
0000
0020
0000
0000
0000
0000
0000
1030
0000
,
0002
0000
0000
0000
0000
0000
0013
0100
,
1000
0000
0000
0001
0000
0000
0100
0000
0001
0000
0000
0000
0000
0000
1000
0000
,
0200
0000
0000
0310
,
0001
0100
0010
1001
,
0002
0000
0000
0000
0000
0000
0013
0100
,
2000
0000
0000
0001
3001
0000
0000
1000
,
0010
0000
0000
0100
0000
0000
0010
0000
0100
0000
0000
0000
0000
0000
0001
0000
,
1000
0100
0010
0001
,
0201
0000
0000
0000
0000
0000
0310
1000
,
0002
0000
0000
0010
0013
0000
0100
0000
,
2000
0000
0000
3001
,
0200
0000
0000
0000
0000
0000
0310
0100
,
0010
0000
0000
0010
0000
0000
0010
0000
,
2000
0000
0000
3000
,
0100
0000
0000
0100
0000
0000
0100
0000
,
0020
0000
0000
0030
,
0002
0000
2003
0000
,
3002
0000
1003
0000
,
2002
0000
3003
0001
,
0100
0000
0010
0000
1000
0000
0001
1000
,
0001
0000
0010
0100
0010
0000
0001
0010
,
0100
0000
1000
0010
1000
0000
0010
0100
,
0001
0000
0010
0100
0010
0000
0001
0100
,
0001
0000
1000
0100
0010
0000
0100
1000
,
0100
0000
1000
0001
0000
0000
0010
0100
,
0010
0000
0001
1000
0000
0001
1000
0000
,
0010
1000
0000
0010
1000
0000
0001
0000
,
0100
0000
0000
0101
0000
0000
0000
0000
,
1002
0023
0230
2300
,
3001
0000
0000
0001
0000
0000
0101
0000
0000
0000
0000
0000
0100
0000
0010
0000
,
2000
0000
3200
0000
0320
0000
0031
1000
,
0002
0000
0000
0100
0103
0000
0010
0100
,
0002
0023
0230
2300
,
3001
0000
0000
0001
0000
0000
0101
0000
0000
0000
0000
0000
0000
0000
0001
0000
,
2000
0000
0000
0000
3100
0010
0001
1000
,
0002
0000
0010
0000
0013
0000
0100
1000
,
0002
0203
0320
2030
,
3001
0000
0000
0001
0000
0000
0011
0000
0000
0000
0000
0000
0010
0000
0100
0000
,
2000
3020
0230
0302
,
1003
0000
0001
1000
0010
0000
0100
0001
,
2000
3020
0230
0302
,
1003
0000
0000
1000
0000
0000
1100
0000
0000
0000
0000
0000
0000
0000
1000
0000
,
0002
0000
0000
0103
0010
0000
1000
0100
,
0000
0010
0000
0000
0010
0000
0000
0011
0000
0000
0001
0000
0100
0000
0001
0000
,
0000
0100
0010
1000
0000
0001
0010
0001
,
0000
0010
0100
1000
0000
0001
0100
0001
,
0000
0100
0010
1000
0000
0001
0010
0001
,
0000
0010
0100
1000
0001
0100
0010
0100
,
0000
0001
0010
0100
0000
0010
0100
0010
,
0000
0001
0100
0010
0000
0100
0010
0100
,
0000
0001
0010
0100
0000
0010
0100
0010
,
0000
0001
0100
0010
1000
0100
0000
0000
,
1100
0000
0000
0000
0000
0000
0011
0000
0000
0000
0000
0000
1001
0000
0000
1001
;

//---------------dance-single - ----------------
#NOTES:
     dance-single:
     :
     Hard:
     11:
     0.490,0.491,0.290,0.238,0.383:
1000
0000
0001
0000
0000
0001
0000
0000
0010
0000
0000
0100
0000
0000
1000
0000
,
0000
0000
0001
0000
0000
0001
0000
0000
1000
0000
0000
0100
0000
0000
0010
0000
,
0000
0000
0001
0000
0000
0001
0000
0000
1000
0000
0000
0010
0000
0000
0100
0000
,
0000
0000
0001
0000
0000
0001
0000
0000
1000
0000
0100
0000
0001
0000
0100
0000
,
1000
0000
0010
0000
0000
0010
0000
0000
0100
0000
0000
0001
0000
0000
1000
0000
,
0000
0000
0100
0000
0000
0100
0000
0000
0010
0000
0000
0001
0000
0000
1000
0000
,
0000
0000
0010
0000
0000
0010
0000
0000
1000
0000
0000
0100
0000
0000
0010
0000
,
0000
0000
0001
0000
0000
0001
0000
0000
1000
0000
0010
0000
0001
0000
0010
0000
,
1000
0000
0000
1001
0000
0000
0001
0000
0000
0101
0000
0000
0000
0000
0100
0000
,
0020
0000
1000
1000
0000
0100
0130
0000
,
0002
0000
0000
0000
0000
0000
0013
0000
0200
0000
0000
0000
1300
0000
0010
0001
,
1000
0000
0000
0100
0000
0000
0010
0000
0002
0000
0000
0000
0000
0000
0103
0000
,
0001
0000
0000
0010
0000
0000
0100
0000
2000
0000
0000
0000
3001
0000
0100
0000
,
0020
0000
0000
0000
1000
0000
1000
0000
0000
0000
0100
0000
0130
0001
1000
0000
,
0100
0000
0000
0010
0000
0000
0001
0000
0200
0000
0000
0000
0000
0000
0301
1000
,
0002
0000
0010
0010
0000
1000
1003
0000
,
0010
0000
0000
0110
0000
0000
0100
0000
0000
0101
0000
0000
1001
0000
0001
0000
,
2000
0000
0000
0000
0100
0000
0100
0000
0000
0000
3001
0000
1000
0100
0010
0000
,
0200
0000
0000
0000
0000
0000
1300
0000
0002
0000
0000
0000
1000
0000
1003
0010
,
0200
0000
0000
0010
0000
0000
0310
0000
2000
0000
0000
0000
0000
0000
3001
0010
,
0200
0310
0110
1010
,
1002
0000
0000
0000
1000
0000
1000
0000
0000
0000
0010
0000
0013
0100
1000
0000
,
0002
0000
0000
0100
0000
0000
0103
0000
0020
0000
0000
1000
0000
0000
1030
0000
,
0002
0000
0010
0010
0000
1000
1003
0000
,
0200
0000
0000
0000
0000
0000
0000
0000
1300
0000
0000
0010
0000
0000
0100
0000
,
0002
0000
0000
0010
0000
0000
0013
0000
,
0200
0000
0000
1000
0000
0000
1300
0000
,
2001
0000
0000
0001
0000
0000
3001
0000
,
0200
0000
0000
0000
0000
0000
0000
0000
0310
0000
0000
0100
0000
0000
0001
0000
,
2000
0000
0000
0000
0000
0000
0000
0000
3100
0000
0000
0010
0000
0000
0001
0000
,
0200
0000
0010
0000
0000
0010
0310
0000
,
2002
0000
0000
0000
3003
0000
0001
1000
,
0010
0000
0001
0000
0010
0000
1000
0000
0100
0000
0010
0001
0000
1000
0000
0001
,
1000
0000
0001
0100
0001
0100
0010
1000
,
0100
0010
0100
1000
0001
0000
1000
0001
,
0100
0010
0100
0010
1000
0100
0001
0000
,
0100
1000
0100
0010
0001
0100
0001
1000
,
0100
1000
0001
1001
0000
0000
1000
0001
,
0100
0001
1000
1100
0000
0100
0110
0000
,
0010
0011
0000
0001
1001
0000
1001
0000
,
1100
0000
0000
0011
0000
0000
0110
0000
0000
0000
0000
0000
0000
0000
0000
0000
,
0100
0000
0000
0100
0001
0000
0000
0001
1000
0000
0000
1000
0100
0000
0000
0100
,
0010
0000
0000
0011
0000
0000
1001
0000
0000
0000
0000
0000
0001
1000
0001
1000
,
0001
0000
0000
0001
0010
0000
0000
0010
0100
0000
0000
0100
1000
0000
0001
0000
,
0200
0000
0000
0010
0000
0000
0310
0000
1000
0000
0000
0000
0001
1000
0001
1000
,
0001
0000
0000
0001
0100
0000
0000
0100
0010
0000
0000
0010
1000
0000
0000
1000
,
0001
0000
0000
0101
0000
0000
0110
0000
0000
0000
0000
0000
1000
0000
0100
1000
,
0200
0000
0000
0000
0310
0000
0001
0100
0001
0000
1000
0000
0100
0000
0010
0000
,
0100
0000
0000
1100
0000
0000
1001
0000
0000
0101
0000
0000
0001
1000
0001
1000
,
0001
0000
0000
0001
0100
0000
0000
0100
0010
0000
0000
0010
1000
0000
0000
1000
,
0001
0000
0000
0011
0000
0000
1001
0000
0000
0000
0000
0000
1000
0001
1000
0001
,
1000
0000
0000
1000
0010
0000
0000
0010
0100
0000
0000
0100
0001
0000
0010
0000
,
0200
0000
0000
1000
0000
0000
1300
0000
0001
0000
0000
0000
0100
0010
0100
0010
,
0100
0000
0000
0100
0001
0000
0000
0001
1000
0000
0000
1000
0100
0000
0000
0100
,
0010
0000
0000
0011
0000
0000
1001
0000
0000
0000
0000
0000
0001
0000
1000
0100
,
2000
0000
0000
0000
3100
0000
0010
0001
0200
0000
0000
0010
0000
0000
0310
0000
,
0000
1010
0000
0000
0101
0000
0000
1001
0000
0000
0001
0000
1000
0000
0000
0010
,
0000
0000
0001
0000
0000
0010
0000
0000
1000
0000
0000
0000
0001
0000
0000
0100
,
0000
0000
1000
0000
0000
0100
0000
0000
0001
0000
0000
0000
1000
0000
0000
0100
,
0000
0000
0001
0000
0000
0100
0000
0000
1000
0000
0000
0000
0001
0000
0000
0010
,
0000
0000
1000
0000
0010
0000
0001
0000
0100
0000
0010
0000
1000
0000
0000
0100
,
0000
0000
0001
0000
0000
0100
0000
0000
1000
0000
0000
0000
0001
0000
0000
0100
,
0000
0000
1000
0000
0000
0100
0000
0000
0001
0000
0000
0000
1000
0000
0000
0010
,
0000
0000
0001
0000
0000
0010
0000
0000
1000
0000
0000
0000
0001
0000
0000
0010
,
0000
0000
1000
0000
0010
0000
0001
0000
0100
0000
0010
0000
0000
1010
0000
0000
,
1000
0000
0000
1001
0000
0000
0011
0000
0000
1100
0000
0000
0110
0000
0000
0110
;

//---------------dance-single - ----------------
#NOTES:
     dance-single:
     :
     Challenge:
     13:
     0.658,0.589,0.484,0.208,0.629: // measure 1
1000
0000
0100
0010
0000
0100
1000
0000
0020
0000
0000
0100
0000
0000
0130
0000
,  // measure 2
0001
0000
0010
0100
0000
0010
0001
0000
0200
0000
0000
0010
0000
0000
0310
0000
,  // measure 3
1000
0000
0001
0010
0000
0100
0010
0000
0002
0000
0000
1000
0000
0000
1003
0000
,  // measure 4
0001
0000
0100
0010
0000
1000
0001
0000
1000
0000
0100
0000
0001
0000
0100
0000
,  // measure 5
1000
0000
0001
0100
0000
0010
0100
0000
0001
0000
0000
1100
0000
0000
0011
0000
,  // measure 6
0001
0000
0100
0010
0000
1000
0100
0000
0010
0000
0000
0011
0000
0000
1100
0000
,  // measure 7
1000
0000
0001
0100
0000
0010
0100
0000
0001
0000
0000
1100
0000
0000
0011
0000
,  // measure 8
0001
0000
1000
0010
0000
0100
0010
0000
1000
0000
0010
0000
0001
0000
0010
1000
,  // measure 9
0001
0010
0000
0110
0000
0000
1000
0100
0000
0110
0000
0000
0000
0000
0001
0000
,  // measure 10
1000
0010
0001
0010
0100
0001
1000
0000
,  // measure 11
0001
0000
0100
0000
1000
0000
0100
0000
0010
0000
1000
0000
0001
0000
0100
0010
,  // measure 12
1000
0000
0100
0010
0000
0100
0010
0000
0002
0000
0000
0000
1003
0000
0001
0000
,  // measure 13
0010
0000
0000
0110
0000
0000
1100
0000
2000
0000
0000
0000
3001
0100
0001
0100
,  // measure 14
0001
0000
0100
0000
1000
0000
0100
0000
0010
0000
1000
0000
0001
0100
0001
0100
,  // measure 15
0010
0000
0000
0000
0000
0000
0000
0000
0000
1010
0000
0000
0000
0000
0000
0000
0000
0000
0101
0000
0000
0000
0000
0000
0002
0000
0000
0000
0000
0000
0000
0000
0000
0000
0000
0000
1003
0000
0000
0000
0000
0000
0001
0000
0100
0000
0001
0000
,  // measure 16
1000
0100
0001
0100
0010
0001
1000
0000
,  // measure 17
1010
0000
0000
0110
0000
0000
0101
0000
0000
0110
0000
0000
1000
0001
1000
0001
,  // measure 18
1000
0000
0001
0000
0100
0000
1000
0000
0100
0000
0001
0000
0010
0100
0010
0100
,  // measure 19
0010
0000
0001
0000
1000
0000
0010
0000
2000
0000
0000
0000
3001
0000
1000
0100
,  // measure 20
0010
0000
0000
0000
0000
0000
0100
0000
0000
1000
0000
0000
0000
0000
0000
0100
0000
0000
1000
0000
0000
0000
0000
0000
0002
0000
0000
0000
0000
0000
0000
0000
0000
0000
0000
0000
1003
0000
0000
0000
0000
0000
0001
0000
0010
0000
0001
0000
,  // measure 21
0010
0000
0000
0000
1100
0000
0000
0000
1001
0000
0000
0000
0001
1000
0001
1000
,  // measure 22
0100
0000
1000
0000
0100
0000
0001
0000
0100
0000
1000
0000
0001
0010
0100
1000
,  // measure 23
0001
0000
1000
0010
0000
1000
0010
0000
0100
0000
0000
0110
0000
0000
1001
0000
,  // measure 24
0001
1000
0100
0001
0100
1000
0001
0000
,  // measure 25
0010
0000
0100
0000
1000
0000
0010
0000
0001
0000
0010
1000
0000
0001
1000
0000
,  // measure 26
1002
0000
0000
0010
0000
0000
0013
0000
,  // measure 27
0200
0000
0000
1000
0000
0000
1300
0000
,  // measure 28
1002
0000
0000
0100
0000
0000
0103
0000
,  // measure 29
0020
0000
0000
0000
0000
0000
0000
0000
1030
0000
0000
0001
0000
0000
0020
0000
,  // measure 30
0200
0000
0000
0000
0330
0000
0000
0000
1000
0000
0000
0001
0000
0000
0200
0000
,  // measure 31
0020
0000
0330
0000
1000
0010
1000
0000
,  // measure 32
2002
0000
0000
0000
0000
0000
0000
0000
3003
0000
0000
0000
1000
0010
1000
0010
,  // measure 33
1000
0100
0010
0000
0100
0010
0001
0000
1000
0010
1000
0001
0010
0001
0000
0100
,  // measure 34
0010
1000
0001
0010
0001
1000
0001
0010
,  // measure 35
1000
0010
0001
0010
0100
1000
0100
0010
,  // measure 36
0011
0000
0000
1100
0000
0000
1001
0000
0000
0000
1000
0000
0010
0000
1000
0000
,  // measure 37
0001
0000
0100
0000
1000
0000
0100
0000
0001
0000
0010
0000
0100
1000
0100
1000
,  // measure 38
0001
0001
0001
0110
0000
0000
0010
0100
,  // measure 39
1000
1000
1000
0110
0000
1000
0110
0000
,  // measure 40
0001
0110
0000
1000
0110
0000
0110
0000
,  // measure 41
0011
0000
0000
1100
0000
0000
1001
0000
0000
0000
0000
0000
0001
0010
0100
1000
,  // measure 42
0001
0000
0000
1000
0010
0000
0000
0100
0001
0010
0001
0010
0100
0000
0000
0100
,  // measure 43
1000
0000
0000
0011
0000
0000
2002
0000
0000
0000
3003
0000
1000
0100
0010
0001
,  // measure 44
1000
0000
0000
0001
0100
0000
0000
0010
1000
0100
1000
0100
0010
0000
0100
0000
,  // measure 45
1100
0000
0000
0011
0000
0000
1001
0000
0110
0000
0000
0000
0001
0010
0100
1000
,  // measure 46
0001
0000
0000
1000
0010
0000
0000
0100
0001
0010
0001
0010
0100
0000
0000
1000
,  // measure 47
0001
0000
0000
0101
0000
0000
2020
0000
0000
0000
3030
0010
1000
0000
0100
0010
,  // measure 48
0002
0000
0000
0013
0001
0000
0100
0010
1000
0000
0001
0010
0001
0000
0100
0000
,  // measure 49
0110
0000
0000
1100
0000
0000
0011
0000
0000
1100
0000
0000
0010
0001
0100
0010
,  // measure 50
1000
0000
0000
0100
0010
0000
0000
0001
0100
0010
1000
0010
1000
0000
0000
0100
,  // measure 51
0010
0000
0000
0101
0000
0000
2020
0000
0000
0000
3030
0000
0010
1000
0100
0010
,  // measure 52
0001
0000
0000
0010
0001
0000
0000
0100
0010
1000
0100
1000
0100
0010
0000
0000
,  // measure 53
0011
0000
0000
1100
0000
0000
0011
0000
1001
0000
0000
0000
1000
0010
0100
0001
,  // measure 54
0010
0000
0000
0100
1000
0000
0000
0010
0100
0001
0010
0001
0010
0000
0000
0100
,  // measure 55
1000
0000
0000
0011
0000
0000
2002
0000
0000
0000
3003
1000
0001
0000
0100
0010
,  // measure 56
2000
0000
0000
3010
1000
0000
0100
0010
0001
0000
0000
1001
0000
0000
1010
0000
,  // measure 57
0000
0101
0000
0000
1010
0000
0000
0110
0000
0000
1001
0000
1000
0010
0000
0010
,  // measure 58
0100
0000
0001
0010
0000
0010
0100
0000
1000
0000
0001
0000
0100
0010
0000
0010
,  // measure 59
1000
0000
0100
0010
0000
0010
0001
0000
1000
0000
0100
0000
0010
0001
0000
0001
,  // measure 60
1000
0000
0010
1000
0000
1000
0001
0000
1000
0000
0001
0000
0100
0010
0000
0010
,  // measure 61
1000
0000
0001
0000
0100
0000
1000
0000
0100
0000
0001
0000
1000
0100
0000
0100
,  // measure 62
0001
0000
0001
0100
0000
0100
1000
0000
0001
0000
1000
0000
0001
0100
0000
0100
,  // measure 63
1000
0000
1000
0100
0000
0100
0001
0000
1000
0000
0001
0000
1000
0010
0000
0010
,  // measure 64
0001
0000
0001
0010
0000
0010
1000
0000
0001
0000
1000
0000
0001
0100
0000
0100
,  // measure 65
0010
0000
1000
0000
0100
0000
0001
0000
0100
0000
1000
0010
0000
0110
0000
0000
,  // measure 66
0001
0100
0000
0110
0000
0000
0100
1000
0000
1001
0000
0000
0010
0001
0000
1001
;

//---------------dance-single - ----------------
#NOTES:
     dance-single:
     :
     Beginner:
     1:
     0.074,0.097,0.045,0.000,0.000:
1000
0000
0000
0000
,
0100
0000
0000
0000
,
0010
0000
0000
0000
,
0100
0000
0000
0000
,
1000
0000
0000
0000
,
0001
0000
0000
0000
,
0100
0000
0000
0000
,
0001
0000
0000
0000
,
1001
0000
0000
0000
,
1000
0000
0000
0000
,
0100
0000
0000
0000
,
1000
0000
0000
0000
,
0001
0000
0000
0000
,
1000
0000
0000
0000
,
0010
0000
0000
0000
,
1000
0000
0000
0000
,
0001
0000
0000
0000
,
1000
0000
0000
0000
,
0100
0000
0000
0000
,
0010
0000
0000
0000
,
0001
0000
0000
0000
,
1000
0000
0000
0000
,
0010
0000
0000
0000
,
1000
0000
0000
0000
,
0001
0000
0000
0000
,
0010
0000
0000
0000
,
0000
0000
0000
0000
,
0010
0000
0000
0000
,
0000
0000
0000
0000
,
0100
0000
0000
0000
,
0100
0000
0000
0000
,
0100
0000
0000
0000
,
0000
0000
0000
0000
,
1001
0000
0000
0000
,
1000
0000
0000
0000
,
0001
0000
0000
0000
,
1000
0000
0000
0000
,
0001
0000
0000
0000
,
1000
0000
0000
0000
,
0001
0000
0000
0000
,
1001
0000
0000
0000
,
1000
0000
0000
0000
,
0010
0000
0000
0000
,
0100
0000
0000
0000
,
0010
0000
0000
0000
,
1000
0000
0000
0000
,
0001
0000
0000
0000
,
0010
0000
0000
0000
,
0001
0000
0000
0000
,
1000
0000
0000
0000
,
0010
0000
0000
0000
,
0100
0000
0000
0000
,
0001
0000
0000
0000
,
1000
0000
0000
0000
,
0010
0000
0000
0000
,
0100
0000
0000
0000
,
1001
0000
0000
0000
0000
0001
0000
0000
,
0000
0000
0000
0000
0000
0010
0000
0000
,
0000
0000
0000
0000
0000
0001
0000
0000
,
0000
0000
0000
0000
0000
1000
0000
0000
,
0000
0000
0000
0000
0000
0001
0000
0000
,
0000
0000
0000
0000
0000
0100
0000
0000
,
0000
0000
0000
0000
0000
0001
0000
0000
,
0000
0000
0000
0000
0000
1000
0000
0000
,
0000
0000
0000
0000
0000
1001
0000
0000
,
0000
0000
0000
1001
0000
0000
0000
0000
;
