#TITLE:The Justice Ray Part.3;
#SUBTITLE:;
#ARTIST:九十九百太郎;
#TITLETRANSLIT:;
#SUBTITLETRANSLIT:;
#ARTISTTRANSLIT:HYAKUTARO TSUKUMO;
#CREDIT:DigiMindAxel;
#BANNER:The Justice Ray Part.3.png;
#BACKGROUND:The Justice Ray Part.3-bg.png;
#LYRICSPATH:;
#CDTITLE:DigiMindAxel original simfile.png;
#MUSIC:The Justice Ray Part.3.ogg;
#METERTYPE:DDR X;
#OFFSET:-7.238;
#SAMPLESTART:26.974;
#SAMPLELENGTH:12.000;
#SELECTABLE:YES;
#DISPLAYBPM:170.000;
#BPMS:0.000=170.000,48.000=85.000,52.000=170.000,268.000=85.000,272.000=170.000;
#STOPS:;
#BGCHANGES:;

//---------------dance-single - ----------------
#NOTES:
     dance-single:
     :
     Easy:
     5:
     0.195,0.277,0.154,0.072,0.000:
2002
0000
0000
3003
,
1001
0000
0100
0000
,
0220
0000
0000
0330
,
0110
0000
0001
0000
,
1001
0000
1000
0000
,
0001
0000
0010
0000
,
0100
0000
0010
0000
,
0100
0000
1000
0000
,
0001
0000
0001
0000
,
1000
0000
0100
0000
,
0010
0000
0001
0000
,
1000
0000
0000
0000
,
1001
0000
0000
0000
,
0001
0000
1000
0000
,
0100
0000
1000
0000
,
0100
0000
0010
0000
,
0100
0000
0010
0000
,
0001
0000
0010
0000
,
0001
0000
1000
0000
,
0001
0000
0001
0000
,
1000
0000
1000
0000
,
0010
0000
0100
0000
,
0010
0000
1000
0000
,
0001
0000
1000
0000
,
0010
0000
0100
0000
,
0001
0000
1000
0000
,
0001
0000
0001
0000
,
1000
0000
1000
0000
,
2002
0000
0000
3003
,
1000
0000
0001
0000
,
0010
0000
0001
0000
,
0010
0000
0100
0000
,
0010
0000
0100
0000
,
1000
0000
0001
0000
,
1000
0000
0100
0000
,
0010
0000
0001
0000
,
0010
0000
0001
0000
,
1000
0000
0100
0000
,
1000
0000
0010
0000
,
0100
0000
0010
0000
,
1000
0000
0100
0000
,
0010
0000
0001
0000
,
1000
0000
0001
0000
,
0001
0000
1000
0000
,
1001
0000
0000
0000
,
1001
0000
0001
0000
,
0010
0000
0010
0000
,
0100
0000
0100
0000
,
1000
0000
1000
0000
,
0100
0000
0001
0000
,
0100
0000
1000
0000
,
0001
0000
0100
0000
,
0010
0000
1000
0000
,
0001
0000
0100
0000
,
1000
0000
0100
0000
,
0001
0000
1000
0000
,
0100
0000
0010
0000
,
0001
0000
0100
0000
,
0010
0000
0100
0000
,
0010
0000
1000
0000
,
0001
0000
0000
0000
,
1001
0000
0100
0000
,
0110
0000
0000
0000
,
1001
0000
0010
0000
,
0110
0000
0000
0000
,
1001
0000
0100
0000
,
0110
0000
0000
0000
,
2002
0000
0000
0000
0000
0000
0000
3003
,
1001
0000
0000
0000
;

//---------------dance-single - ----------------
#NOTES:
     dance-single:
     :
     Medium:
     8:
     0.408,0.461,0.407,0.262,0.109:
2002
0000
0000
3003
,
0001
0010
0100
1000
,
2002
0000
0000
3003
,
1000
0100
0010
0001
,
1000
0010
1000
0010
,
0100
0001
0010
0100
,
1000
0000
0001
0000
1000
0000
0001
0000
0100
0000
0010
0000
,
0200
0000
0301
0000
,
1001
0001
1000
0100
,
0010
0001
0010
0001
,
2001
0000
0000
0000
0000
0000
3001
0000
0100
0000
0010
0000
,
2000
0000
0000
3000
,
2002
0000
0000
0000
0000
0000
0000
3003
,
1001
0001
0100
0001
,
0010
0100
1000
0001
,
1000
0100
1000
0100
,
0010
0100
0010
0100
,
1001
1000
0010
1000
,
0100
0010
0001
1000
,
0001
0000
0000
0010
0000
0000
0001
0000
0010
0000
0100
0000
,
1000
0001
0100
0001
,
2001
0000
0000
3001
,
0200
0000
0301
0100
,
0020
0000
0000
0000
0000
0000
0130
0000
0010
0000
0100
0000
,
0001
1000
0100
1000
,
2001
0000
0000
3001
,
0100
0010
1000
0100
,
0020
0000
0000
0000
0000
0000
0031
0000
1000
0000
0001
0000
,
2002
0000
0000
3003
,
1001
0001
0101
1000
,
0110
0001
0010
0100
,
2000
0000
0001
0000
,
3001
0100
0001
1000
,
1001
1000
1010
0001
,
0110
0000
0000
1000
0000
0000
0001
0000
0100
0000
0001
0000
,
2000
0000
0000
3001
,
0100
1000
0100
0001
,
1000
1001
0001
1000
,
0110
0001
1001
0100
,
0020
0000
0000
0031
,
1000
0010
0100
0001
,
1001
1000
1100
0001
,
0110
1000
0010
0100
,
0002
0000
0000
0000
0000
0000
1003
0000
0001
0000
1000
0000
,
2002
0000
0000
3003
,
0001
0000
1000
0001
0000
0000
1000
0000
0001
1000
0000
0000
,
0100
0001
0100
1000
,
0002
1000
0000
1003
,
0100
0010
0001
1000
,
0001
0000
1000
0001
0000
0000
1000
0000
0001
1000
0000
0000
,
0100
0001
0100
1000
,
1001
0001
1000
0001
,
0010
0100
1000
0001
,
0101
0100
0101
0100
,
0001
1000
0001
0010
,
0100
0000
0000
1000
0000
0000
0100
0000
0010
0000
0100
0000
,
1000
0001
0100
0001
,
2001
0000
0000
0000
0000
0000
3010
0000
0100
0000
0010
0000
,
1000
0100
0010
0001
,
1002
0000
0203
0000
,
0020
0000
0000
0330
,
0101
0100
1100
1000
,
1001
0001
0110
0110
,
1010
0010
0110
0100
,
0101
0001
0110
0110
,
0101
0100
0110
0010
,
1010
1000
0110
0110
,
2002
0000
0000
0000
0000
0000
0000
3003
,
1001
0000
0000
0000
;

//---------------dance-single - ----------------
#NOTES:
     dance-single:
     :
     Hard:
     13:
     0.669,0.707,0.271,0.298,0.954: // measure 1
1002
0000
0000
0000
0000
0000
0000
0000
0000
1003
0001
1000
,  // measure 2
0001
0000
0000
0010
0000
0000
0100
0000
0100
0000
1000
0001
,  // measure 3
2000
0000
0000
0000
0000
0000
0000
0000
0000
3001
1000
0001
,  // measure 4
1000
0000
0000
0100
0000
0000
0010
0000
0000
0001
1000
0010
,  // measure 5
1000
0000
0000
0001
0000
0100
0001
0000
0000
1000
0000
0100
,  // measure 6
2000
0001
0100
3001
,  // measure 7
1001
0000
0000
0000
1000
0010
1000
0000
0100
0000
0010
0000
,  // measure 8
0012
0000
0000
0000
0000
0000
1003
0000
0000
0001
1000
0001
,  // measure 9
1000
0000
0000
0010
0000
1000
0001
0000
0000
0010
0001
0010
,  // measure 10
0100
1100
1000
1010
,  // measure 11
2001
0000
0000
0000
0000
0000
3001
0000
0010
0000
0100
0000
,  // measure 12
1000
0010
1000
0010
1000
0010
1000
0001
1000
0001
1000
0001
,  // measure 13
1000
0200
0320
0032
,  // measure 14
1003
0000
0000
0001
0000
0001
0100
0000
0000
0010
0000
0010
,  // measure 15
1000
0000
1000
0001
0000
0001
0010
0000
0010
0100
0000
0100
,  // measure 16
1000
0000
0000
0010
0000
0010
0100
0000
0000
0001
0010
0001
,  // measure 17
1000
0000
0000
0100
0000
0100
1000
0000
0000
0001
0100
0001
,  // measure 18
1000
0000
0000
0010
0000
0010
1000
0000
0000
0100
0000
0100
,  // measure 19
0010
0000
0010
0001
0000
0001
0100
0000
0100
0010
0000
0010
,  // measure 20
2000
0000
0000
0000
0000
0000
3001
0000
0010
0000
0100
0000
,  // measure 21
1000
0000
0001
1000
0000
0000
0010
1000
0010
1000
0001
0010
,  // measure 22
0001
0000
0000
0010
0000
0010
0001
0000
0000
0100
0010
1000
,  // measure 23
0100
0000
0000
1000
0000
1000
0010
0000
0010
0100
0000
0100
,  // measure 24
0002
0000
0000
0000
0000
0000
1003
0000
0100
0000
0010
0000
,  // measure 25
0002
0000
0000
0100
0000
0000
0103
0000
0000
0010
0100
0001
,  // measure 26
0010
0000
0000
0001
0000
0001
1000
0000
0000
0010
0000
0010
,  // measure 27
1000
0000
1000
0100
0000
0100
0010
0000
0010
0001
0000
0001
,  // measure 28
2000
0000
0000
0000
0000
0000
3001
0000
0010
0000
0100
0000
,  // measure 29
1000
0001
1000
0001
1000
0001
1000
0010
1000
0010
1000
0010
,  // measure 30
2000
0000
0000
0001
0000
0000
0100
0000
0000
3001
0000
1000
,  // measure 31
0010
0000
0010
0100
0000
0100
0001
1000
0100
0010
0000
0000
,  // measure 32
0002
0000
0000
1000
0000
0000
0010
0000
0000
1003
0000
0001
,  // measure 33
0100
0000
0100
0010
0000
0010
1000
0000
1000
0001
0010
0100
,  // measure 34
2000
0000
0000
0001
0000
0000
0010
0000
0000
3001
1000
0100
,  // measure 35
0020
0000
0000
0001
0000
0000
0031
0000
0001
0000
0100
0010
,  // measure 36
0200
0000
0000
0001
0000
0000
0010
0000
0000
0301
0000
0100
,  // measure 37
0010
0000
0010
1000
0000
1000
0100
1000
0001
0010
0001
0010
,  // measure 38
0100
0000
0000
1001
0000
0000
1100
0000
0110
0000
0011
0000
,  // measure 39
2002
0000
0000
0000
0000
0000
0000
0000
0000
3003
0000
0000
0101
0000
0000
0000
0110
0000
0000
0000
1010
0000
0000
0000
,  // measure 40
2002
0000
0000
0000
0000
0000
3003
0000
0000
0001
0100
0010
,  // measure 41
1000
0000
1000
0001
0000
0001
0010
0000
0010
0100
0010
0100
,  // measure 42
2000
0000
0000
0001
0000
0000
3001
0000
1000
0000
0010
0000
,  // measure 43
0200
0001
0010
0301
,  // measure 44
2001
0000
0000
0100
0000
0000
3001
0100
0001
1000
0100
1000
,  // measure 45
0001
0010
0100
0010
0001
1000
0100
0010
0001
0100
0010
0100
,  // measure 46
0001
0000
0000
1000
0000
1000
0010
0000
0000
0100
0001
0010
,  // measure 47
0100
0000
0000
1000
0000
1000
0100
0000
0000
0010
0001
0100
,  // measure 48
0010
0000
0000
1000
0000
1000
0010
0000
0000
0100
0001
0010
,  // measure 49
0200
0000
0000
0000
0000
0000
1300
0000
0000
0100
1000
0010
,  // measure 50
0100
0000
0000
0001
0000
0001
1000
0000
0000
0010
0000
0010
,  // measure 51
0100
0000
0100
0001
0000
0001
1000
0000
1000
0010
0000
0000
,  // measure 52
2001
0000
0000
0000
0000
0000
3010
0000
0000
0100
0001
1000
,  // measure 53
0100
0000
0000
1000
0000
1000
0001
0010
0001
0010
0100
1000
,  // measure 54
0010
0000
0000
1000
0000
1000
0100
0000
0000
0010
0001
0100
,  // measure 55
0020
0100
0230
0001
,  // measure 56
0301
0000
0001
0000
1000
0100
1000
0000
1100
0000
0110
0000
,  // measure 57
0012
0000
0000
0000
0000
0000
1003
0000
0000
0001
0100
0010
,  // measure 58
1000
0000
0000
0001
0000
0001
1000
0000
1000
0010
0100
0001
,  // measure 59
0010
0000
0010
0100
0000
0100
1000
0000
1000
0001
0000
0000
,  // measure 60
2001
0000
0000
0000
0000
0000
3001
0100
0001
0100
0010
1000
,  // measure 61
0001
0010
0001
0010
0100
0010
0100
1000
0100
1000
0001
1000
,  // measure 62
0001
1000
0000
1010
0000
0010
0100
0010
0000
0110
0000
0100
,  // measure 63
0001
0100
0000
0101
0000
0001
1000
0010
0001
0010
1000
0001
,  // measure 64
0010
0001
0000
0011
0000
0010
0100
0010
0000
0110
0000
0100
,  // measure 65
1000
0100
0000
1100
0000
1000
0010
0001
0010
1000
0001
1000
,  // measure 66
0010
1000
0000
1010
0000
0010
0100
0010
0000
0110
0000
0100
,  // measure 67
0001
0100
0000
0101
0000
0001
0010
1000
0010
0001
0100
0001
,  // measure 68
1000
0020
0230
0302
,  // measure 69
1003
0000
0000
0000
;

//---------------dance-single - ----------------
#NOTES:
     dance-single:
     :
     Beginner:
     2:
     0.112,0.154,0.136,0.000,0.000:
1000
0000
0000
0000
,
1000
0000
0000
0000
,
0001
0000
0000
0000
,
0001
0000
0000
0000
,
1001
0000
0000
0000
,
0001
0000
0000
0000
,
1000
0000
0000
0000
,
1000
0000
0000
0000
,
0001
0000
0000
0000
,
0100
0000
0000
0000
,
0010
0000
0000
0000
,
0100
0000
0000
0000
,
1001
0000
0000
0000
,
0001
0000
0000
0000
,
0001
0000
0000
0000
,
1000
0000
0000
0000
,
1000
0000
0000
0000
,
0001
0000
0000
0000
,
0001
0000
0000
0000
,
0100
0000
0000
0000
,
0010
0000
0000
0000
,
1000
0000
0000
0000
,
1000
0000
0000
0000
,
0001
0000
0000
0000
,
0001
0000
0000
0000
,
1001
0000
0000
0000
,
1000
0000
0000
0000
,
0001
0000
0000
0000
,
1000
0000
0000
0000
,
1001
0000
0000
0000
,
0010
0000
0000
0000
,
0010
0000
0000
0000
,
0010
0000
0000
0000
,
1001
0000
0000
0000
,
0100
0000
0000
0000
,
0100
0000
0000
0000
,
0100
0000
0000
0000
,
0001
0000
0000
0000
,
1000
0000
0000
0000
,
0001
0000
0000
0000
,
0001
0000
0000
0000
,
1001
0000
0000
0000
,
1000
0000
0000
0000
,
0001
0000
0000
0000
,
1000
0000
0000
0000
,
1001
0000
0000
0000
,
1000
0000
0000
0000
,
1001
0000
0000
0000
,
0001
0000
0000
0000
,
0110
0000
0000
0000
,
0010
0000
0000
0000
,
0100
0000
0000
0000
,
0010
0000
0000
0000
,
1001
0000
0000
0000
,
0001
0000
0000
0000
,
1000
0000
0000
0000
,
0001
0000
0000
0000
,
0110
0000
0000
0000
,
0100
0000
0000
0000
,
0010
0000
0000
0000
,
0100
0000
0000
0000
,
1001
0000
0001
0000
,
0001
0000
0000
0000
,
1001
0000
1000
0000
,
1000
0000
0000
0000
,
1001
0000
0001
0000
,
0001
0000
0000
0000
,
1001
0000
0000
0000
,
1000
0000
0000
0000
;
