#TITLE:Take It Easy;
#SUBTITLE:;
#ARTIST:Aya;
#TITLETRANSLIT:;
#SUBTITLETRANSLIT:;
#ARTISTTRANSLIT:;
#CREDIT:DigiMindAxel;
#BANNER:Take It Easy.png;
#BACKGROUND:Take It Easy-bg.png;
#LYRICSPATH:;
#CDTITLE:beatmania IIDX.png;
#MUSIC:Take It Easy.ogg;
#METERTYPE:DDR X;
#OFFSET:-10.939;
#SAMPLESTART:20.277;
#SAMPLELENGTH:12.000;
#SELECTABLE:YES;
#BPMS:0.000=205.000;
#STOPS:;
#BGCHANGES:;

//---------------dance-single - ----------------
#NOTES:
     dance-single:
     :
     Easy:
     3:
     0.184,0.269,0.063,0.079,0.000:
0001
0000
1000
0000
,
0002
0000
0000
0000
,
1003
0000
0100
0000
,
2000
0000
0000
0000
,
3001
0000
0010
0000
,
0002
0000
0000
0000
,
0103
0000
0010
0000
,
0100
0000
0000
0000
,
1001
0000
1000
0000
,
1001
0000
0000
0000
,
0110
0000
0010
0000
,
0110
0000
0000
0000
,
1001
0000
0001
0000
,
1001
0000
0000
0000
,
0110
0000
0100
0000
,
0110
0000
0000
0000
,
1000
0000
0001
0000
,
1000
0000
0000
0000
,
0100
0000
1000
0000
,
0020
0000
0000
0000
,
0130
0000
0001
0000
,
0010
0000
0000
0000
,
0001
0000
1000
0000
,
0002
0000
0000
0000
,
2003
0000
0000
0000
,
3000
0000
0000
0000
,
0200
0000
0000
0000
,
0300
0000
0000
0000
,
0020
0000
0000
0000
,
0030
0000
0000
0000
,
0002
0000
0000
0000
,
0003
0000
0000
0000
,
1000
0000
0001
0000
,
0100
0000
0000
0000
,
0001
0000
1000
0000
,
0100
0000
0000
0000
,
0010
0000
0001
0000
,
0100
0000
0000
0000
,
0010
0000
1000
0000
,
0001
0000
0000
0000
,
0010
0000
0000
0000
,
0000
0000
0000
0000
,
0100
0000
0000
0000
,
0000
0000
0000
0000
,
0010
0000
0000
0000
,
0000
0000
0000
0000
,
0001
0000
0000
0000
,
0000
0000
0000
0000
,
1000
0000
0001
0000
,
0100
0000
0001
0000
,
1000
0000
0100
0000
,
0010
0000
0001
0000
,
1000
0000
0010
0000
,
0100
0000
0010
0000
,
1000
0000
0100
0000
,
0010
0000
0000
0000
,
0001
0000
1000
0000
,
0100
0000
1000
0000
,
0001
0000
0010
0000
,
0100
0000
1000
0000
,
0001
0000
0100
0000
,
0010
0000
0100
0000
,
0001
0000
0010
0000
,
0100
0000
0000
0000
,
1000
0000
0100
0000
,
1000
0000
0010
0000
,
1000
0000
0100
0000
,
1000
0000
0000
0000
,
0010
0000
0100
0000
,
0001
0000
0010
0000
,
0001
0000
0100
0000
,
0010
0000
0000
0000
,
1000
0000
0001
0000
,
0100
0000
0010
0000
,
1000
0000
0010
0000
,
0100
0000
0000
0000
,
0001
0000
1000
0000
,
0100
0000
0010
0000
,
0001
0000
0010
0000
,
0100
0000
0000
0000
,
1000
0000
0100
0000
,
1000
0000
0010
0000
,
0100
0000
0001
0000
,
0010
0000
0001
0000
,
0100
0000
0010
0000
,
1000
0000
0100
0000
,
1000
0000
0001
0000
,
1000
0000
0001
0000
,
0100
0000
0100
0000
,
0010
0000
0010
0000
,
0100
0000
0100
0000
,
0001
0000
0001
0000
,
1000
0000
1000
0000
,
0001
0000
0100
0000
,
0010
0000
1000
0000
,
0200
0000
0000
0000
,
0000
0000
0000
0000
,
0300
0000
0000
0000
;

//---------------dance-single - ----------------
#NOTES:
     dance-single:
     :
     Medium:
     8:
     0.382,0.423,0.166,0.103,0.028:
0001
0100
0001
0010
,
0100
1000
0001
0000
,
1000
0010
1000
0100
,
0010
0001
1000
0000
,
0001
0100
0010
1000
,
0100
0010
0001
0000
,
1000
0010
0100
0001
,
0010
0000
0000
0000
,
1001
0001
1000
0001
,
0010
0100
0010
0000
,
0001
1000
0001
0100
,
0010
0010
0000
0000
,
1000
0001
1000
0100
,
0010
0001
1000
0000
,
0010
0100
0010
2000
,
0000
0000
3001
0000
,
1000
0100
0010
0100
,
1000
0100
0000
0010
,
0001
0010
0100
0010
,
0002
0000
0000
0003
,
1000
0010
0100
0010
,
1000
0100
0000
0010
,
0001
0010
0100
1000
,
0002
0000
0000
0000
,
1003
0000
0000
0010
0000
0000
0100
0000
,
0000
0110
0000
0000
,
0001
0000
0000
0010
0000
0000
0001
0000
,
0000
1001
0000
0000
,
0100
0000
0000
0010
0000
0000
1000
0000
,
0000
1001
0000
0000
,
1000
0000
0000
0100
0000
0000
1000
0000
,
0000
0000
0001
0000
0000
0001
0000
0000
,
1100
0100
1100
0000
,
0010
0100
0110
0000
,
1100
0100
1100
0000
,
0010
0100
0110
0000
,
0101
0100
0101
0000
,
0100
0010
0110
0000
,
0101
0100
0101
0000
,
0100
0010
0110
0000
,
0200
0000
0000
0000
,
0000
0000
0000
0000
,
0320
0000
0000
0000
,
0000
0000
0000
0000
,
0230
0000
0000
0000
,
0000
0000
0000
0000
,
0000
0000
0000
0000
,
0310
0100
0010
0000
,
1001
0000
0000
1000
0000
0000
0001
0000
,
0000
0010
0000
0000
0100
0000
0000
0000
,
1001
0000
0000
0001
0000
0000
1000
0000
,
0000
0100
0000
0000
0010
0000
0000
0000
,
0001
0100
0001
0100
,
0010
1000
0100
1000
,
0100
1000
0100
1000
,
0200
0000
0000
0300
,
1001
0001
1000
0001
,
0010
0100
1000
0001
,
0100
0000
0000
0000
0000
0000
0000
0000
0010
0000
0000
0000
0100
0000
0000
0000
0000
0000
0000
0000
0000
0001
0000
0000
,
0000
1000
0002
0000
0000
0000
0000
0000
,
0103
0000
0000
0000
0001
0000
0010
0000
0000
0000
0100
0000
,
0010
0000
0000
0000
0001
0000
1000
0000
0000
0000
0100
0000
,
0010
0000
0000
0000
0100
0000
1000
0000
0000
0000
0010
0000
,
0200
0000
0000
0300
,
0001
0000
0100
0000
0001
0000
1000
0100
,
1000
0010
0100
0000
,
0001
0000
1000
0000
0100
1000
0100
0000
,
0010
0001
0010
0001
,
1000
0100
1000
0010
,
0100
0001
0100
0000
0001
0000
1000
0000
,
0010
0000
0100
0000
0001
0000
1000
0001
,
0000
2000
0000
0000
0000
3001
0000
0000
,
1000
0000
0100
0000
1000
0001
1000
0000
,
0001
0100
0000
0001
,
1000
0100
1000
0000
0010
0000
0100
0000
,
0002
0000
0000
0000
,
1003
0000
0010
0100
0010
0000
1000
0000
,
0001
0100
0001
0000
1000
0000
0100
0000
,
1000
0000
0010
0000
0100
0000
0001
1000
,
0000
0002
0000
0000
0000
0000
0000
0000
,
1003
0000
0001
0000
0100
0001
0000
1000
,
0000
0100
0000
1000
0010
0000
0100
0000
,
0000
0000
0001
0000
1000
0001
0000
0100
,
0000
0001
1000
0000
0000
0010
0000
0100
,
0000
0000
0001
0000
1000
0001
0000
0010
,
0000
0001
0000
0100
0010
0000
1000
0000
,
0001
0000
0010
0001
0000
0000
1000
0000
,
0100
1000
0000
0001
0000
1001
0000
0000
,
1001
0000
0001
0000
0100
0000
0001
1000
,
0000
0010
0000
1000
0001
0000
0010
0000
,
0100
0000
0010
0000
0001
0000
1000
0001
,
0000
0010
0000
0001
1000
0000
0010
0000
,
0100
0000
0010
0000
1000
0100
0000
1000
,
0100
0000
0010
0001
0000
0010
0001
0000
,
1000
0000
0001
0100
0000
0001
0100
0000
,
0000
0010
0000
0100
0020
0000
0000
0000
,
0000
0000
0000
0000
,
0030
0000
0000
0000
;

//---------------dance-single - ----------------
#NOTES:
     dance-single:
     :
     Hard:
     12:
     0.643,0.653,0.309,0.230,0.091: // measure 1
1000
0000
0001
0000
0100
0001
0000
1000
,  // measure 2
0000
1000
0000
0010
0100
0000
0001
0000
,  // measure 3
0000
0010
0100
0010
0100
0000
1000
0001
,  // measure 4
0000
0001
0000
0010
0001
0000
0100
0000
,  // measure 5
0000
0010
0100
0010
0100
0000
0010
1000
,  // measure 6
0000
1000
0000
0100
0010
0000
0001
0000
,  // measure 7
0000
0000
0101
0000
0000
0110
0000
0000
,  // measure 8
1020
0000
0000
0100
0000
0130
0000
0000
,  // measure 9
1001
0000
0001
0100
0001
0000
0001
0100
,  // measure 10
0001
0010
0100
1000
0000
1000
0001
0100
,  // measure 11
0001
0000
0001
0100
0001
0010
0100
1000
,  // measure 12
0000
2002
0000
0000
3003
0000
0000
0000
,  // measure 13
0001
0000
1000
0010
1000
0000
1000
0010
,  // measure 14
1000
0100
0010
0001
0000
0001
1000
0010
,  // measure 15
1000
0000
1000
0010
1000
0100
0010
0002
,  // measure 16
0000
0000
0000
0003
1000
0100
0010
0001
,  // measure 17
1000
0000
0001
0010
0001
0000
0001
0010
,  // measure 18
0001
1000
0010
0100
0000
0100
0010
1000
,  // measure 19
0001
0000
0001
0010
0001
1000
0010
0100
,  // measure 20
0000
0001
0000
0000
0010
0000
0000
0100
0000
0000
1000
0000
0000
0001
0000
0000
,  // measure 21
1000
0000
0010
0100
0010
0000
0010
0100
,  // measure 22
0001
0010
0100
1000
0000
1000
0001
1000
,  // measure 23
0010
0000
0010
0100
0010
1000
0100
0020
,  // measure 24
0000
0000
0000
0030
,  // measure 25
1001
0000
0000
1100
0000
0000
0011
0000
,  // measure 26
0000
2002
0000
3003
,  // measure 27
1001
0000
0000
0101
0000
0000
1010
0000
,  // measure 28
0000
2002
0000
3003
,  // measure 29
0110
0000
0000
0101
0000
0000
0110
0000
,  // measure 30
0000
2002
0000
3003
,  // measure 31
0110
0000
0000
1010
0000
0000
0110
0000
,  // measure 32
1001
0000
1000
0000
0000
1000
0000
0000
,  // measure 33
1001
0000
1000
0000
0110
0000
0000
0010
,  // measure 34
0100
0000
0001
0000
0001
1000
0001
1000
,  // measure 35
0100
0000
0010
0000
0110
0000
0000
0100
,  // measure 36
0010
0000
0001
0000
1000
0001
1000
0001
,  // measure 37
0100
0000
0010
0000
1010
0000
0000
1000
,  // measure 38
0001
0000
0010
0000
0100
0010
0100
0010
,  // measure 39
0001
0000
0010
0000
0011
0000
0000
0001
,  // measure 40
1000
0000
0010
0000
0100
0010
0100
0000
,  // measure 41
0002
0100
0100
0100
,  // measure 42
0100
0100
0100
0103
,  // measure 43
2000
0100
0100
0100
,  // measure 44
0100
0100
0100
3100
,  // measure 45
0002
1000
1000
1000
,  // measure 46
1000
1000
1000
1000
,  // measure 47
1000
1000
1000
1000
,  // measure 48
1003
0001
1000
0000
0010
0110
0000
0000
,  // measure 49
1001
0000
0000
1000
0010
1000
0002
0000
0000
0100
0000
0000
,  // measure 50
0000
0100
0000
0000
0103
0001
0010
0100
,  // measure 51
0000
1000
0001
0100
0001
0100
0010
1000
,  // measure 52
0000
0001
0000
0000
1001
0000
0000
0000
,  // measure 53
1000
0001
0100
0001
0100
0010
1000
0010
,  // measure 54
1000
0100
0010
0100
1000
0100
0010
0100
,  // measure 55
1000
0100
0001
0100
1000
0001
0100
0002
,  // measure 56
1000
1000
1000
1003
,  // measure 57
0001
1000
0010
1000
0010
0100
0001
0010
,  // measure 58
0100
0010
0001
0010
0100
0010
0001
1000
,  // measure 59
0010
0000
0000
0000
0000
0000
0100
0000
0001
0000
0100
0000
0001
0000
0000
1000
0000
0000
0000
0000
0000
0001
0000
0000
,  // measure 60
0000
1000
0020
0000
0100
0000
0000
0000
,  // measure 61
0130
0000
0000
0000
0001
0000
0100
0000
0100
0000
0010
0000
,  // measure 62
1000
0000
1000
0000
0100
0000
0010
0000
0010
0000
0001
0000
,  // measure 63
1000
0000
1000
0000
0010
0000
0100
0000
0100
0000
0001
0000
,  // measure 64
2000
0000
0001
0001
,  // measure 65
3001
0010
0100
0010
0001
0010
0100
0010
,  // measure 66
0001
1000
0010
1000
0000
0010
0100
0001
,  // measure 67
1000
0100
0010
0100
1000
0100
0010
0200
,  // measure 68
0000
1000
0000
1300
,  // measure 69
0001
0100
0010
0100
0001
0100
0010
0100
,  // measure 70
0001
1000
0100
0010
0000
0001
0010
0001
,  // measure 71
1000
0010
0100
0010
1000
0010
0100
0010
,  // measure 72
0000
2002
0000
0000
0000
3003
0000
0000
,  // measure 73
0001
1000
0100
1000
0001
1000
0100
1000
,  // measure 74
0001
0100
0010
1000
0000
0100
0010
0100
,  // measure 75
1000
0001
0100
0001
1000
0001
0100
0001
,  // measure 76
0000
1000
0000
0000
0100
0000
0000
0010
0000
0000
0001
0000
0000
1000
0000
0000
,  // measure 77
0001
1000
0010
1000
0001
1000
0010
1000
,  // measure 78
0001
1000
0100
0010
0000
0100
1000
0001
,  // measure 79
0100
0000
0101
0000
1001
0000
1000
0001
,  // measure 80
0000
1000
0010
0001
0010
1000
0100
0010
,  // measure 81
0001
1000
0100
1000
0001
0000
1000
0010
,  // measure 82
0000
0001
0000
0010
1000
0100
0010
0001
,  // measure 83
1000
0001
0100
0001
1000
0000
0001
0100
,  // measure 84
0000
0001
2000
0000
0000
3001
0000
1001
,  // measure 85
0000
1000
0001
0010
0001
0000
1000
0100
,  // measure 86
0000
0001
0000
0100
1000
0001
0010
0000
,  // measure 87
0012
0000
1000
1003
0000
0000
2100
0000
,  // measure 88
0001
3001
0000
0101
0000
0101
0000
0000
,  // measure 89
1001
0000
0000
1000
0010
1000
0002
0000
0000
1000
0000
0000
,  // measure 90
1003
0001
0100
1000
0100
0001
1000
0020
,  // measure 91
0000
0000
0130
0001
2000
0000
0000
3001
,  // measure 92
1000
0010
0001
0010
1000
0100
0010
0200
,  // measure 93
0000
0000
1300
0000
0010
0100
0000
0100
,  // measure 94
0001
0000
0010
0100
0000
0100
1000
0000
,  // measure 95
0001
0000
0101
0000
0100
0010
1000
0100
,  // measure 96
0000
1000
0100
0010
0002
0000
0000
0000
,  // measure 97
0000
0000
0000
0000
,  // measure 98
0003
0000
0000
0000
;

//---------------dance-single - ----------------
#NOTES:
     dance-single:
     :
     Beginner:
     2:
     0.091,0.150,0.024,0.000,0.000:
1000
0000
0000
0000
,
0001
0000
0000
0000
,
1000
0000
0000
0000
,
1000
0000
0000
0000
,
0001
0000
0000
0000
,
1000
0000
0000
0000
,
0001
0000
0000
0000
,
0001
0000
0000
0000
,
0100
0000
0000
0000
,
0000
0000
0000
0000
,
0010
0000
0000
0000
,
0000
0000
0000
0000
,
0100
0000
0000
0000
,
0000
0000
0000
0000
,
0010
0000
0000
0000
,
0000
0000
0000
0000
,
1000
0000
0000
0000
,
0000
0000
0000
0000
,
0001
0000
0000
0000
,
0000
0000
0000
0000
,
1000
0000
0000
0000
,
0000
0000
0000
0000
,
0001
0000
0000
0000
,
0000
0000
0000
0000
,
0100
0000
0000
0000
,
0000
0000
0000
0000
,
0100
0000
0000
0000
,
0000
0000
0000
0000
,
0100
0000
0000
0000
,
0000
0000
0000
0000
,
0100
0000
0000
0000
,
0110
0000
0000
0000
,
1000
0000
0000
0000
,
0001
0000
0000
0000
,
1000
0000
0000
0000
,
1000
0000
0000
0000
,
0001
0000
0000
0000
,
1000
0000
0000
0000
,
0001
0000
0000
0000
,
0001
0000
0000
0000
,
0100
0000
0000
0000
,
0000
0000
0000
0000
,
0100
0000
0000
0000
,
0000
0000
0000
0000
,
0100
0000
0000
0000
,
0000
0000
0000
0000
,
0000
0000
0000
0000
,
0000
0000
0000
0000
,
1001
0000
0000
0000
,
0001
0000
0000
0000
,
1000
0000
0000
0000
,
0001
0000
0000
0000
,
0010
0000
0000
0000
,
0100
0000
0000
0000
,
0010
0000
0000
0000
,
0100
0000
0000
0000
,
1000
0000
0000
0000
,
0001
0000
0000
0000
,
1000
0000
0000
0000
,
0001
0000
0000
0000
,
1000
0000
0000
0000
,
0100
0000
0000
0000
,
0010
0000
0000
0000
,
0001
0000
0000
0000
,
1000
0000
0000
0000
,
1000
0000
0000
0000
,
0001
0000
0000
0000
,
0001
0000
0000
0000
,
1000
0000
0000
0000
,
1000
0000
0000
0000
,
0001
0000
0000
0000
,
0001
0000
0000
0000
,
0010
0000
0000
0000
,
0100
0000
0000
0000
,
0010
0000
0000
0000
,
0100
0000
0000
0000
,
1000
0000
0000
0000
,
0001
0000
0000
0000
,
1000
0000
0000
0000
,
0000
0000
0000
0000
,
0110
0000
0000
0000
,
0000
0000
0000
0000
,
0010
0000
0000
0000
,
0000
0000
0000
0000
,
0100
0000
0000
0000
,
0001
0000
0000
0000
,
1000
0000
0000
0000
,
0001
0000
0000
0000
,
0010
0000
0000
0000
,
0100
0000
0000
0000
,
1000
0000
0000
0000
,
0010
0000
0000
0000
,
0100
0000
0000
0000
,
0001
0000
0000
0000
,
1000
0000
0000
0000
,
0010
0000
0000
0000
;
