#TITLE:チュベローズ;
#SUBTITLE:;
#ARTIST:good-cool feat. 藤野マナミ;
#TITLETRANSLIT:TUBEROSE;
#SUBTITLETRANSLIT:;
#ARTISTTRANSLIT:good-cool feat. MANAMI FUJINO;
#CREDIT:DigiMindAxel;
#BANNER:TUBEROSE.png;
#BACKGROUND:TUBEROSE-bg.png;
#LYRICSPATH:;
#CDTITLE:DigiMindAxel original simfile.png;
#MUSIC:TUBEROSE.ogg;
#METERTYPE:DDR X;
#OFFSET:-8.584;
#SAMPLESTART:60.226;
#SAMPLELENGTH:12.000;
#SELECTABLE:YES;
#BPMS:0.000=130.000;
#STOPS:;
#BGCHANGES:;

//---------------dance-single - ----------------
#NOTES:
     dance-single:
     :
     Easy:
     3:
     0.183,0.218,0.046,0.174,0.000:
2000
0000
3200
0000
,
1300
0000
0010
0010
,
0200
0000
0302
0000
,
0103
0000
0001
1000
,
1001
0000
0000
0000
,
0001
0000
0000
0000
,
0010
0000
0000
0000
,
0001
0000
0100
0000
,
0010
0000
0000
0000
,
1000
0000
0100
0000
,
0010
0000
0000
0000
,
0001
0000
1000
0000
,
0002
0000
0103
0000
,
0010
0000
1000
0000
,
0200
0000
0310
0000
,
0001
0000
1000
0000
,
0200
0000
1300
0000
,
0010
0000
0100
0000
,
0002
0000
1003
0000
,
0001
0000
0100
0000
,
1001
0000
0001
0000
,
1000
0000
0100
1000
,
0100
0000
0010
0000
,
0001
0000
1000
0001
,
2000
0000
0000
3000
,
0200
0000
0000
0300
,
0010
0001
0010
0001
,
2000
0000
3000
0000
,
0001
1000
0001
0010
,
0100
0000
1000
0000
,
0001
1000
0001
0010
,
0100
0000
1000
0000
,
0002
0000
0100
0000
,
0203
0000
0010
0000
,
0320
0000
0000
0000
,
1030
0100
1000
0001
,
1000
0100
0010
0001
,
1000
0000
0000
0000
,
0001
0010
0100
1000
,
0001
0000
0000
0000
,
2000
0000
3020
0000
,
0230
0000
0302
0000
,
2003
0000
0000
0000
,
3001
0000
0000
0000
,
1000
1000
1000
0000
,
0100
0100
0100
0000
,
1000
1000
1000
0000
,
0001
0001
0001
0000
,
0100
0100
0100
0000
,
0010
0010
0010
0000
,
0100
0100
0100
0000
,
1001
0000
0001
0000
,
0000
0000
0000
0000
1001
0000
0000
1001
;

//---------------dance-single - ----------------
#NOTES:
     dance-single:
     :
     Medium:
     7:
     0.376,0.363,0.375,0.055,0.009:
1001
0000
1000
0000
0100
1000
0100
0000
,
0010
0000
0001
0000
0100
0100
0100
0000
,
0001
0000
1000
0000
0100
0010
0100
0000
,
1000
0000
0010
0000
0100
0100
0100
0000
,
1001
0010
0100
0000
,
1000
0000
0010
0000
0100
0001
1000
0000
,
0100
0010
0001
0000
,
0010
0001
1000
0000
0010
0010
0010
0000
,
1000
0000
0100
0000
0010
0100
1000
0000
,
0000
0000
0010
0000
0100
0001
0010
0000
,
0100
0010
0001
1000
,
0010
1000
0010
1000
0001
0010
0001
0000
,
1001
0100
0010
0001
,
1000
0010
0100
0000
0001
0001
0001
0000
,
0010
0000
0100
0000
0010
0001
0010
0000
,
0100
0000
1000
0000
0010
0010
0010
0000
,
0100
0000
0001
0000
0010
0100
0010
0000
,
0001
0000
1000
0000
0010
0010
0010
0000
,
0100
0001
0010
0100
,
1000
0001
1000
0001
0100
0001
0100
0000
,
1001
0100
0010
0001
,
0101
0000
0010
0000
0100
1000
0001
0000
,
1001
0000
0100
0000
0010
0000
0001
1000
,
0010
0000
0100
0000
0001
0010
0100
0000
,
1100
0010
0001
1000
,
0110
0001
0010
0100
,
1001
0010
1001
0010
,
0220
0000
0330
0000
,
1100
1100
0110
0110
,
0011
0000
0000
0000
0001
1000
0001
0000
,
0011
0011
0110
0110
,
1100
0000
0000
0000
1000
0001
1000
0000
,
1100
0000
1100
0000
0010
0001
0100
0000
,
0101
0000
0101
0000
0010
1000
0001
0000
,
0020
0001
0032
0000
,
1003
0010
1000
0000
0001
1000
0100
1000
,
0001
0101
0110
1010
,
1001
0000
0000
0000
1000
0100
0010
0000
,
0101
0101
0110
1010
,
1001
0000
0000
0000
1000
0100
0010
0000
,
0101
0000
0101
0000
0010
1000
0001
0000
,
1001
0000
1001
0000
1000
0100
0010
0000
,
0001
0100
0001
0000
0100
0010
1000
0000
,
2002
0000
0000
3003
,
1000
1000
0100
0100
1000
0000
0000
0000
,
0001
0001
0100
0100
0001
0000
0000
0000
,
1000
1000
0100
0100
1000
0000
0000
0000
,
0001
0001
0100
0100
0001
0000
0000
0000
,
0010
0010
0100
0100
0010
0000
0000
0000
,
0001
0001
0100
0100
0010
0000
0000
0000
,
1000
1000
0100
0100
0010
0000
0000
0000
,
1001
0000
0000
0000
0000
0000
0000
0000
0001
0000
0000
0010
0000
0000
0001
0000
,
0000
0000
0000
0000
0000
0000
0000
0000
0100
0000
0000
0010
0000
0000
1001
0000
;

//---------------dance-single - ----------------
#NOTES:
     dance-single:
     :
     Hard:
     10:
     0.513,0.517,0.137,0.256,0.242: // measure 1
1000
0000
0010
0000
0100
0000
0002
0000
0000
1000
0000
1000
0000
0000
1003
0000
,  // measure 2
0000
0001
0100
0001
1000
1000
1000
0000
,  // measure 3
0100
0000
0010
0000
0001
0000
2000
0000
0000
0010
0000
0010
0000
0000
3010
0000
,  // measure 4
0100
0000
0001
0000
0010
0000
0000
0100
0010
0000
0001
0000
1001
0000
0000
0000
,  // measure 5
2000
0000
3010
0100
0001
0010
0100
0020
,  // measure 6
0000
0000
0030
0000
0001
0001
1000
1000
,  // measure 7
0002
0000
0103
0010
0100
0001
1000
0200
,  // measure 8
0000
0000
0300
0000
0010
0010
0100
0100
,  // measure 9
0010
0001
1000
0010
0000
0100
0001
0020
,  // measure 10
0000
0000
0030
0000
0001
0001
1000
1000
,  // measure 11
0100
0010
0001
1000
0000
0010
0100
0001
,  // measure 12
1000
0010
0001
0010
1000
0100
0010
0001
,  // measure 13
1001
0000
1000
0010
0100
0010
1000
0002
,  // measure 14
0000
0000
0003
0000
0010
0010
0100
0100
,  // measure 15
1000
0001
0010
0100
0000
0010
0001
2000
,  // measure 16
0000
0000
3000
0000
0010
0010
0100
0100
,  // measure 17
0001
0000
0010
0100
1000
0001
1000
0010
,  // measure 18
2000
0000
0000
3000
0100
0100
0010
0010
,  // measure 19
0001
0010
0100
0000
0010
0001
0100
0010
,  // measure 20
1000
0100
0001
0100
1000
0001
0100
0001
,  // measure 21
1001
0000
1000
0100
1000
0001
0100
0010
,  // measure 22
2000
0000
0000
0000
0000
0000
0000
0000
3001
0010
0001
0000
1000
0100
1000
0000
,  // measure 23
0001
0010
0001
0100
0010
1000
0001
0020
,  // measure 24
0000
0000
0000
0000
0030
0000
0000
0000
0001
1000
0001
0000
0100
0010
0100
0000
,  // measure 25
0001
0010
0100
1000
0001
0100
0000
0100
,  // measure 26
0010
1000
0100
0010
0001
0100
0000
0000
,  // measure 27
0010
1000
0001
0010
0100
0000
1100
0000
,  // measure 28
0011
2002
0000
0000
0000
0000
3003
0000
,  // measure 29
1000
0000
0000
1000
0010
0000
0000
0010
0001
0000
0000
0001
0010
0000
0000
0010
,  // measure 30
1000
0000
0000
0000
0001
0010
1000
0010
,  // measure 31
0001
0000
0000
0001
0100
0000
0000
0100
1000
0000
0000
1000
0100
0000
0000
0100
,  // measure 32
0001
0000
0000
0000
1000
0100
0001
0100
,  // measure 33
2000
0000
3020
0000
0130
0001
0010
0100
,  // measure 34
2000
0000
3020
0000
0130
0001
0010
0100
,  // measure 35
1000
0000
0000
0100
0000
0000
0001
0000
0100
0000
1000
0000
0100
0000
0010
0000
,  // measure 36
0001
0000
0000
0010
0000
0000
1000
0000
0010
0000
0001
0000
1000
0000
0000
0000
,  // measure 37
1001
0000
0000
0001
0100
0000
0000
0100
1000
0000
0000
1000
0100
0000
0000
0100
,  // measure 38
0001
0000
0000
0000
1000
0010
0001
0010
,  // measure 39
1000
0000
0000
1000
0010
0000
0000
0010
0001
0000
0000
0001
0010
0000
0000
0010
,  // measure 40
1000
0000
0000
0000
0001
0100
1000
0100
,  // measure 41
0002
0000
0023
0000
0031
1000
0010
0100
,  // measure 42
0002
0000
0023
0000
0031
1000
0010
0100
,  // measure 43
0001
0100
0001
0000
0100
0000
0001
1000
0001
0000
0010
0000
0100
0000
1000
0000
,  // measure 44
2002
0000
0000
3003
,  // measure 45
0001
1000
0001
0000
1000
0100
1000
0100
1000
0000
0001
0000
0000
0000
0000
0000
,  // measure 46
1000
0001
1000
0000
0001
0100
0001
0100
0001
0000
1000
0000
0000
0000
0000
0000
,  // measure 47
0100
1000
0100
0000
0010
0100
0010
0100
0010
0000
0001
0000
0000
0000
0000
0000
,  // measure 48
0100
0001
0100
0000
0010
0100
0010
0100
0010
0000
1000
0000
0001
0000
0000
0000
,  // measure 49
0100
0001
0100
0000
0010
0100
0010
0100
0010
0000
1000
0000
0100
0000
0000
0000
,  // measure 50
0010
0001
0010
0000
0100
0010
0100
0010
0100
0000
1000
0000
0010
0000
0000
0000
,  // measure 51
0100
0010
0100
0000
0001
1000
0001
1000
0001
0000
0010
0000
0100
0000
0000
0000
,  // measure 52
2002
0000
0000
0000
3003
0000
1000
0100
0010
0000
0000
1001
0000
0000
0011
0000
,  // measure 53
0000
0000
0000
0000
1001
0000
0000
0000
1010
0000
0000
0110
0000
0000
0202
0000
,  // measure 54
0000
0000
0000
0000
0000
0000
0000
0303
;

//---------------dance-single - ----------------
#NOTES:
     dance-single:
     :
     Challenge:
     13:
     0.639,0.591,0.183,0.183,0.549: // measure 1
1001
0000
1000
0100
0000
0100
0010
0000
0000
0100
0000
0100
0010
0000
0001
0000
,  // measure 2
0000
0100
0000
0010
1000
0000
1000
0000
0100
0010
0100
0010
0100
0000
0000
0000
,  // measure 3
0010
0000
0001
0100
0000
0100
0010
0000
0000
0100
0000
0100
0010
0000
1000
0000
,  // measure 4
0001
1000
0001
1000
0001
0000
1000
0010
1000
0010
1000
0000
1001
0000
0000
0000
,  // measure 5
1001
0000
0000
0000
0001
0000
0000
0100
0010
0000
0100
0000
0000
0000
0100
0000
,  // measure 6
0000
0000
0010
0000
0010
0000
0000
1000
0001
0000
0010
0000
1000
0000
0010
0000
,  // measure 7
0001
0000
0000
0000
0001
0000
0000
0010
0100
0000
0010
0000
0000
0000
0010
0000
,  // measure 8
0000
0000
0001
0000
0001
0000
0000
1000
0001
0000
0100
0000
1000
0000
0100
0000
,  // measure 9
0001
0000
0000
0000
0001
0000
0000
0010
0100
0000
1000
0000
0000
0000
1000
0000
,  // measure 10
0000
0000
0010
0000
0010
0000
0000
0100
0001
0000
0010
0000
1000
0000
0010
0000
,  // measure 11
0001
0000
0000
0000
0001
0000
0000
0100
0010
0000
1000
0000
0000
0000
1000
0000
,  // measure 12
0001
0010
0001
0010
0001
0000
0010
0100
0010
0100
0010
0000
0001
0000
1000
0001
,  // measure 13
2000
0000
0000
0000
3100
0000
0000
0100
1000
0000
0001
0000
0000
0000
0200
0000
,  // measure 14
0000
0000
0001
0000
0301
0000
0000
1000
0100
0010
0100
0000
0010
0100
0010
0000
,  // measure 15
0002
0000
0000
0000
0103
0000
0000
0010
1000
0000
0100
0000
0000
0000
0020
0000
,  // measure 16
0000
0000
0001
0000
0031
0000
0000
0100
1000
0001
1000
0000
0001
1000
0001
0000
,  // measure 17
0020
0000
0000
0000
0130
0000
0000
1000
0010
0000
1000
0000
0000
0000
0020
0000
,  // measure 18
0000
0000
0100
0000
0130
0000
0000
0001
0100
0010
0100
0000
0010
0100
0010
0000
,  // measure 19
0002
0000
0000
0000
1003
0000
0000
0010
0100
0000
0002
0000
0000
0000
1000
0000
,  // measure 20
1003
0100
1000
0000
0001
0000
1000
0010
0000
0010
0100
0000
0001
0000
0010
0100
,  // measure 21
0010
0001
0100
1000
0100
0010
1000
0001
,  // measure 22
0100
0000
0001
0000
1000
0000
0000
0000
0001
0100
0002
0000
1003
0100
2000
0000
,  // measure 23
3001
1000
0010
0001
0010
0100
0001
1000
,  // measure 24
0010
0000
0100
0000
0010
0000
0000
0000
1000
0100
2000
0000
3001
0100
0002
0000
,  // measure 25
1003
0010
0001
0010
0100
0001
1000
0010
,  // measure 26
0100
0000
0010
0000
1000
0000
0000
0000
0001
0010
0002
0000
1003
0010
2000
0000
,  // measure 27
3001
0000
0100
0000
1000
0000
0100
0000
0001
1000
0001
0000
0100
0000
0010
1000
,  // measure 28
0002
0000
0000
0000
0000
0000
0000
0000
0103
0010
0200
0000
0000
0000
0300
0000
,  // measure 29
1001
0000
1000
0000
0100
0000
0010
0000
0001
1000
0010
0000
1000
0000
0000
0000
,  // measure 30
0001
0010
0001
0010
0001
0000
1000
0000
0010
0100
0001
0000
1000
0000
0000
0000
,  // measure 31
0100
1000
0100
1000
0100
0000
0010
0000
0001
1000
0100
0000
0010
0000
0000
0000
,  // measure 32
0001
1000
0001
1000
0001
0000
0010
0000
0100
1000
0010
0000
0100
0000
0001
1000
,  // measure 33
0001
0000
0010
0000
0100
0000
0000
0000
1000
0001
1000
0000
0100
0000
0010
0000
,  // measure 34
0001
0000
1000
0000
0010
0000
0000
0000
0100
0010
0100
0000
0001
0000
0010
0000
,  // measure 35
0100
0000
1000
0000
0010
0000
0000
0000
0100
0001
0100
0000
0010
0000
1000
0000
,  // measure 36
0100
0010
0100
0010
0100
0000
1000
0001
0100
0001
1000
0000
0001
0000
1000
0001
,  // measure 37
1000
0000
0100
0000
0010
0000
0000
0000
0001
1000
0001
0000
0100
0000
0010
0000
,  // measure 38
1000
0010
1000
0010
1000
0000
0001
0010
0100
0000
1000
0000
0010
0000
0000
0000
,  // measure 39
0100
0010
0100
0010
0100
0000
0001
1000
0100
0000
0010
0000
0001
0000
0000
0000
,  // measure 40
1000
0010
1000
0010
1000
0000
0001
0000
0010
0100
0010
0000
0001
0000
1000
0010
,  // measure 41
0100
0000
0001
0000
1000
0000
0100
0000
0010
0100
1000
0000
0001
0000
0000
0000
,  // measure 42
0100
0000
0010
0000
1000
0000
0100
0000
0010
0100
1000
0000
0001
0000
0000
0000
,  // measure 43
1000
0010
1000
0010
1000
0000
0001
0010
0100
0010
0001
0000
1000
0000
0100
0010
,  // measure 44
0200
0000
0000
1300
,  // measure 45
1010
0000
0000
0110
0000
0000
0100
0000
1001
0000
0000
0011
0000
0000
0100
0000
,  // measure 46
1001
0000
0000
1010
0000
0000
0100
0000
1001
0000
0000
0101
0000
0000
0010
0000
,  // measure 47
1001
0000
0000
1010
0000
0000
0010
0000
1001
0000
0000
0101
0000
0000
0100
0000
,  // measure 48
0001
1000
0001
1000
0001
0000
1000
0100
1000
0100
1000
0000
0010
0000
0100
0001
,  // measure 49
1000
0000
0001
0100
0000
0100
0001
0000
1000
0000
0100
0010
0000
0010
0001
0000
,  // measure 50
1000
0000
0010
1000
0000
1000
0010
0000
0100
0000
0001
1000
0000
1000
0100
0000
,  // measure 51
0010
0100
0010
0100
0010
0000
0001
1000
0001
1000
0001
0000
0100
0000
0010
1000
,  // measure 52
0002
0000
0000
0000
0003
0000
0010
0100
1000
0000
0000
1100
0000
0000
0011
0000
,  // measure 53
0000
0000
0100
0010
0100
0000
1000
0010
0100
0000
0000
0101
0000
0000
2020
0000
,  // measure 54
0000
0000
0000
0000
0000
0000
0000
3030
;

//---------------dance-single - ----------------
#NOTES:
     dance-single:
     :
     Beginner:
     1:
     0.077,0.144,0.146,0.000,0.000:
1000
0000
0000
0000
,
0000
0000
0000
0000
,
0100
0000
0000
0000
,
1000
0000
0000
0000
,
1001
0000
0000
0000
,
0000
0000
0000
0000
,
0001
0000
0000
0000
,
0000
0000
0000
0000
,
0010
0000
0000
0000
,
0000
0000
0000
0000
,
0001
0000
0000
0000
,
0100
0000
0100
0000
,
0110
0000
0000
0000
,
0000
0000
0000
0000
,
0010
0000
0000
0000
,
0000
0000
0000
0000
,
1000
0000
0000
0000
,
0000
0000
0000
0000
,
0001
0000
0000
0000
,
0100
0000
0100
0000
,
0110
0000
0000
0000
,
0000
0000
0000
0000
,
0010
0000
0000
0000
,
0000
0000
0000
0000
,
1000
0000
0000
0000
,
0001
0000
0000
0000
,
1000
0000
0000
0000
,
1001
0000
0000
0000
,
0001
0000
0000
0000
,
0000
0000
0000
0000
,
0010
0000
0000
0000
,
0000
0000
0000
0000
,
0100
0000
0000
0000
,
0100
0000
0000
0000
,
0010
0000
0000
0000
,
0010
0000
0000
0000
,
1001
0000
0000
0000
,
0001
0000
0000
0000
,
1000
0000
0000
0000
,
0100
0000
0000
0000
,
1001
0000
0000
0000
,
0000
0000
0000
0000
,
1000
0000
0000
0000
,
0110
0000
0000
0000
,
1001
0000
0000
0000
,
1001
0000
0000
0000
,
1001
0000
0000
0000
,
1001
0000
0000
0000
,
0110
0000
0000
0000
,
0110
0000
0000
0000
,
0110
0000
0000
0000
,
0110
0000
0000
0000
,
0000
0000
1001
0000
;
