#TITLE:TORA TORA TORA;
#SUBTITLE:;
#ARTIST:DOMINO;
#TITLETRANSLIT:;
#SUBTITLETRANSLIT:;
#ARTISTTRANSLIT:;
#CREDIT:DigiMindAxel;
#BANNER:TORA TORA TORA.png;
#BACKGROUND:TORA TORA TORA-bg.png;
#LYRICSPATH:TORA TORA TORA.lrc;
#CDTITLE:SUPER EUROBEAT.png;
#MUSIC:TORA TORA TORA.ogg;
#METERTYPE:DDR X;
#OFFSET:-6.726;
#SAMPLESTART:45.601;
#SAMPLELENGTH:12.000;
#SELECTABLE:YES;
#BPMS:0.000=148.000;
#STOPS:;
#BGCHANGES:;

//---------------dance-single - ----------------
#NOTES:
     dance-single:
     :
     Easy:
     5:
     0.259,0.253,0.013,0.000,0.000:
1000
0100
1000
0100
,
0010
0010
0010
0010
,
0001
0100
0001
0100
,
0010
0010
0010
0010
,
1000
0001
1000
0001
,
0100
0100
0100
0100
,
0001
1000
0001
1000
,
0010
0010
0010
0010
,
0100
0010
0100
0000
,
0001
1000
0001
0000
,
1000
1000
1000
0000
,
0001
0001
0001
0000
,
1000
0100
1000
0000
,
0001
1000
0001
0000
,
0010
0010
0010
0000
,
0100
0100
0100
0000
,
0010
0001
0010
0000
,
0100
0010
0100
0000
,
1000
0010
1000
0000
,
0001
1000
0001
1000
,
0100
1000
0100
0000
,
0010
0001
0010
0000
,
0001
1000
0001
0000
,
0100
0001
0100
0000
,
0010
0010
0010
0000
,
1000
0100
0010
0001
,
0100
0100
0100
0000
,
0001
0010
0100
1000
,
0010
0010
0010
0000
,
1000
0100
0010
0001
,
0100
0100
0100
0000
,
0001
0010
0100
1000
,
0010
0010
1000
1000
,
0001
0010
0100
1000
,
0001
0001
0100
0100
,
0001
1000
0100
0010
,
0001
0001
0100
0100
,
0010
1000
0010
0100
,
0001
0001
1000
1000
,
0100
0010
0001
1000
,
1001
0000
0000
0000
;

//---------------dance-single - ----------------
#NOTES:
     dance-single:
     :
     Medium:
     8:
     0.447,0.380,0.279,0.000,0.000:
1001
0000
0010
0000
0100
1000
0100
0000
,
1000
0001
1000
0001
0100
0001
0100
0001
,
1000
0000
0100
0000
0010
0001
0010
0000
,
0001
1000
0001
1000
0010
1000
0010
1000
,
0001
0000
0010
0000
0100
1000
0100
0000
,
1000
0001
1000
0001
0100
0001
0100
0001
,
1000
0000
0100
0000
0010
0001
0010
0000
,
0001
1000
0001
1000
0010
1000
0010
1000
,
0001
0001
1001
0000
,
0100
1000
0100
1000
0100
0000
0010
0000
,
1001
1001
0110
0000
,
0100
0001
0100
0000
0010
0100
0010
0000
,
1000
1000
1001
0000
,
0100
0001
0100
0001
0100
0000
0001
0000
,
1100
1100
0110
0000
,
0010
0100
0010
0000
0100
0001
0100
0000
,
0001
1000
0100
0000
1000
0001
1000
0000
,
0001
0100
0010
0000
0100
0010
0100
0000
,
0001
0010
0100
0000
0010
0001
0010
0000
,
0001
1000
0100
0000
1000
0000
0100
0000
,
0010
0001
0100
0000
0010
0100
0010
0000
,
1000
0100
0010
0000
0100
1000
0100
0000
,
1000
0001
0100
0000
0001
0100
0001
0000
,
1000
0001
0100
0000
0010
0100
0010
0000
,
1001
1001
1001
0000
,
0100
1000
0100
1000
0010
0000
0100
0000
,
1001
1001
1001
0000
,
0001
0100
0001
1000
0100
0000
0010
0000
,
1001
1001
1001
0000
,
0001
0100
0001
0100
0010
0000
0100
0000
,
1001
1001
1001
0000
,
1000
0010
1000
0010
0100
0010
0100
0000
,
0001
1000
0100
0000
0010
0100
0010
0000
,
0001
0100
0001
0100
0001
0100
0010
0000
,
1000
0100
0010
0000
0100
1000
0100
0000
,
1000
0001
1000
0001
1000
0001
0010
0000
,
0100
1000
0010
0000
0100
0010
0100
0000
,
0001
0100
0001
0100
0001
0100
0010
0000
,
1000
0100
0010
0000
0100
1000
0100
0000
,
0010
0001
0010
0001
0010
0001
0100
0000
,
0110
0000
0000
0000
;

//---------------dance-single - ----------------
#NOTES:
     dance-single:
     :
     Hard:
     11:
     0.547,0.506,0.418,0.051,0.089:
0010
0000
0100
0000
0010
0000
0001
0000
1000
0000
0100
0000
0010
0100
0000
0000
,
1000
0010
0001
0010
1000
0010
0001
0010
,
1000
0000
0100
0000
1000
0000
0010
0000
0100
0000
0001
0000
0010
0100
0000
0000
,
1000
0100
0001
0100
1000
0100
0001
0100
,
1000
0000
0001
0000
0010
0000
0100
0000
0010
0000
0001
0000
0100
0010
0000
0000
,
1000
0010
0001
0010
1000
0010
0001
0010
,
1000
0000
0001
0000
0100
0000
0010
0000
0100
0000
0001
0000
0010
0100
0000
0000
,
1000
0100
0001
0100
1000
0100
0001
0100
,
1100
1100
1100
0000
,
0010
0001
0100
0010
1000
0100
0010
0000
,
1001
0000
0000
0000
1001
0000
0000
0110
0000
0000
0010
0000
0100
0000
0020
0000
,
0000
0000
0130
0001
0000
1000
0000
0000
,
0101
0101
0101
0000
,
0100
1000
0010
0100
0001
0010
0100
0000
,
1001
0000
0000
0000
1001
0000
0000
0110
0000
0000
0010
0000
0100
0000
0020
0000
,
0000
0000
0130
0001
0000
1000
0100
0010
,
0001
0100
1000
0100
0001
0010
0000
0100
,
1000
0010
0001
0010
1000
0100
0010
0000
,
0001
0010
0100
1000
0010
0001
0010
1000
,
0100
0010
0100
1000
0010
0000
0110
0000
,
0010
0001
0100
0010
1000
0100
0000
0010
,
0100
1000
0010
0100
0001
0010
0000
0100
,
1000
0001
0100
0001
0000
1001
0000
1000
,
0001
0010
0100
1000
0000
1010
0000
0000
,
1001
0000
1001
0000
1001
0000
0000
0001
,
1000
0010
0001
0010
1000
0100
0010
0000
,
1001
0000
1001
0000
1001
0000
0000
1010
,
0000
0110
0000
0011
0000
0110
0000
0000
,
1001
0000
1001
0000
1001
0000
0000
0001
,
1000
0100
0001
0100
1000
0001
0010
0000
,
1001
0000
1001
0000
1001
0000
0000
1010
,
0000
1000
0010
0100
1000
0100
0010
0000
,
1000
0000
0100
0000
1000
0000
0001
0000
0100
0010
0100
0000
0001
0100
0000
0000
,
0001
0010
1000
0010
0001
0010
1000
0010
,
0001
0000
0100
0000
0001
0000
1000
0000
0100
0010
0100
0000
1000
0001
0000
0000
,
1000
0010
0001
0010
1000
0010
0001
0010
,
1000
0000
0001
0000
0010
0000
0100
0000
0010
0001
0010
0000
0001
1000
0000
0000
,
0001
0010
1000
0010
0001
0010
1000
0010
,
0001
0000
1000
0000
0100
0000
1000
0000
0010
0100
0010
0000
1000
0100
0000
0000
,
1000
0010
0001
0010
1000
0010
0001
0010
,
2002
0000
0000
0000
,
0000
0000
0000
0000
,
3003
0000
0000
0000
;

//---------------dance-single - ----------------
#NOTES:
     dance-single:
     :
     Challenge:
     13:
     0.644,0.639,0.025,0.076,0.456:
1000
0000
0100
0000
0010
0000
0001
0000
0100
0001
0100
0001
1000
0100
0000
0000
,
0010
0100
0010
0000
0001
1000
0000
0001
1000
0000
0100
1000
0000
0100
1000
0000
,
0001
0000
0100
0000
0010
0000
1000
0000
0001
0010
0001
0010
0100
1000
0000
0000
,
0010
0100
0010
0000
1000
0001
0000
1000
0001
0000
0010
0001
0000
0010
0001
0000
,
1000
0000
0010
0000
0100
0000
0001
0000
0010
0100
0010
0100
1000
0010
0000
0000
,
1000
0001
1000
0000
0010
0100
0000
0010
0100
0000
0001
0010
0000
0001
0010
0000
,
0100
0000
1000
0000
0001
0000
0100
0000
0010
0100
0010
0100
0001
0010
0000
0000
,
0100
1000
0100
0000
1000
0001
0000
1000
0001
0000
0100
0001
0000
0100
0001
0000
,
1000
1000
0100
0100
1000
1000
0000
0000
,
0001
0100
1000
0010
0001
1000
0100
0010
,
0011
0000
0000
0000
0100
0000
1000
0010
0000
0000
1000
0000
0010
0000
1000
0000
,
0001
0010
0100
0010
0001
1000
0010
0000
,
0100
0100
0001
0001
0100
0100
0000
0000
,
0001
0100
1000
0010
0001
1000
0010
0100
,
0101
0000
0000
0000
0010
0000
1000
0100
0000
0000
1000
0000
0001
0000
1000
0000
,
0010
0100
0010
1000
0100
0010
0001
0000
,
0100
0100
0001
0010
0100
2000
0000
3001
,
0100
0001
1000
0100
0010
0002
0100
0103
,
0001
0010
1000
0010
0001
2000
0000
3010
,
0010
0100
0001
0010
0100
1000
0001
0000
,
1000
0100
0001
0100
1000
0002
0000
1003
,
0010
0100
1000
0100
0010
2000
0000
3001
,
0100
0010
1000
0100
0010
0100
0000
1000
,
0010
0100
0001
0010
0100
0010
0000
0000
,
0001
0001
0100
0100
0001
0001
0000
1000
,
0010
0001
0010
1000
0100
0010
0100
1000
,
0010
0010
0100
0100
0010
0010
0000
1000
,
0100
0000
0001
0000
0100
0000
1000
0000
0001
0100
0001
0000
1000
0000
0100
0000
,
0010
0010
0001
0001
0010
0010
0000
0001
,
0100
1000
0100
0001
0010
0100
1000
0000
,
0010
0010
0100
0100
0010
0010
0000
0100
,
0001
0000
0010
0000
0100
0000
1000
0000
0001
0100
0001
0000
1000
0001
1000
0001
,
1000
0000
0100
0000
0010
0000
0001
0000
0100
0001
0100
0001
1000
0100
0000
0000
,
0010
0001
0100
0000
0010
1000
0000
0010
0100
0000
0010
1000
0000
0010
0100
0000
,
0001
0000
0010
0000
0100
0000
0010
0000
0001
0100
0001
0100
0010
1000
0000
0000
,
0100
0010
0001
0000
0100
0001
0000
0100
0010
0000
0100
0001
1000
0100
0010
0100
,
1000
0000
0010
0000
0100
0000
0001
0000
1000
0100
1000
0100
0010
0001
0000
0000
,
0100
0010
1000
0000
0100
0010
0000
0001
0010
0000
0100
0010
0000
0001
0010
0000
,
0100
0000
1000
0000
0010
0000
0100
0000
0001
1000
0001
1000
0100
0010
0000
0000
,
0001
0100
0010
0000
0100
0001
0000
1000
0100
0000
0010
0001
0100
0010
1000
0100
,
0020
0000
0000
0000
,
0000
0000
0000
0000
,
0030
0000
0000
0000
;

//---------------dance-double - ----------------
#NOTES:
     dance-double:
     :
     Easy:
     5:
     0.243,0.228,0.063,0.000,0.000:
01000000
00010000
01000000
00010000
,
10000000
10000000
10000000
00000000
,
01000000
00100000
01000000
00100000
,
00001000
00001000
00001000
00000000
,
00010000
00000100
00010000
00000100
,
00000010
00000010
00000010
00000000
,
00000001
00001000
00000001
00001000
,
00000100
00000100
00000100
00000000
,
00010000
00010000
00010000
00000000
,
00001000
01000000
00001000
00000000
,
01100000
00000000
01100000
00000000
,
01000000
00000000
00100000
00000000
,
10000000
10000000
10000000
00000000
,
00100000
01000000
00100000
00000000
,
10010000
00000000
10010000
00000000
,
00100000
00000000
01000000
00000000
,
00001000
00010000
00001000
00000000
,
00010000
00000010
00010000
00000000
,
00000010
00000100
00000010
00000000
,
00000100
00000001
00010000
00000000
,
00000100
00000010
00000001
00000000
,
00010000
00000010
00001000
00000000
,
00000001
00001000
00000001
00000000
,
00001000
00000001
00001000
00000000
,
00000010
00000010
00000010
00000000
,
00010000
00001000
00100000
00010000
,
01000000
01000000
01000000
00000000
,
00100000
01000000
00100000
10000000
,
00001000
00001000
00001000
00000000
,
00010000
00000100
00000010
00000100
,
00010000
00010000
00010000
00000000
,
00000010
00000100
00000010
00000100
,
00000001
00000001
00000001
00000000
,
00000010
00000100
00010000
00001000
,
00100000
00100000
00100000
00000000
,
00010000
01000000
00010000
10000000
,
00100000
00100000
00100000
00000000
,
10000000
01000000
00100000
00001000
,
00010000
00010000
00010000
00000000
,
00000100
00000010
00000001
00000100
,
00000110
00000000
00000000
00000000
;

//---------------dance-double - ----------------
#NOTES:
     dance-double:
     :
     Medium:
     8:
     0.445,0.380,0.266,0.000,0.000:
10000000
00100000
10000000
00000000
00010000
01000000
00010000
00000000
,
10000000
01000000
10000000
01000000
00100000
00001000
00100000
00000000
,
00001000
00010000
00001000
00000000
00010000
00000010
00010000
00000000
,
00000100
00000010
00000100
00000010
00000001
00000100
00000001
00000000
,
00000010
00000100
00000010
00000000
00000001
00000100
00000001
00000000
,
00000010
00000100
00000010
00000100
00010000
00001000
00010000
00000000
,
00001000
01000000
00001000
00000000
10000000
00100000
10000000
00000000
,
00100000
01000000
00100000
01000000
00001000
00010000
00001000
00000000
,
00010000
00010000
00011000
00000000
,
00000100
00000010
00000100
00000010
00000001
00000000
00000100
00000000
,
00000110
00000110
00001001
00000000
,
00000100
00000010
00000100
00000000
00010000
00000010
00010000
00000000
,
00001000
00001000
00011000
00000000
,
01000000
00100000
01000000
00100000
10000000
00000000
00100000
00000000
,
01100000
01100000
10010000
00000000
,
10000000
00100000
10000000
00000000
00001000
00100000
00001000
00000000
,
00010000
00000010
00000100
00000000
00000010
00000100
00000010
00000000
,
00000100
00000001
00010000
00000000
00000100
00010000
00000100
00000000
,
00010000
00001000
00100000
00000000
01000000
00100000
01000000
00000000
,
10000000
01000000
00100000
00000000
00001000
00000000
00010000
00000000
,
00000100
00000010
00000100
00000010
00000001
00000000
00001000
00000000
,
00000100
00010000
00000100
00010000
00001000
00000000
00100000
00000000
,
01000000
10000000
00010000
00000000
10000000
00010000
10000000
00000000
,
01000000
00100000
00010000
00000000
00001000
00010000
00001000
00000000
,
00011000
00011000
00011000
00000000
,
00000010
00000100
00000010
00000100
00000001
00000000
00000010
00000000
,
00001001
00001001
00001001
00000000
,
00000010
00010000
00000010
00010000
00001000
00000000
00100000
00000000
,
01100000
01100000
01100000
00000000
,
01000000
00100000
01000000
00100000
10000000
00000000
00010000
00000000
,
10010000
10010000
10010000
00000000
,
01000000
10000000
01000000
10000000
00010000
10000000
00010000
00000000
,
00100000
01000000
10000000
00000000
00001000
01000000
00001000
00000000
,
00010000
00001000
00010000
00001000
00000100
00000010
00000100
00000000
,
00000001
00000100
00000010
00000000
00010000
00000100
00010000
00000000
,
00001000
00100000
00001000
00100000
01000000
10000000
01000000
00000000
,
10000000
00100000
01000000
00000000
00001000
01000000
00001000
00000000
,
00010000
00000010
00010000
00000010
00000100
00000001
00000010
00000000
,
00000100
00010000
00001000
00000000
00100000
01000000
00100000
00000000
,
00010000
00100000
00010000
00100000
01000000
10000000
00001000
00000000
,
10001000
00000000
00000000
00000000
;

//---------------dance-double - ----------------
#NOTES:
     dance-double:
     :
     Hard:
     11:
     0.550,0.506,0.444,0.051,0.089:
10000000
00000000
00100000
00000000
10000000
00000000
01000000
00000000
00100000
00000000
00001000
00000000
00010000
00000010
00000000
00000000
,
00000100
00000001
00000010
00001000
00000010
00000001
00000010
00001000
,
00000010
00000000
00000001
00000000
00000100
00000000
00000010
00000000
00001000
00000000
00010000
00000000
00100000
01000000
00000000
00000000
,
10000000
00010000
01000000
10000000
01000000
00010000
01000000
10000000
,
01000000
00000000
00010000
00000000
00100000
00000000
00001000
00000000
00010000
00000000
00000010
00000000
00000100
00000001
00000000
00000000
,
00001000
00000001
00000010
00001000
00000010
00000001
00000010
00001000
,
00000010
00000000
00000001
00000000
00000010
00000000
00000100
00000000
00010000
00000000
00001000
00000000
00100000
01000000
00000000
00000000
,
10000000
00010000
00100000
10000000
00100000
00010000
01000000
00100000
,
01100000
01100000
01100000
00000000
,
10000000
00100000
10000000
01000000
00100000
00001000
00010000
00000000
,
00010010
00000000
00000000
00000000
00010010
00000000
00000000
00000110
00000000
00000000
00000100
00000000
00001000
00000000
00020000
00000000
,
00000000
00000000
00031000
00100000
00000000
00100000
00000000
00000000
,
01100000
01100000
01100000
00000000
,
00100000
10000000
01000000
00100000
00010000
00100000
00001000
00000000
,
00011000
00000000
00000000
00000000
00011000
00000000
00000000
00010100
00000000
00000000
00010100
00000000
00000010
00000000
00000002
00000000
,
00000000
00000000
00000013
00000100
00000000
00010000
00001000
00010000
,
00000001
00000010
00001000
00000010
00000001
00010000
00000000
00001000
,
00010000
00001000
10000000
01000000
00010000
01000000
10000000
00000000
,
01000000
00100000
00001000
00010000
00000100
00000010
00010001
00001000
,
00000001
00000010
00000100
00001000
00010000
00000000
00011000
00000000
,
00001000
00100000
01000000
10000000
01000000
00100000
00000000
00001000
,
00010000
00000100
00000010
00000001
00000010
00000100
00000000
00010000
,
00000010
00000100
00000010
00010000
00000000
00011000
00000000
00001000
,
00100000
01000000
00100000
00001000
00000000
00011000
00000000
00000000
,
00000110
00000000
00000110
00000000
00000110
00000000
00000000
00000100
,
00000010
00000001
00000100
00000010
00000100
00000001
00000010
00000000
,
00011000
00000000
00011000
00000000
00011000
00000000
00000000
00101000
,
00000000
01100000
00000000
11000000
00000000
10010000
00000000
00000000
,
01100000
00000000
01100000
00000000
01100000
00000000
00000000
00100000
,
01000000
10000000
00100000
10000000
01000000
00100000
00001000
00000000
,
00011000
00000000
00011000
00000000
00011000
00000000
00000000
00000110
,
00000000
00000100
00000010
00000001
00000100
00000001
00000010
00000000
,
00000001
00000000
00000010
00000000
00000001
00000000
00000100
00000000
00000010
00010000
00000010
00000000
00010000
00001000
00000000
00000000
,
01000000
00010000
00100000
10000000
00100000
00010000
00100000
10000000
,
00100000
00000000
00010000
00000000
01000000
00000000
00100000
00000000
10000000
00010000
10000000
00000000
00001000
00100000
00000000
00000000
,
00001000
00010000
00000010
00000001
00000010
00010000
00000010
00000001
,
00000010
00000000
00010000
00000000
00000100
00000000
00000010
00000000
00000001
00000100
00000001
00000000
00000100
00000010
00000000
00000000
,
00010000
00001000
00100000
10000000
00100000
00001000
00100000
10000000
,
00100000
00000000
00001000
00000000
00100000
00000000
01000000
00000000
10000000
00100000
10000000
00000000
00001000
00100000
00000000
00000000
,
00001000
00010000
00000010
00000001
00000010
00010000
00000010
00000100
,
00000202
00000000
00000000
00000000
,
00000000
00000000
00000000
00000000
,
00000303
00000000
00000000
00000000
;

//---------------dance-double - ----------------
#NOTES:
     dance-double:
     :
     Challenge:
     13:
     0.646,0.639,0.076,0.076,0.456:
10000000
00000000
00100000
00000000
01000000
00000000
00100000
00000000
10000000
01000000
10000000
01000000
10000000
01000000
00000000
00000000
,
00100000
00001000
00100000
00000000
00001000
00010000
00000000
00000100
00010000
00000000
00000100
00000010
00000000
00000001
00000010
00000000
,
00000100
00000000
00010000
00000000
00001000
00000000
00010000
00000000
00000100
00000010
00000100
00000010
00000100
00000010
00000000
00000000
,
00000001
00000100
00000001
00000000
00000010
00000100
00000000
00010000
00000100
00000000
00010000
00001000
00000000
01000000
00100000
00000000
,
10000000
00000000
01000000
00000000
00100000
00000000
01000000
00000000
10000000
00010000
10000000
00010000
10000000
00010000
00000000
00000000
,
01000000
00001000
01000000
00000000
00001000
00010000
00000000
00000100
00010000
00000000
00000100
00000010
00000000
00000001
00000010
00000000
,
00000100
00000000
00010000
00000000
00001000
00000000
00100000
00000000
01000000
10000000
01000000
10000000
01000000
10000000
00000000
00000000
,
00010000
01000000
00010000
00000000
01000000
00100000
00000000
10000000
01000000
00000000
00100000
00001000
00000000
00010000
00001000
00000000
,
00010000
00010000
00000100
00000100
00010000
00010000
00000000
00000000
,
00000010
00001000
00000100
00000001
00000100
00001000
00000001
00000010
,
00010100
00000000
00000000
00000000
00011000
00000000
00000000
01001000
00000000
00000000
01000000
00000000
00100000
00000000
01000000
00000000
,
00100000
10000000
01000000
10000000
00100000
01000000
00001000
00000000
,
00010000
00010000
00000100
00000100
00010000
00010000
00000000
00000000
,
00000010
00001000
00000100
00000001
00000100
00001000
00000010
00000100
,
00010001
00000000
00000000
00000000
00011000
00000000
00000000
00101000
00000000
00000000
01000000
00000000
10000000
00000000
01000000
00000000
,
10000000
00010000
01000000
00010000
10000000
01000000
00100000
00000000
,
00001000
00010000
00000100
00000001
00000100
00020000
00000000
00031000
,
00100000
10000000
00100000
00001000
00010000
00000020
00000100
00000130
,
00000001
00000010
00001000
00000010
00000001
00000200
00000000
00000310
,
00000100
00000001
00000010
00000100
00010000
00001000
00100000
00000000
,
01000000
10000000
00100000
10000000
01000000
00200000
00000000
00310000
,
00001000
00000010
00000100
00000010
00001000
00000002
00000000
00000013
,
00000100
00010000
00001000
00100000
01000000
00100000
00000000
00001000
,
00010000
00000100
00000010
00000100
00010000
00001000
00000000
00000000
,
01000000
01000000
00001000
00001000
01000000
01000000
00000000
00100000
,
10000000
01000000
00010000
10000000
00100000
00010000
10000000
00100000
,
01000000
01000000
00001000
00001000
01000000
01000000
00000000
00001000
,
00100000
00000000
01000000
00000000
00100000
00000000
00001000
00000000
00010000
00001000
00010000
00000000
00000100
00000000
00000010
00000000
,
00000100
00000100
00010000
00010000
00000100
00000100
00000000
00000010
,
00000001
00000100
00001000
00000001
00000010
00001000
00000001
00000000
,
00010000
00010000
00000100
00000100
00010000
00010000
00000000
00001000
,
00100000
00000000
01000000
00000000
00100000
00000000
00001000
00000000
01000000
00100000
01000000
00000000
00010000
10000000
00010000
10000000
,
00010000
00000000
00100000
00000000
01000000
00000000
00100000
00000000
00010000
01000000
00010000
01000000
00100000
10000000
00000000
00000000
,
01000000
00100000
01000000
00000000
10000000
00100000
00000000
01000000
00001000
00000000
00010000
00001000
00000000
00010000
00000010
00000000
,
00000100
00000000
00000001
00000000
00000010
00000000
00000100
00000000
00010000
00000010
00010000
00000010
00001000
00010000
00000000
00000000
,
01000000
00100000
01000000
00000000
00100000
10000000
00000000
00001000
00100000
00000000
00010000
00001000
00000000
00000010
00000100
00000001
,
00000100
00000000
00000001
00000000
00000010
00000000
00000100
00000000
00010000
00000010
00010000
00000010
00001000
00010000
00000000
00000000
,
00100000
01000000
00100000
00000000
00010000
10000000
00000000
00100000
10000000
00000000
01000000
00100000
00000000
00001000
00010000
00000000
,
00000100
00000000
00000010
00000000
00000100
00000000
00010000
00000000
00000001
00000100
00000001
00000100
00000010
00010000
00000000
00000000
,
00001000
00010000
00001000
00000000
00100000
01000000
00000000
10000000
00100000
00000000
01000000
00001000
01000000
00001000
00010000
00000100
,
00020000
00000000
00000000
00000000
,
00000000
00000000
00000000
00000000
,
00030000
00000000
00000000
00000000
;

//---------------dance-single - ----------------
#NOTES:
     dance-single:
     :
     Beginner:
     1:
     0.096,0.127,0.089,0.000,0.000: // measure 1
0001
0000
0000
0000
,  // measure 2
0001
0000
0000
0000
,  // measure 3
1000
0000
0000
0000
,  // measure 4
1000
0000
0000
0000
,  // measure 5
0001
0000
0000
0000
,  // measure 6
0001
0000
0000
0000
,  // measure 7
1000
0000
0000
0000
,  // measure 8
1000
0000
0000
0000
,  // measure 9
1001
0000
0000
0000
,  // measure 10
0010
0000
0010
0000
,  // measure 11
0010
0000
0000
0000
,  // measure 12
0000
0000
0000
0000
,  // measure 13
0110
0000
0000
0000
,  // measure 14
0100
0000
0100
0000
,  // measure 15
0100
0000
0000
0000
,  // measure 16
0001
0000
0000
0000
,  // measure 17
1001
0000
0000
0000
,  // measure 18
0100
0000
0000
0000
,  // measure 19
0010
0000
0000
0000
,  // measure 20
0001
0000
0000
0000
,  // measure 21
0100
0000
0000
0000
,  // measure 22
0010
0000
0000
0000
,  // measure 23
1000
0000
0000
0000
,  // measure 24
0010
0000
0000
0000
,  // measure 25
1001
0000
0000
0000
,  // measure 26
1000
0000
0000
0000
,  // measure 27
1001
0000
0000
0001
,  // measure 28
0000
0000
0000
0000
,  // measure 29
0110
0000
0000
0000
,  // measure 30
0100
0000
0000
0000
,  // measure 31
0110
0000
0000
0000
,  // measure 32
0010
0000
0000
0000
,  // measure 33
1000
0000
0000
0000
,  // measure 34
0100
0000
0010
0000
,  // measure 35
0100
0000
0000
0000
,  // measure 36
1000
0000
0001
0000
,  // measure 37
1000
0000
0000
0000
,  // measure 38
0001
0000
0100
0000
,  // measure 39
0001
0000
0000
0000
,  // measure 40
0100
0000
0010
0000
,  // measure 41
0100
0000
0000
0000
;
