#TITLE:タイガーランペイジ;
#SUBTITLE:;
#ARTIST:sasakure.UK;
#TITLETRANSLIT:TIGER RAMPAGE;
#SUBTITLETRANSLIT:;
#ARTISTTRANSLIT:;
#CREDIT:DigiMindAxel;
#BANNER:TIGER RAMPAGE.png;
#BACKGROUND:TIGER RAMPAGE-bg.png;
#LYRICSPATH:TIGER RAMPAGE.lrc;
#CDTITLE:DigiMindAxel original simfile.png;
#MUSIC:TIGER RAMPAGE.ogg;
#METERTYPE:DDR X;
#OFFSET:-0.144;
#SAMPLESTART:49.280;
#SAMPLELENGTH:12.000;
#SELECTABLE:YES;
#BPMS:0.000=150.000;
#STOPS:208.000=1.200
;
#BGCHANGES:0.000=TIGER RAMPAGE.avi=1.000=1=1=0,
99999=-nosongbg-=1.000=0=0=0 // don't automatically add -songbackground-
;

//---------------dance-single - ----------------
#NOTES:
     dance-single:
     :
     Easy:
     5:
     0.243,0.330,0.067,0.276,0.000: // measure 1
0000
0000
0000
0000
,  // measure 2
0000
0000
0000
0000
,  // measure 3
0000
0000
0000
0000
,  // measure 4
0000
0000
0000
0000
,  // measure 5
0000
0000
0000
0000
,  // measure 6
2000
0000
0000
3000
,  // measure 7
0200
0000
0000
0300
,  // measure 8
0020
0000
0000
0030
,  // measure 9
0002
0000
0000
0003
,  // measure 10
2002
0000
0000
3003
,  // measure 11
1000
0100
1000
0010
,  // measure 12
0100
0000
0001
0100
,  // measure 13
0001
0100
0010
0000
,  // measure 14
1000
0100
1000
0100
,  // measure 15
0010
0000
0100
0010
,  // measure 16
0100
0010
0001
0000
,  // measure 17
1000
0010
1000
0010
,  // measure 18
0100
0000
0010
0100
,  // measure 19
0010
0100
0001
0000
,  // measure 20
0010
0001
0010
0001
,  // measure 21
1000
0000
0100
1000
,  // measure 22
0100
1000
0001
0000
,  // measure 23
2000
0000
0000
0000
,  // measure 24
3002
0000
0000
0000
,  // measure 25
0203
0000
0000
0000
,  // measure 26
0320
0000
0000
0000
,  // measure 27
2030
0000
0000
0000
,  // measure 28
3002
0000
0000
0000
,  // measure 29
0023
0000
0032
0000
,  // measure 30
0203
0000
0000
0000
,  // measure 31
0300
0000
0000
0000
,  // measure 32
0001
1000
0100
1000
,  // measure 33
0001
0000
0000
0100
,  // measure 34
0001
1000
0100
1000
,  // measure 35
0100
0010
0000
0000
,  // measure 36
0001
0100
0010
0100
,  // measure 37
0001
1000
0100
0000
,  // measure 38
0010
0001
0010
0100
,  // measure 39
1000
0000
0000
0000
,  // measure 40
0010
0100
0001
0100
,  // measure 41
0010
1000
0000
0000
,  // measure 42
0100
0010
0001
0100
,  // measure 43
0010
0100
0001
0000
,  // measure 44
1000
0100
1000
0001
,  // measure 45
1000
0100
1000
0000
,  // measure 46
0010
0100
0001
1000
,  // measure 47
0200
0000
0000
0300
,  // measure 48
0010
0001
0100
0010
,  // measure 49
2000
0000
0000
3000
,  // measure 50
0100
0010
0001
1000
,  // measure 51
0020
0000
0000
0000
,  // measure 52
0230
0000
0000
0300
,  // measure 53
0000
0001
1000
0001
,  // measure 54
1000
0100
0010
0000
,  // measure 55
0001
0100
0001
1000
,  // measure 56
0100
0000
0010
0001
,  // measure 57
0100
0010
1000
0000
,  // measure 58
0100
0010
0001
0010
,  // measure 59
0100
0000
0010
0001
,  // measure 60
1000
0001
0010
0000
,  // measure 61
0100
1000
0001
1000
,  // measure 62
0100
0000
0010
0100
,  // measure 63
1000
0001
1000
0000
,  // measure 64
0100
0010
0001
1000
,  // measure 65
0001
2002
0000
3003
,  // measure 66
0220
0000
0330
2002
,  // measure 67
0000
3003
0220
0000
,  // measure 68
0330
2002
0000
3003
,  // measure 69
0220
0000
0330
2002
,  // measure 70
0000
0000
0000
0000
,  // measure 71
0000
0000
0000
0000
,  // measure 72
0000
0000
0000
3003
;

//---------------dance-single - ----------------
#NOTES:
     dance-single:
     :
     Medium:
     9:
     0.446,0.480,0.084,0.167,0.167:
0000
0000
0000
0000
,
0000
0000
0000
0000
,
0000
0000
0000
0000
,
0000
0000
0000
0000
,
0000
0000
0000
0000
,
1000
0000
0000
0000
0010
0000
0000
0100
0000
0000
0000
0000
0001
0000
0000
0010
,
0000
0000
0000
0000
0100
0000
0000
0010
0000
0000
0000
0000
0001
0000
0000
1000
,
0000
0000
0000
0000
0100
0000
0000
1000
0000
0000
0000
0000
0100
0000
0000
0010
,
0000
0001
1000
1001
,
0101
0000
0000
0001
0000
0000
0101
0000
0000
0100
0000
0000
0110
0000
0000
0000
,
1000
0100
1000
0000
0001
1000
0001
0000
,
0100
0010
1000
0000
0001
1000
0001
0000
,
1000
0100
1000
0000
0001
0010
0100
0000
,
1000
0100
1000
0000
0001
0100
0001
0000
,
1000
0100
0010
0000
0001
0100
0001
0000
,
0100
0010
0100
0000
0001
0010
0100
0000
,
1000
0100
1000
0000
0001
1000
0001
0000
,
1000
0010
0100
0000
0001
0100
0001
0000
,
0100
0010
0100
0000
0001
1000
0100
0000
,
1000
0100
1000
0000
0100
0010
0100
0000
,
1000
0001
0100
0000
0010
0100
0010
0000
,
0100
0001
0100
0000
0001
1000
0100
0000
,
2002
0000
0000
0000
0000
0000
0000
0000
3003
0000
0000
0000
1000
0000
0000
1000
,
0000
0000
0000
0000
0001
0000
0000
0001
0000
0000
0000
0000
0010
0000
0000
0100
,
0000
0000
0000
1000
0000
0000
0000
0010
,
0000
0000
0000
0100
0000
0000
0001
0000
,
2002
0000
0000
0000
0000
0000
0000
0000
3003
0000
0000
0000
0001
0000
0000
0001
,
0000
0000
0000
0000
1000
0000
0000
1000
0000
0000
0000
0000
0100
0000
0000
0010
,
0000
0000
0000
0000
0000
0000
0000
0010
0000
0000
0000
0000
0000
0000
0000
0220
,
0000
0000
0000
0000
,
0330
0000
0000
0000
,
0100
0010
0001
0010
0100
0000
1000
0001
,
0010
0100
1000
0010
0100
0000
0001
1000
,
0001
0100
0010
0100
0001
0000
0010
0100
,
1000
0001
0100
0000
0001
1000
0001
0100
,
0010
1000
0100
0010
0001
0000
1000
0100
,
1000
0010
0100
0001
0010
0000
0100
0010
,
0001
1000
0001
0100
0000
0010
1000
0002
,
0000
1000
2003
0000
,
3001
0100
0010
0100
0001
1000
0100
1000
,
0001
0010
0100
1000
0001
0000
0100
0001
,
0100
0001
1000
0100
0010
0100
1000
0001
,
0100
0010
0100
0001
0000
1000
1000
1000
,
0010
0100
0010
0100
0001
1000
0100
0010
,
0001
0010
0100
1000
0000
0100
1000
0010
,
0100
0001
0100
0010
0100
0001
0010
0200
,
0000
0000
1000
0000
1000
0000
1300
0001
,
1000
0010
0100
0001
0010
0001
1000
0020
,
0000
0000
0100
0000
0100
0000
0130
0001
,
0010
0001
0100
0001
0010
0100
1000
0020
,
0000
0000
0100
0000
0100
0100
0130
0000
,
0002
0000
1000
0000
1000
1000
1000
0003
,
0000
0000
0000
0000
1001
0000
1000
0000
0010
0000
0000
0100
0000
0000
0000
0000
,
0001
0000
0000
0010
0000
0000
0000
0000
0200
0000
0000
0000
1300
0000
0001
0000
,
0010
0000
0000
0100
0000
0000
0000
0000
1000
0000
0000
0010
0000
0000
2000
0000
,
0000
0000
3001
0000
1000
0000
0100
0000
0010
0000
0000
0100
0000
0000
0000
0000
,
1000
0000
0000
0010
0000
0000
0000
0000
0200
0000
0000
0000
0301
0000
1000
0000
,
0001
1000
0100
0010
0001
1000
0010
1000
,
0001
0000
0010
0000
0100
0000
1000
0000
0001
0000
0000
0100
0000
0000
0000
0000
,
0010
0000
0000
0100
0000
0000
0000
0000
0002
0000
0000
0000
0013
0000
0100
0000
,
1000
0000
0000
0001
0000
0000
0000
0000
0100
0000
0000
0001
0000
0000
2000
0000
,
0000
0000
3010
0000
0100
0000
0001
0000
0010
0000
0000
0100
0000
0000
0000
0000
,
1000
0000
0000
0001
0000
0000
0000
0000
0200
0000
0000
0000
0310
0000
1000
0000
,
0001
0010
0001
1000
0010
0100
0001
0010
,
0100
0000
1000
0000
1100
0000
0000
0100
0000
0000
0010
0000
0000
0010
0000
0000
,
0001
0000
0000
0001
0000
0000
0100
0000
0000
0100
0000
0000
0010
0000
0000
0010
,
0000
0000
1000
0000
0000
1000
0000
0000
0001
0000
0000
0001
0000
0000
0010
0000
,
0000
0010
0000
0000
0100
0000
0000
0100
0000
0000
0010
0000
0000
0010
0000
0000
,
0001
0000
0000
0001
0000
0000
0100
0000
0000
0100
0000
0000
0220
0000
0000
0000
,
0000
0000
0000
0000
,
0000
0000
0000
0000
,
0000
0000
0000
0330
;

//---------------dance-single - ----------------
#NOTES:
     dance-single:
     :
     Hard:
     12:
     0.586,0.660,0.703,0.368,0.326:
0000
0000
0000
0000
,
0000
0000
0000
0000
,
0000
0000
0000
0000
,
0000
0000
0000
0000
,
0000
0000
0000
0000
,
1001
0000
0000
0000
0002
0000
0000
0100
0000
0103
0000
0000
0020
0000
0000
1000
,
0000
1030
0000
0000
0002
0000
0000
1000
0000
1003
0000
0000
0020
0000
0000
0100
,
0000
0130
0000
0000
0002
0000
0000
0010
0000
0013
0000
0000
0200
0000
0000
1000
,
0000
1300
0000
0000
0020
0000
0000
0000
0130
0000
0000
0000
0110
0000
0000
0000
,
1001
0000
0000
1001
0000
0000
1100
0000
0000
1100
0000
0000
0011
0000
0000
0000
,
0001
1000
0010
1000
0001
0010
0100
1000
,
0001
0100
0002
0000
1003
0100
0010
0100
,
1000
0010
0100
0001
0010
0200
0000
0310
,
0001
0100
0010
0100
0001
0010
0100
1000
,
0001
0100
0002
0000
1003
0100
0010
0100
,
1000
0001
0100
0001
1000
0020
0000
0130
,
0001
0010
0100
0010
0001
1000
0010
1000
,
0001
0100
0020
0000
0130
0001
0010
0100
,
0010
0001
1000
0001
0100
0002
0000
1003
,
0001
0100
0010
0100
0001
1000
0001
0010
,
1000
0010
0002
0000
1003
0100
0010
0100
,
1000
0001
0100
0001
1000
0010
0001
0010
,
2000
0000
0000
0000
0000
0000
0000
0000
3001
0000
0000
0000
1000
0000
0000
2000
,
0000
0000
0000
0000
3010
0000
0000
0020
0000
0000
0000
0000
0130
0000
0000
0200
,
0000
0000
0000
0001
0000
0000
0000
0001
,
0000
0000
0000
0302
0000
0000
1003
0000
,
0002
0000
0000
0000
0000
0000
0000
0000
1003
0000
0000
0000
0010
0000
0000
0020
,
0000
0000
0000
0000
0130
0000
0000
0200
0000
0000
0000
0000
0301
0000
0000
2002
,
0000
0000
0000
0000
3003
0000
0000
0220
0000
0000
0000
0000
0330
0000
0000
2002
,
0000
0000
0000
0000
0000
0000
0000
3003
,
0001
0000
0001
0000
1000
0010
0000
0100
0000
0001
0000
2000
0000
0000
0000
0000
,
3001
0000
0000
0100
0000
0000
0101
0000
0000
0000
0010
0000
1000
0000
0100
0000
,
0010
0000
0000
0001
0000
0000
0011
0000
0000
0000
0000
0000
0100
0000
1000
0000
,
0001
0000
0000
0100
0000
0000
0110
0000
0000
0000
0010
0000
1000
0000
0001
0000
,
0010
0000
0000
0001
0000
0000
1001
0000
0000
0000
1000
0000
0100
0000
0010
0000
,
0001
0000
0000
0100
0000
0000
0101
0000
0000
0000
0001
0000
1000
0000
0100
0000
,
0010
0000
0000
0100
0000
0000
1100
0000
0000
0000
1000
0000
0010
0000
0100
0000
,
0001
0000
0000
0100
0000
0000
0110
0000
0000
0000
0010
0000
0100
0000
0002
0000
,
0000
0010
0010
0000
0013
0100
1000
0001
,
0100
0000
0000
0101
0000
0000
1001
0000
0000
0000
0001
0000
1000
0000
0100
0000
,
0010
0000
0000
0011
0000
0000
1001
0000
0000
0000
0000
0000
1000
0000
0010
0000
,
0100
0000
0000
0101
0000
0000
1001
0000
0000
0000
0001
0000
0100
0000
0010
0000
,
1000
0000
0000
1010
0000
0000
1001
0000
0000
0000
0001
0000
0010
0000
0100
0000
,
1000
0000
0000
1001
0000
0000
0101
0000
0000
0000
0100
0000
0010
0000
1000
0000
,
0001
0000
0000
1001
0000
0000
1010
0000
0000
0000
0010
0000
0100
0000
0001
0000
,
1000
0000
0000
1010
0000
0000
1001
0000
0000
0000
0001
0000
0100
0000
0020
0000
,
0000
1000
1000
0000
1030
0001
0100
0010
,
1000
0000
0000
1001
0000
0000
0011
0000
0000
0000
0100
0000
1000
0000
0020
0000
,
0000
0100
0100
0000
0130
0001
0010
0100
,
1000
0000
0000
1001
0000
0000
0101
0000
0000
0000
0010
0000
1000
0000
0002
0000
,
0000
0010
0010
0000
1003
0001
0010
0200
,
0000
1000
1000
0000
0310
0001
1000
0010
,
0000
0000
0000
0000
1000
0000
0001
0000
0011
0000
0000
0011
0000
0000
0000
0000
,
0110
0000
0000
0110
0000
0000
0000
0000
1200
0000
0000
0000
1300
0000
0010
0000
,
0110
0000
0000
0110
0000
0000
0000
0000
0101
0000
0000
0101
0000
0000
1002
0000
,
0000
0000
1003
0000
0100
0000
0010
0000
0110
0000
0000
0110
0000
0000
0000
0000
,
1100
0000
0000
1100
0000
0000
0000
0000
0021
0000
0000
0000
0031
0000
1000
0000
,
1010
0000
0000
1010
0000
0000
0000
0000
1001
0000
0000
1001
0000
0000
0102
0000
,
0000
0000
0103
0000
0001
0000
1000
0000
0100
1000
0000
0100
0000
0000
0000
0000
,
0010
0100
0000
0010
0000
0000
0000
0000
0102
0000
0000
0000
1003
0000
0001
0000
,
0100
0001
0000
0100
0000
0000
0000
0000
0010
0100
0000
0010
0000
0000
2010
0000
,
0000
0000
3010
0000
1000
0000
0100
0000
0010
0001
0000
0010
0000
0000
0000
0000
,
0100
0010
0000
0100
0000
0000
0000
0000
2001
0000
0000
0000
3001
0000
0100
0000
,
0010
1000
0000
0010
0000
0000
0000
0000
0100
0001
0000
0100
0000
0000
0102
0000
,
0000
0000
1003
0000
1100
0000
0000
1100
0000
0000
1001
0000
0000
1001
0000
0000
,
0101
0000
0000
0101
0000
0000
1001
0000
0000
1001
0000
0000
1010
0000
0000
1010
,
0000
0000
0110
0000
0000
0110
0000
0000
0011
0000
0000
0011
0000
0000
1001
0000
,
0000
1001
0000
0000
0101
0000
0000
0101
0000
0000
0110
0000
0000
0110
0000
0000
,
1100
0000
0000
1100
0000
0000
0110
0000
0000
0110
0000
0000
2002
0000
0000
0000
,
0000
0000
0000
0000
,
0000
0000
0000
0000
,
0000
0000
0000
3003
;

//---------------dance-single - ----------------
#NOTES:
     dance-single:
     :
     Challenge:
     15:
     0.895,1.000,0.301,1.000,0.987:
0000
0000
0000
0000
,
0000
0000
0000
0000
,
0000
0000
0000
0000
,
0000
0000
0000
0000
,
0000
0000
0000
0000
,
1000
0000
0001
0000
0020
0000
0000
0001
0000
0031
0000
0000
0200
0000
0000
0010
,
0000
0310
0000
0000
2000
0000
0000
0100
0000
3100
0000
0000
0020
0000
0000
0100
,
0000
0130
0000
0000
2000
0000
0000
0001
0000
3001
0000
0000
0200
0000
0000
0001
,
0000
0301
1000
0100
0010
0001
0000
0000
0011
0000
0000
0000
1001
0000
0000
0000
,
1000
0100
0010
0100
0000
0000
1000
0010
0100
0010
0000
0000
1000
0100
0010
0100
,
1000
0000
0010
0000
0100
0001
0100
0001
1000
0000
0100
0000
0010
0100
0010
0100
,
1000
0000
0001
0000
0200
0000
0000
0000
0301
0000
1000
0000
0100
1000
0100
1000
,
0010
0000
0100
0000
0001
1000
0001
1000
0010
0000
0200
0000
0000
0000
0301
0000
,
1000
0000
0100
0000
0010
0001
0010
0001
1000
0000
0010
0000
0100
0001
0100
0001
,
1000
0000
0100
0000
0020
0000
0000
0000
0130
1000
0100
1000
0001
0100
0001
0100
,
0000
0001
1000
0001
1000
0001
1000
0100
1000
0100
0010
0001
0010
0001
1000
0010
,
1000
0000
0001
0000
0010
0100
1000
0100
0010
0000
0001
0000
0100
0001
0010
0001
,
0100
0000
0010
0000
2000
0000
0000
0000
3001
0000
1000
0000
0001
0100
0010
0100
,
0001
0000
1000
0000
0100
0010
0001
0010
0100
0000
2000
0000
0000
0000
3010
0000
,
1000
0000
0001
0000
0010
0100
1000
0100
0010
0000
0001
0000
1000
0010
0100
0010
,
1000
0000
0001
0000
0200
0000
0000
0000
0310
1000
0010
1000
0001
0100
0001
0100
,
0000
0001
1000
0001
1000
0001
1000
0100
1000
0100
0010
0001
0010
0001
0100
0010
,
0200
0000
0000
0000
0000
0000
0000
0000
0310
0000
0000
0000
0020
0000
0000
2000
,
0000
0000
3030
0000
2000
0000
0000
0002
0000
0000
3003
0000
0002
0000
0000
0020
,
0000
0000
0033
0220
0000
0000
0330
2200
,
0000
0000
3300
0220
0000
0330
0011
0000
,
2001
0000
0000
0000
0000
0000
0000
0000
3100
0000
0000
0000
0020
0000
0000
0002
,
0000
0000
0033
0000
0002
0000
0000
2000
0000
0000
3003
0000
2000
0000
0000
0200
,
0000
0000
3300
0000
0010
0001
0000
0022
0000
0000
0033
0000
0001
1000
0000
2002
,
0000
0000
0000
0000
0000
0000
0000
3003
,
0001
0000
0001
0000
0100
0010
0000
1000
0000
0010
0000
0200
0000
0000
0000
0000
,
0301
1000
0001
1000
0001
0010
0200
0000
0000
0000
1300
0000
0010
0000
0100
0000
,
0001
1000
0001
1000
0001
0010
0200
0000
0000
0000
1300
0000
0100
0000
0010
0000
,
0001
0100
0001
0100
0001
1000
0200
0000
0000
0000
0310
0000
0001
0000
1000
0000
,
0010
1000
0010
1000
0001
0010
0200
0000
0000
0000
0310
0000
0001
0000
1000
0000
,
0001
0100
0001
0100
0001
1000
0200
0000
0000
0000
0310
0000
0100
0000
0010
0000
,
0001
0010
0001
0010
0100
1000
0020
0000
0000
0000
0130
0000
0001
0000
1000
0000
,
0100
0010
0100
0010
0001
0100
0020
0000
0000
0000
0130
0000
0001
0000
2000
0000
,
0000
0000
3001
0000
1000
0010
0000
1000
0001
0010
0100
1000
0001
0010
0100
1000
,
0001
0100
0001
0100
0010
1000
0200
0000
0000
0000
0310
0001
1000
0000
0010
0000
,
0100
0001
0100
0001
1000
0100
0020
0000
0000
0000
0130
1000
0001
0000
0010
0000
,
0100
1000
0100
1000
0001
0010
0200
0000
0000
0000
0310
0001
1000
0000
0010
0000
,
1000
0010
1000
0010
0100
0001
0020
0000
0000
0000
0130
1000
0010
0000
0100
0000
,
0001
1000
0001
1000
0100
0010
0002
0000
0000
0000
0103
0010
1000
0000
0100
0000
,
0010
0001
0010
0001
1000
0010
0200
0000
0000
0000
0310
1000
0001
0000
0010
0000
,
0100
1000
0100
1000
0010
0100
0002
0000
0000
0000
0013
0000
0100
0000
2000
0000
,
0000
0000
3001
0000
1000
0010
0000
1000
0001
0100
0010
0100
0001
1000
0100
0010
,
0001
1000
0001
1000
0100
0010
0002
0000
0000
0000
0103
0000
0010
0000
2000
0000
,
0000
0000
3100
0000
0010
0001
0000
1000
0001
0010
0100
0010
0001
1000
0010
0100
,
0001
1000
0001
1000
0001
0100
0020
0000
0000
0000
0130
0000
0001
0000
2000
0000
,
0000
0000
3010
0000
0100
0001
0000
1000
0001
0010
0100
1000
0001
0010
0100
1000
,
0001
0000
0100
0000
0010
1000
0000
0001
1000
0010
0100
0001
1000
0010
0100
0001
,
0000
0000
0000
0000
1001
0000
1000
0000
0010
0200
0000
0301
2000
0000
3100
0000
,
0010
0002
0000
0103
0020
0000
0130
0000
0002
0000
0000
0000
1003
0000
0001
0000
,
0100
0020
0000
1030
0002
0000
0013
0000
0100
2000
0000
3010
0200
0000
0302
0000
,
1000
0000
1003
0000
0001
0000
0100
0000
0010
0200
0000
0301
2000
0000
3100
0000
,
0010
0200
0000
1300
0002
0000
0103
0000
0002
0000
0000
1003
0010
1000
0010
0100
,
0001
0010
0100
1000
0000
0010
0100
0010
0100
0001
0010
0001
0010
0100
1000
0100
,
1000
0001
0100
0010
0100
0000
0001
0000
2002
0000
0000
0000
0000
0000
0000
0000
,
3003
0000
1000
0100
0010
0001
0010
0100
1000
0010
1000
0001
0000
1000
0010
1000
,
0000
0001
0010
0001
0000
0100
0010
0100
0000
0010
1000
0020
0000
0000
0200
0000
,
0000
0000
0000
0330
0000
0000
0100
0000
0001
0000
0010
0000
0100
0000
1000
0000
0001
0000
0100
0000
0001
0000
1000
0000
,
0100
0000
0000
0000
1000
0000
0000
0000
0001
0000
0000
0000
0200
0000
0000
0000
0000
0000
0000
0000
0000
0000
0000
0000
0310
0000
0000
0000
0000
0000
0000
0000
0000
1000
0000
0000
0010
0000
0000
1000
0000
0000
0010
0000
0000
0100
0000
0000
,
0001
0100
0001
1000
0000
0100
0010
0001
0100
0010
0100
0010
1000
0100
0010
0001
,
1000
0100
0010
0000
0022
0033
0000
2002
3003
0000
2200
3300
0000
0022
0033
0000
,
2002
3003
0000
2200
3300
0000
2002
3003
0000
0202
0303
0000
0220
0330
0000
2020
,
3030
0000
2002
3003
0000
2020
3030
0000
0220
0330
0000
0202
0303
0000
2002
3003
,
0000
0220
0330
0000
0022
0033
0000
2200
3300
0000
2002
3003
0000
2002
3003
0000
,
2020
3030
0000
0202
0303
0000
2002
3003
0000
2002
3003
0000
0220
0000
0000
0000
,
0000
0000
0000
0000
,
0000
0000
0000
0000
,
0000
0000
0000
0330
;

//---------------dance-single - ----------------
#NOTES:
     dance-single:
     :
     Beginner:
     1:
     0.069,0.115,0.042,0.000,0.000:
0000
0000
0000
0000
,
0000
0000
0000
0000
,
0000
0000
0000
0000
,
0000
0000
0000
0000
,
0000
0000
0000
0000
,
0001
0000
0000
0000
,
0001
0000
0000
0000
,
1000
0000
0000
0000
,
1000
0000
0000
0000
,
1001
0000
0000
0000
,
0001
0000
0000
0000
,
0000
0000
0100
0000
,
0000
0000
0000
0000
,
0010
0000
0000
0000
,
0000
0000
1000
0000
,
0000
0000
0000
0000
,
0001
0000
0000
0000
,
0000
0000
0010
0000
,
0000
0000
0000
0000
,
0100
0000
0000
0000
,
0000
0000
1000
0000
,
0000
0000
0000
0000
,
1001
0000
0000
0001
,
0000
0000
0000
0000
,
0000
0000
0000
0000
,
0000
0000
0000
0000
,
1001
0000
0000
1000
,
0000
0000
0000
0000
,
0000
0000
0000
0000
,
0000
0000
0000
0000
,
0000
0000
0000
0000
,
1001
0000
0000
0000
,
0001
0000
0000
0000
,
0010
0000
0000
0000
,
0001
0000
0000
0000
,
1000
0000
0000
0000
,
0001
0000
0000
0000
,
0010
0000
0000
0000
,
0100
0000
0000
0000
,
0010
0000
0000
0000
,
0001
0000
0000
0000
,
1000
0000
0000
0000
,
0010
0000
0000
0000
,
0100
0000
0000
0000
,
0010
0000
0000
0000
,
1000
0000
0000
0000
,
0001
0000
0000
0000
,
0010
0000
0000
0000
,
0001
0000
0000
0000
,
1000
0000
0000
0000
,
0010
0000
0000
0000
,
0010
0000
0000
0000
,
0000
1000
0000
0000
,
0000
0000
0000
0001
,
0000
0000
0000
0000
,
0000
0010
0000
0000
,
0000
0000
0000
0100
,
0000
0000
0000
0000
,
0000
0010
0000
0000
,
0000
0000
0000
0001
,
0000
0000
0000
0000
,
0000
1000
0000
0000
,
0000
0000
0000
0010
,
0000
0000
0000
0000
,
0000
0100
0000
0000
,
0010
0000
0000
0100
,
0000
0000
0010
0000
,
0000
0100
0000
0000
,
0010
0000
0000
1001
;
