#TITLE:THE SAFARI;
#SUBTITLE:;
#ARTIST:Lion Musashi;
#TITLETRANSLIT:;
#SUBTITLETRANSLIT:;
#ARTISTTRANSLIT:;
#CREDIT:DigiMindAxel;
#BANNER:THE SAFARI.png;
#BACKGROUND:THE SAFARI-bg.png;
#LYRICSPATH:;
#CDTITLE:beatmania IIDX.png;
#MUSIC:THE SAFARI.ogg;
#METERTYPE:DDR X;
#OFFSET:-6.123;
#SAMPLESTART:34.544;
#SAMPLELENGTH:12.000;
#SELECTABLE:YES;
#BPMS:0.000=135.000;
#STOPS:;
#BGCHANGES:;

//---------------dance-single - ----------------
#NOTES:
     dance-single:
     :
     Easy:
     5:
     0.270,0.277,0.134,0.401,0.000:
2000
0000
0000
0000
,
0000
3000
0001
0000
,
0200
0000
0000
0300
,
0020
0000
0230
0000
,
0301
0010
0100
1000
,
0001
0010
0100
1000
,
0001
0010
0100
1000
,
2002
0000
0000
3003
,
2001
0000
3001
0100
,
0020
0000
0130
0010
,
2000
0000
3100
0010
,
0002
0000
0013
0100
,
2000
0000
3001
1000
,
0020
0000
0130
0001
,
2000
0000
0000
0000
,
3001
0100
0001
1000
,
0200
0000
0310
0001
,
2000
0000
3010
0100
,
0002
0000
0013
0100
,
2000
0000
3001
1000
,
0002
0000
0103
0010
,
2000
0000
3100
0010
,
0002
0000
0013
0100
,
2000
0000
0000
3000
,
1001
0000
0000
1000
0000
0000
0000
0000
,
1001
0000
0000
0001
0000
0000
0000
0000
,
1001
0000
0000
1000
0000
0000
0000
0000
,
1001
0000
0000
0001
0000
0000
0000
0000
,
0010
0100
0010
0100
,
0000
2002
0000
0000
0000
0000
3003
0000
,
0010
0100
0010
0100
,
0001
2002
0000
3003
,
0220
0000
0000
0330
,
1001
1000
0001
0100
,
0020
0000
1030
0100
,
0020
0000
0031
0100
,
0020
0000
0130
0010
,
1000
1001
0001
1000
,
0001
0100
0001
0010
,
0100
1000
0010
0100
,
0220
0000
0000
0330
,
1001
0001
0010
0100
,
1000
1000
0001
0100
,
0010
0010
0100
0001
,
1000
1000
0100
0010
,
0002
0000
0000
0000
,
0203
0000
0000
0000
,
0320
0000
0000
0000
,
2030
3200
0320
0032
,
0003
0000
0000
0000
;

//---------------dance-single - ----------------
#NOTES:
     dance-single:
     :
     Medium:
     9:
     0.392,0.378,0.236,0.226,0.031: // measure 1
1002
0000
0000
0000
,  // measure 2
0000
0000
0003
1000
,  // measure 3
0200
0000
0000
0000
,  // measure 4
0320
0000
0032
0000
,  // measure 5
1003
0010
0100
0001
,  // measure 6
1000
0000
0010
0000
0100
0000
0001
1000
,  // measure 7
0001
0010
0100
1000
,  // measure 8
0002
0100
0100
0103
,  // measure 9
2002
0000
0000
3003
0000
0001
0100
0001
,  // measure 10
2000
0000
0000
0000
3000
0010
0100
0001
,  // measure 11
0020
0000
0000
0000
0030
0100
1000
0010
,  // measure 12
0200
0000
0000
0000
0300
0001
1000
0001
,  // measure 13
0020
0000
0000
0000
0030
0100
1000
0100
,  // measure 14
0020
0000
0000
0000
0030
0001
0100
0001
,  // measure 15
2000
0000
0000
3000
,  // measure 16
0001
0100
0001
0100
0010
0000
0010
0000
,  // measure 17
1001
0000
1000
0000
0100
0010
0100
0010
,  // measure 18
0100
0000
0100
0000
0010
0001
0010
0001
,  // measure 19
0010
0000
0010
0000
0001
1000
0001
1000
,  // measure 20
0001
0000
0001
0000
0100
0001
0100
0001
,  // measure 21
0100
0000
0100
0000
0010
1000
0010
1000
,  // measure 22
0010
0000
0010
0000
1000
0001
1000
0001
,  // measure 23
1000
0000
1000
0000
0100
1000
0100
1000
,  // measure 24
0100
1100
0010
0110
,  // measure 25
0011
0000
0000
0000
0000
0000
0011
0000
0000
0001
0000
0000
1000
0000
0000
0000
,  // measure 26
1010
0000
0000
0000
0000
0000
1010
0000
0000
0010
0000
0000
0100
0000
0000
0000
,  // measure 27
0110
0000
0000
0000
0000
0000
0110
0000
0000
0100
0000
0000
0001
0000
0000
0000
,  // measure 28
1001
0000
0000
0000
0000
0000
1001
0000
0000
0001
0000
0000
1000
0000
0000
0000
,  // measure 29
1100
0000
0000
0000
0000
0000
1100
0000
0000
1000
0000
0000
0001
0000
0100
0000
,  // measure 30
0000
0000
0110
0000
0000
0000
0000
1010
0000
0000
1000
0000
0001
0000
0000
0000
,  // measure 31
0101
0000
0000
0101
0000
0001
1000
0100
,  // measure 32
1000
2002
0000
3003
,  // measure 33
0001
0100
0001
0100
0010
0000
0010
0000
,  // measure 34
1001
0000
1000
0000
0010
0100
0010
0100
,  // measure 35
0001
0000
0001
0000
0010
0100
0010
0100
,  // measure 36
1000
0000
1000
0000
0001
0100
0001
0100
,  // measure 37
0010
0000
0010
0000
1000
0100
1000
0100
,  // measure 38
0010
0000
0011
0000
0001
1000
0001
1000
,  // measure 39
0010
0000
0010
0000
0100
0001
0100
0001
,  // measure 40
1000
0000
1000
0000
0100
0010
0100
0010
,  // measure 41
0001
1000
0001
1000
0100
0000
0100
0000
,  // measure 42
1001
0000
0001
0000
0100
0001
0100
0001
,  // measure 43
1000
0000
1000
0000
0100
0010
0100
0010
,  // measure 44
0001
0000
0001
0000
0100
0001
0100
0001
,  // measure 45
1000
0000
1000
0000
0100
0010
0100
0010
,  // measure 46
0002
0100
0000
0103
,  // measure 47
0020
0100
0000
0130
,  // measure 48
0002
1000
0000
1003
,  // measure 49
0002
0023
0230
2300
,  // measure 50
3000
0000
0000
0000
;

//---------------dance-single - ----------------
#NOTES:
     dance-single:
     :
     Hard:
     12:
     0.537,0.504,0.319,0.288,0.216: // measure 1
1020
1000
0000
1000
,  // measure 2
0000
1000
0000
1030
,  // measure 3
0002
0010
0000
0013
,  // measure 4
0100
0000
1000
0000
0001
1000
0010
1000
,  // measure 5
0002
0023
0230
2300
,  // measure 6
3002
0023
0230
2300
,  // measure 7
3002
0023
0230
2300
,  // measure 8
3001
1000
0000
0010
0000
1000
0000
0010
0200
0000
0000
0000
0000
0000
0300
0000
,  // measure 9
1001
0000
0000
0001
0000
0000
0001
0000
0000
0000
0010
0000
0100
0000
1000
0000
,  // measure 10
0010
0000
0000
0010
0000
0000
0010
0000
0010
0000
1000
0000
0001
0000
0010
0000
,  // measure 11
0100
0000
0000
0100
0000
0000
0100
0000
0000
0000
0010
0000
0001
0000
1000
0000
,  // measure 12
0010
0000
0000
0010
0000
0000
0010
0000
0010
0000
0100
0000
0001
0000
1000
0000
,  // measure 13
1100
0000
0000
0100
0000
0000
0010
0000
0000
0000
0001
0000
0100
0000
1000
0000
,  // measure 14
0100
0000
0000
0001
0000
0000
0010
0000
1000
0000
0010
0000
0001
0000
1000
0000
,  // measure 15
0010
0000
0000
0100
0000
0000
0001
0000
0000
0000
0010
0000
1000
0000
0010
0000
,  // measure 16
0001
1000
0000
0010
0000
1000
0000
0010
0100
0000
0100
0000
0100
0000
0000
0000
,  // measure 17
1001
0000
0000
1000
0000
0000
0010
0000
0100
0000
0100
0000
0100
0000
0100
0000
,  // measure 18
0001
0010
0100
0010
0001
0001
0001
0001
,  // measure 19
1000
0010
0100
0001
0100
0100
0100
0100
,  // measure 20
0001
0010
0100
1000
0010
1010
0000
1000
,  // measure 21
1001
0000
0000
0001
0000
0000
0100
0000
0010
0000
0010
0000
0010
0000
0010
0000
,  // measure 22
1000
0100
0001
0100
1000
1000
1000
1000
,  // measure 23
0001
0010
1000
0010
0001
0001
0001
0001
,  // measure 24
0200
0000
0000
0320
0000
0000
2030
0000
0000
3200
0000
0000
0310
0000
0000
0000
,  // measure 25
1001
0000
0000
1001
0000
0000
1001
0000
0000
0010
0000
0000
0100
0000
1000
0000
,  // measure 26
1001
0000
0000
1001
0000
0000
1001
0000
0000
0100
0000
0000
0010
0000
0001
0000
,  // measure 27
1001
0000
0000
1001
0000
0000
1001
0000
0000
0100
0000
0000
0010
0000
1000
0000
,  // measure 28
1001
0000
0000
1001
0000
0000
1001
0000
0000
0010
0000
0000
0100
0000
0001
0000
,  // measure 29
0101
0000
0000
1010
0000
0000
1001
0000
0000
1000
0000
0000
0100
0000
0010
0000
,  // measure 30
0000
0000
0101
0000
0000
0100
0000
0001
0000
0000
0010
0000
0100
0000
1000
0000
,  // measure 31
1100
0000
0000
0011
0000
0000
1001
0000
0000
0000
0001
0000
1000
0000
0100
0000
,  // measure 32
0010
0220
0000
0330
,  // measure 33
1000
0001
0000
0100
0000
0001
0000
0100
0010
0000
0010
0000
0010
0000
0000
0000
,  // measure 34
1001
0000
0000
0001
0000
0000
0100
0000
0010
0000
0010
0000
1000
0000
1000
0000
,  // measure 35
0100
0001
0100
1000
0010
0010
0100
0100
,  // measure 36
0001
0010
1000
0010
0001
0001
1000
1000
,  // measure 37
0100
0010
0001
0010
0100
1100
0000
0110
,  // measure 38
0000
0000
1001
0000
0001
0001
0100
0100
,  // measure 39
0010
1000
0100
0010
0001
0001
0100
0100
,  // measure 40
0010
1000
0100
0001
0100
0100
1000
1000
,  // measure 41
0001
1000
0000
0010
0000
1000
0000
0010
0100
0000
0100
0000
0100
0000
0000
0000
,  // measure 42
1001
0000
0000
0001
0000
0000
0100
0000
0010
0000
0010
0000
1000
0000
1000
0000
,  // measure 43
0100
0001
0100
1000
0001
0001
0010
0010
,  // measure 44
0001
0100
1000
0100
0001
0001
1000
1000
,  // measure 45
0010
0001
0010
1000
0100
0100
0010
0010
,  // measure 46
0200
0000
1000
0000
1000
1000
1000
1300
,  // measure 47
0020
0000
0100
0000
0100
0100
0100
0130
,  // measure 48
0002
0000
0010
0000
0010
0010
0010
0013
,  // measure 49
0200
2300
3002
0203
,  // measure 50
0300
0000
0000
0000
;

//---------------dance-single - ----------------
#NOTES:
     dance-single:
     :
     Challenge:
     14:
     0.705,0.773,0.339,0.247,0.879: // measure 1
1000
0000
0000
0100
0000
0000
0010
0000
0000
0000
0000
0000
0000
0000
0000
0000
,  // measure 2
0001
0100
0000
0001
0000
1000
0100
0000
0010
0000
0000
0000
0000
0000
0000
0000
,  // measure 3
0001
1000
0000
0100
0000
0010
0100
0000
0000
0000
0000
0000
0000
0000
0000
0000
,  // measure 4
1000
0001
0000
0100
0000
0001
0000
0000
1000
0000
0100
1000
0100
1000
0100
0000
,  // measure 5
0010
0000
0000
0020
0002
0033
0000
0002
0200
0303
0000
0200
2000
3300
0000
2000
,  // measure 6
0200
3300
0000
0200
0002
0303
0000
0002
2000
3003
0000
2000
0020
3030
0000
0020
,  // measure 7
0002
0033
0000
0002
0020
0033
0000
0020
2000
3030
0000
2000
0002
3003
0000
0000
,  // measure 8
1000
0001
0000
0100
0000
0100
0000
0100
0001
0000
0010
0000
0100
0000
0000
0000
,  // measure 9
1010
0000
0000
0010
0100
0000
0010
0000
0000
0000
1000
0000
0100
0000
0001
0000
,  // measure 10
0100
1000
0000
0010
0000
0100
0010
0000
1000
0000
0100
0000
0001
0000
0100
0000
,  // measure 11
1000
0001
0000
0010
0000
0100
0010
0000
0001
0000
0100
0000
1000
0000
0100
0000
,  // measure 12
0001
1000
0000
0001
0000
0100
0001
0000
1000
0000
0100
0010
0100
0000
0010
0000
,  // measure 13
1001
0000
0000
1000
0010
0000
1000
0000
0000
0000
0001
0000
0100
0000
1000
0000
,  // measure 14
0100
0001
0000
0010
0000
0100
0010
0000
0001
0000
0100
0000
1000
0000
0100
0000
,  // measure 15
0001
1000
0000
0100
0000
0010
0100
0000
1000
0000
0001
0000
0100
0000
0000
0000
,  // measure 16
0010
0100
0000
0001
0000
0001
0000
0001
1000
0000
0100
0000
0010
0000
0100
0000
,  // measure 17
1100
0000
0000
1000
0010
0000
1000
0000
0001
0010
0001
0010
0001
0000
1000
0000
,  // measure 18
0001
0100
0000
0010
0000
0100
0001
0000
0100
0010
0100
0010
0100
0000
0010
0000
,  // measure 19
1000
0001
0000
0010
0000
0001
1000
0000
0001
0010
0001
0010
0001
0000
1000
0000
,  // measure 20
0001
0010
0000
0100
0000
0010
0001
0000
0011
0000
1001
0000
1000
0010
0100
0000
,  // measure 21
0110
0000
0000
0010
0100
0000
0001
0000
1000
0100
1000
0100
1000
0000
0001
0000
,  // measure 22
1000
0100
0000
0010
0000
0100
1000
0000
0010
0100
0010
0100
0010
0000
0100
0000
,  // measure 23
0001
1000
0000
0100
0000
1000
0001
0000
0100
0010
0100
0010
0100
0000
0001
0000
,  // measure 24
1000
0100
0000
1000
0001
1000
0000
0001
0010
0001
0000
0100
0010
0000
1000
0000
,  // measure 25
1001
0000
0000
0110
0000
0000
1001
0000
0000
1000
0000
0000
0100
0000
0010
0000
,  // measure 26
0011
0000
0000
0110
0000
0000
0011
0000
0000
0001
0000
0000
1000
0000
0010
0000
,  // measure 27
0110
0000
0000
1001
0000
0000
0110
0000
0000
0100
0000
0000
0001
0000
1000
0000
,  // measure 28
1100
0000
0000
0110
0000
0000
1100
0000
1000
0001
0000
0010
0001
0010
0100
0000
,  // measure 29
1100
0000
0000
0110
0000
0000
0011
0000
0000
0100
0000
0000
1000
0000
0001
0000
,  // measure 30
0000
0000
0101
0000
0000
0110
0000
0110
0000
0000
0010
0000
1000
0000
0001
0000
,  // measure 31
0011
0000
0000
0110
0000
0000
1100
0000
0000
0010
0001
0010
0001
0100
0010
0100
,  // measure 32
0010
2002
0000
3003
,  // measure 33
0001
0100
0000
0010
0000
0010
0000
0010
1000
0000
0100
0000
0010
0000
0000
0000
,  // measure 34
1001
0000
0000
1000
0010
0000
1000
0000
0100
0010
0100
0010
0100
0000
1000
0000
,  // measure 35
0001
1000
0000
0010
0000
1000
0001
0000
0010
0100
0010
0100
0010
0000
0001
0000
,  // measure 36
1000
0100
0000
0010
0000
0100
1000
0000
0001
0100
0001
0100
0001
0000
1000
0000
,  // measure 37
0010
0100
0000
0001
0000
0100
0010
0000
1000
0000
1100
0000
0000
0000
1001
0000
,  // measure 38
0001
0010
0100
0000
0110
0000
0000
0000
0100
1000
0100
1000
0001
0000
0001
0000
,  // measure 39
0100
0010
0000
1000
0000
0001
0100
0000
0010
0100
0010
0100
0001
0000
0001
0000
,  // measure 40
1000
0010
0000
0100
0000
0010
1000
0000
0100
0010
0100
0010
0001
0000
0001
0000
,  // measure 41
0100
0010
0000
1000
0000
1000
0000
1000
0001
0000
0010
0000
0100
0000
0000
0000
,  // measure 42
1001
0000
0000
0001
0100
0000
0001
0000
0010
0100
0010
0100
1000
0000
1000
0000
,  // measure 43
0001
1000
0000
0010
0000
0001
0010
0000
1000
0100
1000
0100
0010
0000
0010
0000
,  // measure 44
0001
1000
0000
0100
0000
0001
0100
0000
1000
0001
1000
0001
0100
0000
0100
0000
,  // measure 45
0010
1000
0000
0001
0000
0010
0001
0000
1000
0100
1000
0100
0010
0000
0100
0000
,  // measure 46
1000
0001
0000
0100
0000
0001
1000
0000
0010
0000
0010
0000
0100
0000
0100
0000
,  // measure 47
0001
0010
0000
0100
0000
0010
0001
0000
0100
0000
0100
0000
0001
0000
0001
0000
,  // measure 48
0010
0100
0000
1000
0000
0100
0010
0000
1000
0000
1000
0000
0001
0000
0001
0000
,  // measure 49
0100
0001
0000
1000
0000
0100
1000
0000
0001
0000
0000
0000
0000
0000
0000
0000
;

//---------------dance-single - ----------------
#NOTES:
     dance-single:
     :
     Beginner:
     2:
     0.088,0.148,0.123,0.000,0.000:
1001
0000
0000
0000
,
0000
0000
0000
0000
,
1000
0000
0000
0000
,
0000
0000
0000
0000
,
0001
0000
0000
0000
,
0010
0000
0000
0000
,
0100
0000
0000
0000
,
1000
0000
0000
0000
,
1001
0000
0000
0000
,
0001
0000
0000
0000
,
0100
0000
0000
0000
,
0001
0000
0000
0000
,
1001
0000
0000
0000
,
1000
0000
0000
0000
,
0010
0000
0000
0000
,
1000
0000
0000
0000
,
1001
0000
0000
0000
,
0001
0000
0000
0000
,
0010
0000
0000
0000
,
0100
0000
0000
0000
,
1000
0000
0000
0000
,
0001
0000
0000
0000
,
0010
0000
0000
0000
,
0100
0000
0100
0000
,
0110
0000
0000
0000
,
0110
0000
0000
0000
,
1001
0000
0000
0000
,
1001
0000
0000
0000
,
1000
0000
0000
0000
,
0010
0000
0000
0000
,
0100
0000
0000
0000
,
0000
0001
0000
0000
,
1000
0000
0000
0000
,
1001
0000
0000
0000
,
0001
0000
0000
0000
,
0010
0000
0000
0000
,
0100
0000
0000
0000
,
0000
1001
0000
0000
,
1000
0000
0000
0000
,
0100
0000
0000
0000
,
1000
0000
0000
0000
,
1001
0000
0000
0000
,
0010
0000
0000
0000
,
0100
0000
0000
0000
,
0010
0000
0000
0000
,
0110
0000
0000
0000
,
0010
0000
0000
0000
,
0010
0000
0000
0000
,
1000
0000
0000
0000
;
