#TITLE:THE DAY;
#SUBTITLE:;
#ARTIST:ポルノグラフィティ;
#TITLETRANSLIT:;
#SUBTITLETRANSLIT:;
#ARTISTTRANSLIT:Porno Graffitti;
#CREDIT:DigiMindAxel;
#BANNER:THE DAY.png;
#BACKGROUND:THE DAY-bg.png;
#LYRICSPATH:THE DAY.lrc;
#CDTITLE:DigiMindAxel original simfile.png;
#MUSIC:THE DAY.ogg;
#METERTYPE:DDR X;
#OFFSET:-0.639;
#SAMPLESTART:62.398;
#SAMPLELENGTH:12.000;
#SELECTABLE:YES;
#BPMS:0.000=186.000;
#STOPS:;
#BGCHANGES:-1.000=THE DAY.avi=1.000=1=1=0,
99999=-nosongbg-=1.000=0=0=0 // don't automatically add -songbackground-
;

//---------------dance-single - ----------------
#NOTES:
     dance-single:
     :
     Easy:
     3:
     0.154,0.263,0.142,0.022,0.000:
0000
0000
0000
0000
,
0000
0000
0000
0000
,
0000
0000
0000
0000
,
0000
0000
0000
0000
,
0000
0000
0000
0000
,
0000
0000
0000
0000
,
0000
0000
0000
0000
,
0000
0000
0000
0000
,
0000
0000
0000
0000
,
0000
0000
0000
0000
,
1001
0000
0000
0000
,
0000
0000
0000
0000
,
0001
0000
1000
0000
,
0001
0000
1000
0000
,
0100
0000
0010
0000
,
0001
0000
1000
0000
,
0001
0000
1000
0000
,
0001
0000
1000
0000
,
0010
0000
0100
0010
,
0000
0000
0000
0000
,
1001
0000
0000
0000
,
0001
0000
0000
0000
,
0001
0000
0000
0000
,
0001
0000
0000
0000
,
1000
0000
0000
0000
,
1000
0000
0000
0000
,
1000
0000
0000
0000
,
1001
0000
0000
0000
,
0100
0000
0100
0000
,
0100
0000
0100
0000
,
0010
0000
0010
0000
,
0010
0000
0010
0000
,
0100
0000
0100
0000
,
0100
0000
0100
0000
,
0010
0000
0010
0000
,
0010
0000
0000
0000
,
0110
0000
0000
0000
,
0000
0000
0000
0000
,
1000
0000
0000
0000
,
0000
0000
0000
0000
,
0001
0000
0000
0000
,
0000
0000
0000
0000
,
1001
0000
0000
0000
,
1000
0000
0000
0000
,
1001
0000
0000
0000
,
0001
0000
0000
0000
,
1001
0000
0000
0000
,
0000
0000
0000
0000
,
0010
0000
0100
0000
,
0010
0000
0100
0000
,
0001
0000
0001
0000
,
1000
0000
1000
0000
,
0001
0000
0010
0000
,
0100
0000
1000
0000
,
0001
0000
0010
0000
,
0110
0000
0000
0000
,
1000
0000
0001
0000
,
1000
0000
0001
0000
,
0100
0000
0001
0000
,
0100
0000
0100
0000
,
0001
0000
0010
0000
,
0100
0000
1000
0000
,
0001
0000
0001
0000
,
1001
0000
0000
0000
,
0110
0000
0000
0000
,
0110
0000
0000
0000
,
0110
0000
0000
0000
,
1000
0001
1000
2002
,
0000
0000
0000
0000
,
3003
0000
0000
0000
;

//---------------dance-single - ----------------
#NOTES:
     dance-single:
     :
     Medium:
     7:
     0.352,0.526,0.153,0.065,0.000:
0000
0000
0000
0000
,
0000
0000
0000
0000
,
0000
0000
0000
0000
,
0000
0000
0000
0000
,
0000
0000
0000
0000
,
0000
0000
0000
0000
,
0000
0000
0000
0000
,
0000
0000
0000
0000
,
0000
0000
0000
0000
,
0000
0000
0000
0000
,
1001
0000
0000
0001
0000
0000
0001
0000
,
0000
1000
0000
0000
1000
0000
1000
0000
,
0001
0100
0001
1000
,
0001
0100
0001
1000
,
0100
0010
0100
1000
,
0100
0010
0100
1000
,
0010
0100
0010
1000
,
0010
0100
0010
1000
,
0001
0000
0010
0000
0000
1100
0000
1100
,
0000
0000
0000
0000
0000
1001
0000
0000
,
0001
1000
0000
0000
0000
0000
0000
0000
,
0001
1000
0000
0000
0000
0000
0000
0000
,
0100
0010
0000
0000
0000
0000
0000
0000
,
0100
0010
0000
0000
0000
0000
0000
0000
,
0001
0100
0000
0000
0000
0000
0000
0000
,
0001
0100
0000
0000
0000
0000
0000
0000
,
0001
1000
0000
0000
0000
0000
0000
0000
,
0001
1000
0001
1000
0000
0000
0000
0000
,
0001
1000
0001
1000
,
0001
1000
0001
1000
,
0010
1000
0010
1000
,
0010
1000
0010
1000
,
0100
0010
0100
0010
,
0100
0010
0100
0010
,
0001
0100
0001
0100
,
0001
0000
0000
0000
0000
1001
0000
0000
,
2000
0000
0000
0100
,
3100
0000
0010
0100
,
0002
0000
0000
0010
,
0013
0000
0100
0010
,
2000
0000
0000
0001
,
3001
0000
1000
0100
,
0010
0000
0000
0001
0000
0000
0100
0000
,
0020
0000
0130
0000
,
1001
0000
0000
1001
0000
0000
0000
1000
,
0000
0000
0001
1000
,
0100
0000
0000
0100
0000
0000
0010
0000
,
0000
0010
0000
0000
1001
0000
0000
0000
,
0001
1000
0001
0000
0010
0000
0100
0000
,
1000
0010
1000
0000
0001
0000
0100
0000
,
0010
0100
0010
0000
1000
0000
0100
0000
,
0010
0001
0010
0000
0001
0000
1000
0000
,
0001
0001
0100
0100
,
0001
0000
0010
0000
0100
1000
0100
1000
,
0010
0100
0001
1000
,
1001
1001
0000
0000
,
0010
1000
0010
0000
1000
0000
0001
0000
,
0100
0010
0100
0000
0001
0000
0010
0000
,
0100
1000
0100
0000
1000
0000
0001
0000
,
0100
0001
0100
0000
0010
0000
1000
0000
,
0001
0001
1000
1000
,
0100
0000
0010
0000
0001
0100
0001
0100
,
0010
1000
0100
0010
,
1001
1001
0000
0100
,
0100
1000
0100
0000
0010
0100
0010
0000
,
0001
1000
0001
0000
1000
0010
1000
0000
,
1001
0000
0000
0001
0000
0000
0010
0000
,
0100
0000
1000
0000
1010
0000
0020
0200
,
0000
0000
0000
0000
,
0330
0000
0000
0000
;

//---------------dance-single - ----------------
#NOTES:
     dance-single:
     :
     Hard:
     10:
     0.526,0.639,0.240,0.185,0.038:
0000
0000
0000
0000
,
0000
0000
0000
0000
,
0000
0000
0000
0000
,
0000
0000
0000
0000
,
0000
0000
0000
0000
,
0000
0000
0000
0000
,
0000
0000
0000
0000
,
0000
0000
0000
0000
,
0000
0000
0000
0000
,
0000
0000
0000
0000
,
1010
0000
0010
0100
0000
0001
0010
0000
,
0001
1000
0000
0010
0100
0000
0110
0000
,
0200
0000
0001
0000
0301
0010
0100
1000
,
0001
0100
0001
0000
1000
0100
1000
0010
,
0200
0000
0001
0000
0301
1000
0100
0010
,
0001
1000
0001
0000
1000
0100
1000
0000
,
0020
0000
0100
0000
0130
0001
0100
0010
,
1000
0001
1000
0000
0001
0010
0001
0100
,
0010
0100
0001
1001
0000
0110
0000
0220
,
0000
0000
0000
0330
0000
1002
0000
0000
,
1000
1003
0000
0000
0000
0000
0000
0000
,
0010
0010
0000
0000
0000
0000
0000
0000
,
1000
1000
0000
0000
0000
0000
0000
0000
,
0001
0001
0000
0000
0000
0200
0000
0000
,
0010
0310
0000
0000
0000
0000
0000
0000
,
0100
0100
0000
0000
0000
0000
0000
0000
,
0001
0001
0000
0000
0000
0000
0000
0000
,
0010
0100
1000
1001
0000
0000
0000
0000
,
0100
0010
0100
0000
0001
0010
0100
0000
,
1000
0001
1000
0000
0100
1000
0001
0000
,
0100
0001
0100
0000
0001
1000
0100
0000
,
0010
0100
0010
0000
0001
1001
0000
0000
,
1000
0010
1000
0000
0010
0100
0001
0000
,
1000
0100
1000
0000
0001
1000
0100
0000
,
0010
0100
0010
0001
0100
0010
0100
0000
,
0001
0010
0100
1000
0000
1002
0000
0000
,
0103
0000
0001
0100
0000
0001
1000
0000
,
0100
0010
0100
0100
,
0010
0000
0001
1000
0000
0001
1000
0000
,
0100
0010
0001
0001
,
1000
0000
0100
1000
0000
0100
1000
0000
,
0010
0100
0010
0010
,
1001
0000
0001
0010
0000
0010
0000
0010
,
0100
1000
0010
0000
0100
0010
0100
0000
,
1001
0000
1000
0010
0000
0010
0000
0010
,
0000
0110
0100
0100
,
1002
0000
0000
0203
0000
0000
0302
0000
,
0000
2003
0000
0000
3200
0000
1000
0000
,
1300
0010
0100
1000
0100
0010
1000
0000
,
0010
1000
0100
0001
0100
1000
0001
0000
,
0100
0001
0010
0100
0010
0001
1000
0000
,
0010
1000
0100
0001
0100
1000
0001
0000
,
0010
0100
1000
0000
1000
0001
0100
0000
,
0101
0000
1100
0000
1000
0100
0001
0100
,
1000
0010
0100
0000
0100
0001
0010
0000
,
0100
2002
0000
3003
,
0001
0100
0010
0001
0010
0100
0001
0000
,
0100
0001
0010
1000
0010
0001
1000
0000
,
0001
0100
0001
1000
0100
1000
0010
0000
,
0100
0001
0010
1000
0010
0001
1000
0000
,
0010
1000
0100
0000
0100
0010
0100
0000
,
1000
0000
1000
0001
0010
0100
1000
0001
,
0010
0000
1000
0010
0001
0000
1000
0010
,
0110
0110
0000
0100
,
0100
0000
0000
0100
0001
0000
0000
0001
0100
0000
0000
0100
1000
0000
0000
1000
,
0100
0000
0000
0100
0001
0000
0000
0001
1000
0000
0000
1000
0100
0000
0000
0000
,
1001
1000
0100
0001
1000
0010
0001
0100
,
0110
0000
1010
0000
1100
0000
2000
0002
,
0000
0000
0000
0000
,
3003
0000
0000
0000
;

//---------------dance-double - ----------------
#NOTES:
     dance-double:
     :
     Easy:
     4:
     0.177,0.338,0.131,0.109,0.000:
00000000
00000000
00000000
00000000
,
00000000
00000000
00000000
00000000
,
00000000
00000000
00000000
00000000
,
00000000
00000000
00000000
00000000
,
00000000
00000000
00000000
00000000
,
00000000
00000000
00000000
00000000
,
00000000
00000000
00000000
00000000
,
00000000
00000000
00000000
00000000
,
00000000
00000000
00000000
00000000
,
00000000
00000000
00000000
00000000
,
20020000
00000000
00000000
00000000
,
00000000
00000000
00000000
30030000
,
00010000
00000000
01000000
00000000
,
00100000
00000000
01000000
00000000
,
00010000
00000000
10000000
00000000
,
01000000
00000000
00100000
00000000
,
00001000
00000000
00010000
00000000
,
00001000
00000000
00010000
00000000
,
00000010
00000000
00000000
00000000
00000000
00000100
00000000
00000010
,
00000000
00000000
00000000
00000000
,
00001001
00000000
00000000
00000000
,
00000001
00000000
00000000
00000000
,
00000001
00000000
00000000
00000000
,
00000001
00000000
00000000
00000000
,
00010000
00000000
00000000
00000000
,
00010000
00000000
00000000
00000000
,
00010000
00000000
00000000
00000000
,
00011000
00000000
00000000
00000000
,
00010000
00000000
00010000
00000000
,
00010000
00000000
00010000
00000000
,
10000000
00000000
10000000
00000000
,
10000000
00000000
10000000
00000000
,
00010000
00000000
00010000
00000000
,
00010000
00000000
00010000
00000000
,
10000000
00000000
01000000
00000000
,
00100000
00000000
00000000
00000000
,
10010000
00000000
00000000
00000000
,
00000000
00000000
00000000
00000000
,
00010000
00000000
00000000
00000000
,
00000000
00000000
00000000
00000000
,
00100000
00000000
00000000
00000000
,
00000000
00000000
00000000
00000000
,
00011000
00000000
00000000
00000000
,
00010000
00000000
00000000
00000000
,
00011000
00000000
00000000
00000000
,
00000010
00000000
00000000
00000000
,
00000220
00000000
00000000
00000000
,
00000000
00000000
00000000
00000330
,
00000010
00001000
00000010
00000000
,
00001000
00000010
00001000
00000000
,
00000001
00001000
00000001
00000000
,
00001000
00000001
00001000
00000000
,
00000100
00000000
00000010
00000000
,
00000100
00000000
00010000
00000000
,
00001000
00000000
00100000
00000000
,
01100000
00000000
00000000
00000000
,
01000000
10000000
01000000
00000000
,
10000000
01000000
10000000
00000000
,
00010000
10000000
00010000
00000000
,
10000000
00010000
10000000
00000000
,
00100000
00000000
01000000
00000000
,
00010000
00000000
00001000
00000000
,
00000010
00000000
00000100
00000000
,
00000110
00000000
00000000
00000000
,
00002001
00000000
00000000
00000000
,
00000200
00000000
00000000
00003300
,
00002002
00000000
00000000
00003003
,
00000001
00000010
00000100
00022000
,
00000000
00000000
00000000
00000000
,
00033000
00000000
00000000
00000000
;

//---------------dance-double - ----------------
#NOTES:
     dance-double:
     :
     Medium:
     7:
     0.392,0.526,0.174,0.174,0.000:
00000000
00000000
00000000
00000000
,
00000000
00000000
00000000
00000000
,
00000000
00000000
00000000
00000000
,
00000000
00000000
00000000
00000000
,
00000000
00000000
00000000
00000000
,
00000000
00000000
00000000
00000000
,
00000000
00000000
00000000
00000000
,
00000000
00000000
00000000
00000000
,
00000000
00000000
00000000
00000000
,
00000000
00000000
00000000
00000000
,
20010000
00000000
00000000
30020000
00000000
00000000
02030000
00000000
,
00000000
03002000
00000000
00000000
00013000
00000000
00010000
00000000
,
00010010
00000100
00000010
00000100
,
00000001
00001000
00000100
00001000
,
00000001
00000010
00000100
00010000
,
00001000
00010000
00000100
00010000
,
00001000
01000000
00100000
01000000
,
00001000
00010000
00001000
00100000
,
01000000
00000000
10000000
00000000
00000000
10100000
00000000
10100000
,
00000000
00000000
00000000
00000000
00000000
01100000
00000000
00000000
,
01000000
00100000
00000000
00000000
00000000
00000000
00000000
00000000
,
01000000
00100000
00000000
00000000
00000000
00000000
00000000
00000000
,
00001000
00010000
00000000
00000000
00000000
00000000
00000000
00000000
,
00001000
00010000
00000000
00000000
00000000
00000000
00000000
00000000
,
00000100
00000010
00000000
00000000
00000000
00000000
00000000
00000000
,
00000100
00000010
00000000
00000000
00000000
00000000
00000000
00000000
,
00000001
00000100
00000000
00000000
00000000
00000000
00000000
00000000
,
00000001
00000100
00000001
00001000
00000000
00000000
00000000
00000000
,
00011000
00001000
01000000
00001000
,
01000000
00100000
01000000
00100000
,
10000000
01000000
10000000
01000000
,
00100000
00001000
00100000
00001000
,
00010000
00000010
00010000
00000010
,
00000100
00000001
00000100
00000001
,
00000010
00000100
00000010
00000100
,
00010000
00000000
00001000
00010000
00000000
00011000
00000000
00000000
,
01200000
00000000
00000000
10000000
,
10300000
00000000
00010000
10000000
,
02100000
00000000
00000000
00100000
,
03100000
00000000
00010000
00001000
,
00000201
00000000
00000000
00000010
,
00000310
00000000
00010000
00001000
,
00100000
00000000
01000000
00100000
00000000
01000000
00100000
00000000
,
00020000
00000000
10030000
00000000
,
01100000
00000000
00000000
01100000
00000000
00000000
00000000
00100000
,
00000000
00000000
01000000
00100000
,
20000000
00000000
00000000
32000000
00000000
00000000
23000000
00000000
,
00000000
30020000
00000000
00000000
01030000
00000000
00000000
00000000
,
00001000
00010000
00001000
00000000
00010000
00000000
00000010
00000000
,
00010000
00001000
00010000
00000000
00001000
00000000
01000000
00000000
,
00010000
10000000
00010000
00000000
00100000
00000000
01000000
00000000
,
00100000
00001000
00100000
00000000
00010000
00000000
00001000
00000000
,
00000100
00000010
00000100
00000000
00000010
00000001
00000010
00000000
,
00000001
00001000
00000001
00000000
00001000
00000010
00001000
00000010
,
00010000
00000000
00001000
00010000
00001000
00000000
01000000
00100000
,
10000000
10100000
00000000
00000000
,
00010000
00100000
00010000
00000000
00100000
00000000
01000000
00000000
,
10000000
00010000
10000000
00000000
00100000
00000000
01000000
00000000
,
00001000
00100000
00001000
00000000
00010000
00000000
00000010
00000000
,
00000100
00000001
00000100
00000000
00000001
00000000
00001000
00000000
,
00000100
00001000
00000100
00000000
00000010
00000100
00000010
00000000
,
00000001
00000100
00000001
00000000
00000010
00000100
00000010
00000100
,
00010000
00000000
00001000
01000000
00001000
00000000
01000000
00100000
,
01000000
01100000
00000000
10000000
,
10000000
00100000
10000000
00000000
01000000
00100000
01000000
00000000
,
00100000
00001000
00100000
00000000
00001000
00010000
00000010
00000000
,
00000210
00000000
00000000
00000302
00000000
00000000
00000013
00000000
,
00000100
00000000
00010000
00000000
00011000
00000000
02000000
00200000
,
00000000
00000000
00000000
00000000
,
03300000
00000000
00000000
00000000
;

//---------------dance-double - ----------------
#NOTES:
     dance-double:
     :
     Hard:
     10:
     0.523,0.639,0.218,0.142,0.038:
00000000
00000000
00000000
00000000
,
00000000
00000000
00000000
00000000
,
00000000
00000000
00000000
00000000
,
00000000
00000000
00000000
00000000
,
00000000
00000000
00000000
00000000
,
00000000
00000000
00000000
00000000
,
00000000
00000000
00000000
00000000
,
00000000
00000000
00000000
00000000
,
00000000
00000000
00000000
00000000
,
00000000
00000000
00000000
00000000
,
10010000
00000000
10000000
00100000
00000000
00100000
01000000
00000000
,
01000000
00010000
00000000
00010000
00001000
00000000
00000110
00000000
,
00000010
00000001
00000010
00000000
00000100
00000010
00000001
00001000
,
00000010
00000100
00000010
00000000
00010000
00001000
00100000
01000000
,
10000000
00100000
10000000
00000000
00010000
10000000
01000000
10000000
,
00100000
01000000
00100000
00000000
01000000
00010000
01000000
00000000
,
00001000
00010000
00001000
00000000
00010000
00000010
00000100
00000010
,
00010000
00000001
00000010
00000000
00000100
00000010
00000001
00001000
,
00000100
00010000
00100000
01100000
00000000
10010000
00000000
20020000
,
00000000
00000000
00000000
30030000
00000000
01200000
00000000
00000000
,
01300000
00010000
00000000
00000000
00000000
00000000
00000000
00000000
,
00001000
00010000
00000000
00000000
00000000
00000000
00000000
00000000
,
00000010
00000100
00000000
00000000
00000000
00000000
00000000
00000000
,
00010000
00001000
00000000
00000000
00000000
00200000
00000000
00000000
,
01300000
10000000
00000000
00000000
00000000
00000000
00000000
00000000
,
00001000
01000000
00000000
00000000
00000000
00000000
00000000
00000000
,
00000100
00000010
00000000
00000000
00000000
00000000
00000000
00000000
,
00000001
00000010
00000100
00011000
00000000
00000000
00000000
00000000
,
00010000
00001000
00010000
00000000
00001000
01000000
00001000
00000000
,
01000000
00100000
01000000
00000000
00100000
10000000
00100000
00000000
,
10000000
00010000
10000000
00000000
00001000
01000000
00001000
00000000
,
00010000
00001000
00010000
00000000
00000100
00000110
00000000
00000000
,
00000010
00000001
00000010
00000000
00000001
00000010
00000100
00000000
,
00010000
00000100
00010000
00000000
00001000
01000000
00100000
00000000
,
10000000
00010000
10000000
01000000
10000000
00010000
01000000
00000000
,
00001000
00010000
00000100
00000010
00000000
00000012
00000000
00000000
,
00000013
00000000
00000100
00000010
00000000
00000001
00000100
00000000
,
00000010
00010000
00001000
00001000
,
00100000
00000000
01000000
10000000
00000000
00100000
01000000
00000000
,
00010000
01000000
00001000
00001000
,
00010000
00000000
00000100
00000010
00000000
00000001
00000100
00000000
,
00000001
00001000
00010000
00010000
,
01100000
00000000
00100000
10000000
00000000
10000000
00000000
10000000
,
00010000
00100000
01000000
00000000
00100000
00010000
00100000
00000000
,
00011000
00000000
00010000
00000010
00000000
00000010
00000000
00000010
,
00000000
00001001
00001000
00001000
,
00001020
00000000
00000000
00020030
00000000
00000000
00032000
00000000
,
00000000
02003000
00000000
00000000
00100000
00000000
03100000
00000000
,
10000000
00010000
01000000
00010000
10000000
01000000
00100000
00000000
,
00001000
00010000
00000100
00000001
00000100
00010000
00001000
00000000
,
00010000
00000100
00000010
00000001
00000100
00000001
00010000
00000000
,
00001000
01000000
10000000
01000000
00001000
01000000
00100000
00000000
,
10000000
01000000
00100000
00000000
00100000
00001000
00010000
00000000
,
00001000
00010000
00000010
00000000
00000100
00000001
00000010
00000100
,
00010000
00001000
00100000
00000000
01000000
10000000
00001000
00000000
,
00010000
00022000
00000000
00033000
,
00010000
00000100
00000010
00000100
00010000
00000001
00010000
00000000
,
00001000
00100000
10000000
00100000
00001000
00010000
00001000
00000000
,
00100000
01000000
10000000
01000000
00010000
01000000
10000000
00000000
,
00001000
00010000
00000010
00000001
00000010
00010000
00000100
00000000
,
00000010
00000001
00000100
00000000
00000100
00000010
00010000
00000000
,
00001000
00000000
00001000
00100000
01000000
10000000
01000000
00100000
,
00001000
00000000
00010000
00000100
00000010
00000000
00000001
00010000
,
00010010
00011000
00000000
01000000
,
01000000
00000000
00000000
01000000
00100000
00000000
00000000
00100000
00010000
00000000
00000000
00010000
01000000
00000000
00000000
01000000
,
00001000
00000000
00000000
00001000
00010000
00000000
00000000
00010000
00000010
00000000
00000000
00000010
00000100
00000000
00000000
00000000
,
00001001
00000010
00000100
00001000
01000000
00100000
10000000
00010000
,
10010000
00000000
01001000
00000000
00011000
00000000
00020000
00000020
,
00000000
00000000
00000000
00000000
,
00030030
00000000
00000000
00000000
;

//---------------dance-single - ----------------
#NOTES:
     dance-single:
     :
     Beginner:
     2:
     0.089,0.148,0.054,0.000,0.000: // measure 1
0000
0000
0000
0000
,  // measure 2
0000
0000
0000
0000
,  // measure 3
0000
0000
0000
0000
,  // measure 4
0000
0000
0000
0000
,  // measure 5
0000
0000
0000
0000
,  // measure 6
0000
0000
0000
0000
,  // measure 7
0000
0000
0000
0000
,  // measure 8
0000
0000
0000
0000
,  // measure 9
0000
0000
0000
0000
,  // measure 10
0000
0000
0000
0000
,  // measure 11
1001
0000
0000
0000
,  // measure 12
0000
0000
0000
0000
,  // measure 13
0010
0000
0000
0000
,  // measure 14
0100
0000
0000
0000
,  // measure 15
0010
0000
0000
0000
,  // measure 16
0100
0000
0000
0000
,  // measure 17
0001
0000
0000
0000
,  // measure 18
0010
0000
0000
0000
,  // measure 19
0001
0000
0000
0000
,  // measure 20
0010
0000
0000
0000
,  // measure 21
1001
0000
0000
0000
,  // measure 22
1000
0000
0000
0000
,  // measure 23
1000
0000
0000
0000
,  // measure 24
1000
0000
0000
0000
,  // measure 25
0001
0000
0000
0000
,  // measure 26
0001
0000
0000
0000
,  // measure 27
0001
0000
0000
0000
,  // measure 28
0001
0000
0000
0000
,  // measure 29
1000
0000
0000
0000
,  // measure 30
0100
0000
0000
0000
,  // measure 31
1000
0000
0000
0000
,  // measure 32
0010
0000
0000
0000
,  // measure 33
1000
0000
0000
0000
,  // measure 34
0100
0000
0000
0000
,  // measure 35
1000
0000
0000
0000
,  // measure 36
0001
0000
0000
0000
,  // measure 37
0100
0000
0000
0000
,  // measure 38
0000
0000
0000
0000
,  // measure 39
0100
0000
0000
0000
,  // measure 40
0000
0000
0000
0000
,  // measure 41
0010
0000
0000
0000
,  // measure 42
0000
0000
0000
0000
,  // measure 43
0010
0000
0000
0000
,  // measure 44
0000
0000
0000
0000
,  // measure 45
0100
0000
0000
0000
,  // measure 46
0000
0000
0000
0000
,  // measure 47
0010
0000
0000
0000
,  // measure 48
0000
0000
0000
0000
,  // measure 49
1001
0000
0000
0000
,  // measure 50
0001
0000
0000
0000
,  // measure 51
0100
0000
0000
0000
,  // measure 52
0001
0000
0000
0000
,  // measure 53
1000
0000
0000
0000
,  // measure 54
1000
0000
0000
0000
,  // measure 55
0001
0000
0000
0000
,  // measure 56
1001
0000
0000
0000
,  // measure 57
0100
0000
0000
0000
,  // measure 58
0100
0000
0000
0000
,  // measure 59
0010
0000
0000
0000
,  // measure 60
0010
0000
0000
0000
,  // measure 61
1000
0000
0000
0000
,  // measure 62
0100
0000
0000
0000
,  // measure 63
0010
0000
0000
0000
,  // measure 64
1001
0000
0000
0000
,  // measure 65
0001
0000
0000
0000
,  // measure 66
0001
0000
0000
0000
,  // measure 67
1000
0000
0000
0000
,  // measure 68
1000
0000
0000
0010
;
