#TITLE:THE CANNONBALLER;
#SUBTITLE:;
#ARTIST:L.E.D. feat. YURiCa/花たん;
#TITLETRANSLIT:;
#SUBTITLETRANSLIT:;
#ARTISTTRANSLIT:L.E.D. feat. YURiCa/HANATAN;
#CREDIT:DigiMindAxel;
#BANNER:THE CANNONBALLER.png;
#BACKGROUND:THE CANNONBALLER-bg.png;
#LYRICSPATH:THE CANNONBALLER.lrc;
#CDTITLE:beatmania IIDX.png;
#MUSIC:THE CANNONBALLER.ogg;
#METERTYPE:DDR X;
#OFFSET:-1.089;
#SAMPLESTART:49.946;
#SAMPLELENGTH:12.000;
#SELECTABLE:YES;
#BPMS:0.000=170.000;
#STOPS:;
#BGCHANGES:-4.000=THE CANNONBALLER.avi=1.000=1=1=0,
99999=-nosongbg-=1.000=0=0=0 // don't automatically add -songbackground-
;

//---------------dance-single - ----------------
#NOTES:
     dance-single:
     :
     Easy:
     5:
     0.258,0.272,0.022,0.051,0.000:
0000
0000
0000
0000
,
0000
0000
0000
0000
,
0000
0000
0000
0000
,
0000
0000
0000
0000
,
0000
0000
0000
0000
,
1000
1000
1000
0000
,
0001
0100
0001
0000
,
0010
0010
0010
0000
,
0100
1000
0100
1000
,
0001
0000
0100
0000
,
0001
0000
0100
0000
,
0001
0000
1000
0000
,
0001
0000
1000
0000
,
0100
0000
0010
0000
,
0100
0000
0010
0000
,
0100
0000
1000
0000
,
0100
1000
0100
1000
,
0001
0000
0100
0000
,
0010
0000
0100
0000
,
0001
0000
1000
0000
,
0100
0000
1000
0000
,
0001
0000
0010
0000
,
0100
0000
0010
0000
,
0001
0000
0100
0000
,
0001
0000
1000
0000
,
0001
1000
0001
0000
,
1000
0001
1000
0000
,
0100
1000
0100
1000
,
0010
0100
0010
0000
,
0100
0001
0100
0000
,
0001
1000
0001
0000
,
0010
0001
0100
0010
,
0100
0010
1000
0100
,
0020
0000
0000
0000
,
0031
0000
0000
0000
,
1000
0100
0010
0001
,
1000
0000
1000
0000
,
0001
0010
0100
1000
,
0001
0000
0001
0000
,
0100
0010
0100
0001
,
0100
0000
0100
0000
,
0010
0100
0010
1000
,
0010
0000
0000
0000
,
1000
0100
0010
0001
,
1000
0000
1000
0000
,
0001
0100
0010
1000
,
0001
0000
0001
0000
,
0010
0001
0100
0010
,
0200
0000
0000
0000
,
0310
0100
0010
1000
,
0002
0000
0000
0003
,
1000
0100
1000
0000
,
0001
0100
0010
0000
,
0100
0010
0100
0000
,
0001
1000
0100
0000
,
0010
0100
0010
0000
,
0001
0100
0010
0000
,
1000
0001
1000
0100
,
1000
0001
0001
0001
,
2000
0000
0000
0000
,
0000
0000
0000
0000
,
3002
0000
0000
0000
,
0000
0000
0000
0000
,
1003
0001
1000
0001
,
1000
0100
1000
0100
,
1001
0000
0000
0000
0000
0000
0000
0110
,
0000
0000
0000
0000
,
0001
1000
0001
1000
,
0100
0000
0010
0000
,
0001
0100
0001
0100
,
0010
0000
1000
0000
,
0100
0010
0001
0010
,
0100
0000
1000
0000
,
0010
0100
0001
0100
,
0010
0000
0000
0000
,
1000
0001
1000
0001
,
0010
0000
0100
0000
,
1000
0010
1000
0010
,
0100
0000
0001
0000
,
0010
0100
0010
0100
,
1000
0000
0001
0000
,
0100
0001
0100
0001
,
1000
0100
0010
0001
,
1000
1000
1000
0000
,
0100
1000
0010
0100
,
0001
0001
0001
0000
,
0010
0001
0100
0010
,
1000
1000
1000
0000
,
0100
0010
0001
0010
,
0100
0100
0100
0000
,
1000
0010
0100
0001
,
0000
2002
0000
0000
,
0000
0000
0000
0000
,
3003
0000
0000
0000
;

//---------------dance-single - ----------------
#NOTES:
     dance-single:
     :
     Medium:
     10:
     0.495,0.544,0.205,0.132,0.007:
0000
0000
0000
0000
,
0000
0000
0000
0000
,
0000
0000
0000
0000
,
0000
0000
0000
0000
,
0000
0000
0000
0000
,
1000
0001
1000
0001
1000
0100
0000
0010
,
0000
0010
0100
0000
2000
0000
3020
0000
,
0130
0001
0100
0001
0100
0010
0000
1000
,
0000
1000
0001
0000
0020
0000
0230
0000
,
1300
0001
1000
0001
,
0100
0001
0100
0001
,
1000
0100
1000
0100
,
0020
0032
0023
0230
,
1300
0010
1000
0010
,
1000
0001
1000
0001
,
0010
0100
0010
0100
,
2000
3020
0230
0302
,
0013
0100
0010
0100
,
1000
0001
0100
0001
,
1000
0100
0010
0100
,
2000
3020
0230
0302
,
0013
0100
0010
0100
,
1000
0001
0100
0001
,
1000
0001
0010
0100
,
0010
0000
0001
0000
0100
0010
0100
0010
,
1000
0000
1001
0000
0001
0100
0010
0000
,
0100
0000
0110
0000
0010
1000
0100
0000
,
0011
0011
1100
1100
,
0110
0000
1001
0000
0001
0010
0100
0000
,
0010
0001
0010
0001
1000
0000
0010
0000
,
0100
0001
0100
0001
1000
0000
0100
0000
,
0010
1001
0010
1001
,
0110
0000
0000
0000
0110
0000
0000
0000
0100
0000
0000
0001
0000
0000
1000
0000
,
0100
0100
0010
0010
,
0001
0000
0000
1000
0000
0000
0010
0000
0000
0000
0000
0000
0000
0000
0000
0000
,
0100
0001
0010
0000
0001
0010
0100
0000
,
1000
0010
1000
0010
1000
0000
0000
0000
,
0001
0010
0100
0000
0010
0001
0100
0000
,
0010
1000
0010
1000
0010
0000
0100
0000
,
0001
1000
0100
0000
1000
0100
0010
0000
,
0001
0010
0001
0010
0001
0000
0000
0000
,
1000
0001
0010
0000
0001
0010
0100
0000
,
0000
1000
0001
1000
0001
0000
0000
0000
,
0010
0001
0100
0000
0010
1000
0100
0000
,
0010
0100
0010
0100
0010
0000
0000
0000
,
0001
0100
0010
0000
0100
0010
1000
0000
,
0100
0010
0100
0010
0100
0000
1000
0000
,
0001
1000
0010
0000
0100
0001
1000
0000
,
0100
1000
0100
1000
0100
0000
0010
0000
,
0001
1000
0001
0000
1000
0010
0100
0001
,
0000
1000
0001
1000
0001
0000
0000
0000
,
0010
0100
0010
0100
0010
0001
0000
0100
,
0000
0100
0010
0000
1000
0000
0100
0000
,
0010
0100
0010
0100
0010
0001
0000
1000
,
0000
1000
0010
0000
0100
0000
0001
0000
,
1000
0100
1000
0100
1000
0001
0000
0010
,
0000
0010
0100
0000
1000
0000
0001
0000
,
0100
0001
0100
0001
0100
0010
0000
1000
,
0000
1000
0001
0000
0010
0000
0100
0000
,
1001
0000
0001
0000
,
0001
0000
0001
0000
,
1000
0000
1000
0000
,
1000
0000
1000
0000
,
0100
1000
0100
1000
0100
0000
0010
0000
,
0001
0100
0001
0100
0001
0000
1000
0000
,
1100
0000
0010
0100
0000
0001
0000
1001
,
0000
0000
0000
0000
,
1000
0010
0100
0010
1000
0000
0010
0000
,
0100
0001
0100
0001
1000
0000
0100
0000
,
0010
0100
1000
0100
0010
0000
0001
0000
,
0010
0100
0010
0100
1000
0000
0001
0000
,
0100
0001
0010
0001
0100
0000
0010
0000
,
1000
0100
1000
0100
0010
0000
0100
0000
,
1000
0001
0100
0000
0001
0100
0010
1000
,
0000
0100
0010
0100
0010
0000
0000
0000
,
0001
1000
0010
1000
0001
0000
0010
0000
,
0100
0010
0001
0010
0100
0000
1000
0000
,
0001
1000
0010
1000
0001
0000
0100
0000
,
0010
1000
0100
0010
0100
0000
1000
0000
,
0100
0010
0001
0010
0100
0000
1000
0000
,
0001
0100
0010
0100
0001
0000
1000
0000
,
0100
1000
0001
0010
0001
0010
0001
1000
,
0000
0100
0010
0001
0100
0000
0100
0000
,
0101
0000
0110
0000
0101
0000
0000
0100
,
0000
0100
0010
0000
1000
0100
0010
0000
,
0011
0000
0110
0000
0011
0000
0000
0100
,
0000
0100
1000
0000
0001
0100
0010
0000
,
1010
0000
0110
0000
1010
0000
0000
0010
,
0000
0010
0100
0000
0001
0010
0100
0000
,
1100
0000
0110
0000
1100
0000
0000
0010
,
0000
0010
0001
0000
0100
0010
1000
0100
,
0000
0220
0000
0000
,
0000
0000
0000
0000
,
0330
0000
0000
0000
;

//---------------dance-single - ----------------
#NOTES:
     dance-single:
     :
     Hard:
     13:
     0.669,0.680,0.278,0.124,0.205: // measure 1
0000
0000
0000
0000
,  // measure 2
0000
0000
0000
0000
,  // measure 3
0000
0000
0000
0000
,  // measure 4
0000
0000
0000
0000
,  // measure 5
0000
0000
0000
0000
,  // measure 6
1000
0010
0001
0010
1000
0001
0000
1001
,  // measure 7
0000
1000
1000
1000
0100
0010
0001
1000
,  // measure 8
0001
0010
1000
0010
0001
1000
0000
1001
,  // measure 9
0000
0001
0001
0100
0010
1000
0100
0010
,  // measure 10
0100
1000
0000
0100
0000
1000
0000
0010
,  // measure 11
0000
0100
0000
0010
0000
0100
0001
0010
,  // measure 12
0200
0000
1000
1000
0000
1300
0010
0100
,  // measure 13
0001
0101
1010
1001
,  // measure 14
1000
0010
1000
0010
0100
0001
1000
0100
,  // measure 15
0020
0000
0001
0001
0000
0031
1000
0010
,  // measure 16
0000
0100
0002
0000
1000
0000
1003
0000
,  // measure 17
1100
0011
1100
1001
,  // measure 18
0001
1000
0000
0010
0000
1000
0000
0100
,  // measure 19
0000
0010
0000
0100
0000
1000
0001
0100
,  // measure 20
0020
0000
1000
1000
0000
1030
0001
0100
,  // measure 21
0010
1010
0101
1001
,  // measure 22
1000
0100
1000
0100
0010
0001
0100
0010
,  // measure 23
1000
0000
1010
0000
0110
0000
0100
0002
,  // measure 24
0000
1000
2003
0000
0100
0000
3100
0000
,  // measure 25
1100
0000
0011
0000
0001
1000
0010
1000
,  // measure 26
0001
0000
0000
0001
0000
0000
0002
0000
0000
0000
0000
0000
1003
0000
0010
0000
,  // measure 27
0100
0000
0000
0100
0000
0000
0200
0000
0000
0000
0000
0000
0310
0000
0000
0000
,  // measure 28
1000
0100
0010
1000
0010
0001
1000
0100
,  // measure 29
0010
0100
2000
0000
0001
0000
3001
0000
,  // measure 30
1000
0010
0100
0001
0010
0000
1000
0000
,  // measure 31
0010
0001
0010
0100
1000
0000
0010
0000
,  // measure 32
0100
0100
1001
0000
0100
0100
1001
0000
,  // measure 33
0011
0000
0000
0000
1100
0000
0000
0000
1001
0000
0000
0001
0000
0000
0100
0000
,  // measure 34
0010
1000
0001
0010
0100
1000
0001
0010
,  // measure 35
0011
0000
0000
0110
0000
0000
2200
0000
0000
0000
0000
0000
3300
0000
0000
0000
,  // measure 36
1000
0010
0001
0010
1000
0100
0001
0100
,  // measure 37
0000
1000
0001
0000
0010
0100
1000
0001
,  // measure 38
1000
0100
0001
0100
1000
0010
0001
0010
,  // measure 39
0000
1000
0001
0000
0010
0100
0010
0001
,  // measure 40
1000
0100
0001
0100
1000
0001
0010
0200
,  // measure 41
0000
0000
1300
0000
0010
0100
0001
0100
,  // measure 42
0001
0010
1000
0010
0001
1000
0100
0100
,  // measure 43
0000
0000
1000
0000
1000
0000
0001
0000
0100
0000
0010
0000
0000
1000
0000
0010
,  // measure 44
1000
0010
0001
0010
1000
0100
0001
0100
,  // measure 45
0000
1000
0001
0000
0100
0010
1000
0001
,  // measure 46
0010
1000
0010
0001
1000
0100
0010
0100
,  // measure 47
0000
1000
0001
0000
0100
0010
0100
0001
,  // measure 48
1000
0010
0001
0010
1000
0100
0001
0100
,  // measure 49
2000
0001
0100
3001
,  // measure 50
1000
0010
0001
0010
0100
0001
1000
1000
,  // measure 51
0000
0000
0100
0000
0100
0000
0010
0000
0001
0000
0100
0000
0000
0001
0000
0100
,  // measure 52
0010
0000
0000
1000
0100
0000
0000
1000
0100
0000
0010
0000
0000
0000
1001
0000
,  // measure 53
0000
1000
1000
0010
0100
0001
0010
0100
,  // measure 54
1000
0000
0000
0001
0100
0000
0000
0001
0100
0000
0010
0000
0000
0000
1001
0000
,  // measure 55
0000
0000
1000
0000
1000
0000
0001
0000
0010
0000
0000
0100
0000
0000
0010
0000
,  // measure 56
0001
0000
0000
1000
0100
0000
0000
1000
0001
0000
0100
0000
0000
0000
1001
0000
,  // measure 57
0000
0001
0001
0010
0100
1000
0010
0100
,  // measure 58
0001
0000
0000
0010
0100
0000
0000
1000
0010
0000
1000
0000
0000
0000
1001
0000
,  // measure 59
0000
0001
0001
1000
0010
0100
0001
1000
,  // measure 60
1100
0100
0100
0100
,  // measure 61
0100
0100
0010
0001
,  // measure 62
0100
0100
0100
0100
,  // measure 63
0100
0100
0010
1000
,  // measure 64
0001
0010
0001
0010
0100
1000
0100
1000
,  // measure 65
0010
0100
0010
0100
0001
1000
0010
0100
,  // measure 66
0101
0000
0100
0110
0000
1010
0000
2002
,  // measure 67
0000
0000
0000
0000
3003
0001
0010
0100
,  // measure 68
1000
0000
0001
0100
0001
0000
1000
0000
0100
0010
0100
0000
1000
0000
0001
0100
,  // measure 69
0001
1000
0100
0010
0001
0100
1000
0100
,  // measure 70
0001
0000
1000
0010
1000
0000
0001
0000
0010
0100
0010
0000
0001
0000
1000
0010
,  // measure 71
1000
0001
1000
0010
0001
0010
1000
0000
,  // measure 72
0001
0000
1000
0100
1000
0000
0001
0000
0100
0010
0100
0000
0001
0000
1000
0100
,  // measure 73
1000
0001
0100
0010
1000
0010
0001
0010
,  // measure 74
1000
0000
0001
0010
0001
0000
1000
0000
0010
0100
0010
0000
1000
0000
1001
0000
,  // measure 75
0000
0000
0001
0000
0001
0000
0100
0000
0010
0000
0000
0100
0000
0010
1000
0000
,  // measure 76
0001
0000
1000
0010
1000
0000
0001
0000
0010
0100
0010
0000
0100
0000
1000
0001
,  // measure 77
1000
0010
0001
0010
1000
0100
0010
0001
,  // measure 78
1000
0000
0001
0010
0001
0000
0100
0000
0010
0100
0010
0000
0100
0000
0001
1000
,  // measure 79
0001
0100
1000
0100
0010
1000
0001
0010
,  // measure 80
0001
0000
1000
0010
1000
0000
0100
0000
0010
0100
0010
0000
0001
0000
0100
0010
,  // measure 81
0100
0001
1000
0100
0010
0001
0100
0010
,  // measure 82
1000
0000
0001
0010
0001
0000
0100
0000
0010
0100
0010
0000
1000
0000
1001
0000
,  // measure 83
0000
0001
0001
0100
0010
1000
0010
0100
,  // measure 84
0001
0000
0000
1000
0010
0000
0000
0010
0100
0000
0010
0000
0000
0000
1001
0000
,  // measure 85
0000
1000
1000
0010
0100
0001
1000
0100
,  // measure 86
0010
0000
0000
0001
0100
0000
0000
0100
0010
0000
0000
0010
1000
0000
0010
0000
,  // measure 87
0000
0000
1000
0000
1000
0000
0010
0000
0100
0000
0000
0001
1000
0000
0100
0000
,  // measure 88
0010
0000
0000
0001
0100
0000
0000
0100
0010
0000
0100
0000
0000
0000
1001
0000
,  // measure 89
0000
0000
0001
0000
0001
0000
0100
0000
0010
1000
0010
0000
1000
0001
1000
0000
,  // measure 90
0001
0000
0000
1000
0010
0000
0000
0010
0100
0000
0000
0100
0001
0000
0100
0000
,  // measure 91
0000
0000
0001
0000
0001
0000
0010
0000
0100
1000
0100
0000
1000
0001
1000
0000
,  // measure 92
0000
2002
0000
0000
,  // measure 93
0000
0000
0000
0000
,  // measure 94
3003
0000
0000
0000
;

//---------------dance-single - ----------------
#NOTES:
     dance-single:
     :
     Challenge:
     16:
     0.945,0.918,0.329,0.183,0.823:
0000
0000
0000
0000
,
0000
0000
0000
0000
,
0000
0000
0000
0000
,
0000
0000
0000
0000
,
0000
0000
0000
0000
,
0001
0000
1000
0010
1000
0000
0001
0010
0001
0000
1000
0000
0000
0000
0200
0000
,
0000
0000
1300
0000
1000
0000
1000
0000
0001
0010
0100
0000
0010
0100
1000
0000
,
0001
0000
1000
0100
1000
0000
0001
0000
0100
0001
0100
0001
1000
0100
0010
0000
,
0000
0000
1001
0000
1001
0000
1001
0000
1000
0010
0100
0010
1000
0010
0100
0010
,
1000
0001
1000
0001
1000
0100
1000
0100
,
0001
0100
0001
0100
1000
0001
0010
0100
,
1000
0010
0100
0010
1000
0100
0010
0001
,
0200
0310
0200
0301
0200
0310
0200
0301
,
1000
0100
1000
0100
1000
0010
0001
0010
,
1000
0100
0010
0001
1000
0010
1000
0001
,
0010
1000
0010
0001
0100
0010
0100
0001
,
1000
0000
0100
1000
0100
0000
1000
0001
1000
0000
0001
0010
0001
0000
1000
0001
,
1000
0100
1000
0100
0010
0001
0100
0001
,
0010
1000
0010
0001
1000
0100
0010
0001
,
1000
0010
0100
0010
1000
0100
0010
0001
,
2000
3010
2000
3100
2000
3010
2000
3100
,
1000
0001
1000
0001
0100
0010
1000
0010
,
0100
0001
1000
0100
0001
0100
1000
0001
,
0010
0001
1000
0010
1000
0010
0100
0001
,
0100
0000
0001
0000
0010
0000
0100
0000
1000
0000
1000
0000
1000
0000
0001
0100
,
0010
0000
1000
0100
0010
0000
0001
0000
0100
0010
0000
1000
0100
0000
1000
0001
,
0100
0000
0001
0000
1000
0000
0010
0000
0100
0001
0000
0100
0010
0000
1000
0001
,
0010
0000
0100
0000
1000
0000
0010
0000
0001
0000
0010
0000
1000
0000
0100
0010
,
0001
0000
1000
0010
0100
0000
0001
0000
1000
0100
0000
0010
0100
0000
1000
0010
,
0100
0000
0001
0000
1000
0000
0100
0000
0010
0001
0000
1000
0010
0000
0100
0001
,
0010
0000
0100
0000
1000
0000
0010
0000
0100
0001
0000
1000
0100
0000
0010
0100
,
1000
0001
0101
0000
0010
1000
1001
0000
,
0110
0000
0000
0000
0110
0000
0000
0000
1100
0000
0000
0011
0000
0000
1001
0000
,
1000
0000
0010
0000
0001
0000
0010
0000
1000
0001
0100
0001
1000
0100
0010
0000
,
0101
0000
0000
1010
0000
0000
0110
0000
0000
0000
0100
0000
0010
0100
0010
0100
,
0010
0000
1000
0100
0010
0000
0100
0000
1000
0100
0010
0000
0100
0000
1000
0000
,
0001
0100
0001
0000
1000
0001
1000
0000
0010
1000
0010
0000
0100
0000
0001
0000
,
1000
0000
0001
0100
0010
0000
0100
0000
0001
0100
0010
0000
0100
0000
0001
0000
,
1000
0001
0000
0010
0000
0100
0000
1000
0001
0000
0100
0000
0000
0001
0010
0000
,
0100
0000
1000
0001
0100
0000
0001
0000
1000
0100
0010
0000
0100
0000
1000
0000
,
0001
0100
0001
0000
0100
0010
0100
0000
0010
1000
0010
0000
1000
0001
1000
0000
,
1001
0000
0001
0100
0010
0000
0100
0000
0001
1000
0100
0000
0011
0000
0010
0001
,
0000
0000
0110
0000
0110
0000
1001
0000
1001
0000
1000
0010
0000
0100
0000
0001
,
1000
0100
0010
0000
0001
0000
1000
0100
0010
0000
0001
0000
1000
0100
0010
0000
,
0001
1000
0001
0000
1000
0010
1000
0000
0010
0100
0010
0000
0100
0001
0100
0000
,
0001
0100
0010
0000
1000
0000
0001
0100
0010
0000
1000
0000
0001
0100
0010
0000
,
1000
0001
0000
0010
0000
0100
0000
1000
0010
0000
1000
0000
0000
0001
0010
0000
,
0100
1000
0010
0000
0100
0000
0001
1000
0100
0000
0010
0000
0001
1000
0100
0000
,
0010
0001
0010
0000
0100
0010
0100
0000
1000
0100
1000
0000
0001
1000
0001
0000
,
1001
0000
1000
0000
0010
0000
0100
0000
0001
0000
1000
0000
0110
0000
0100
0010
,
0000
0000
0101
0000
0101
0000
1001
0000
1001
0000
1000
0100
0000
0010
0000
0001
,
1000
0000
0100
1000
0010
0000
0010
0100
0001
0000
0001
0000
0000
0000
0200
0000
,
0000
0000
0301
0000
0001
0000
0001
0000
1000
0100
1000
0100
0010
0001
0010
0001
,
0100
0000
0010
1000
0100
0000
0100
0010
0001
0000
0001
1000
0000
1000
0020
0000
,
0000
0000
0130
0000
0100
0000
0010
0000
1010
0000
0000
0101
0000
0000
1001
0000
,
1000
0000
1000
0100
0010
0000
0010
0001
0100
0000
0100
0000
0000
0000
0020
0000
,
0000
0000
1030
0000
1000
0000
1000
0000
0001
0100
0010
0100
0001
0100
0010
0100
,
0001
0000
0001
1000
0100
0000
0100
0010
0001
0000
0001
0100
0000
0100
0020
0000
,
0000
0000
1030
0000
1000
0000
1000
0000
0100
1000
0010
0100
0001
0010
0100
1000
,
0020
0100
0100
0100
,
0100
0130
0002
2003
,
3200
0010
0010
0010
,
0010
0310
0002
0203
,
0310
1000
0100
0010
0001
0100
1000
0100
,
0001
1000
0100
0010
0001
0010
1000
0010
,
0011
0000
1001
1001
0000
1010
0000
0220
,
0000
0000
0000
0000
0000
0000
0000
0000
0330
0000
0001
0000
1000
0001
1000
0001
,
1000
0010
0100
0010
1000
0000
0001
0100
0010
0100
0001
0000
1000
0010
0100
0010
,
1000
0001
1000
0000
0100
1000
0100
0000
0010
0001
0010
0000
0100
0010
0100
0000
,
1000
0100
0010
0100
1000
0000
0001
0010
0100
0010
0001
0000
1000
0100
0010
0100
,
1000
0001
0000
0100
0000
0010
0000
1000
0001
0000
1000
0000
0000
0100
0010
0000
,
0001
1000
0100
1000
0001
0000
0100
0010
0100
0001
1000
0000
0100
1000
0010
0100
,
0001
1000
0001
0000
1000
0100
1000
0000
0001
0010
0001
0000
1000
0001
1000
0000
,
0001
1000
0010
1000
0001
0000
0010
0100
1000
0100
0010
0000
0101
0000
0001
0100
,
0000
0000
0110
0000
0110
0000
1100
0000
1100
0000
0100
1000
0000
0010
0000
0100
,
0001
0010
0100
1000
0001
0000
1000
0100
0010
0001
1000
0000
0001
0010
0100
1000
,
0001
0100
0010
0000
0100
0010
1000
0000
0001
0010
0100
0000
1000
0100
0010
0000
,
0001
1000
0100
1000
0001
0000
0100
0001
0010
0001
0100
0000
0001
1000
0100
1000
,
0001
0100
0000
0010
0000
1000
0001
0000
0010
0000
0100
0000
0000
0010
0001
0000
,
1000
0010
0100
0001
1000
0000
0001
0100
0010
1000
0001
0000
1000
0010
0100
0001
,
1000
0100
0010
0000
0100
1000
0001
0000
0100
0001
0010
0000
0100
1000
0010
0000
,
1001
0000
0001
0000
0010
0000
0100
0000
0010
0000
0001
0000
1010
0000
1000
0010
,
1000
0001
1000
0001
0010
0100
0010
0100
1000
0010
1000
0010
0100
0000
0001
0010
,
0100
0000
0100
1000
0010
0000
0010
0100
0001
0000
0001
0000
0000
0000
0201
0000
,
0000
0000
0310
0000
0010
0000
0010
0000
1000
0001
1000
0001
0010
0100
0010
0100
,
1000
0000
1000
0010
0100
0000
0100
0001
0010
0000
0010
0100
0000
0100
2000
0000
,
0000
0000
3010
0000
0010
0000
0010
0000
0100
0001
0100
0010
0100
0001
0100
0000
,
0010
0000
0010
1000
0001
0000
0001
0010
0100
0000
0100
1000
0010
0000
0210
0000
,
0000
0000
0301
0000
0001
0000
0001
0000
0010
0001
0010
0001
1000
0100
1000
0100
,
0010
0000
0010
0001
0100
0000
0100
0010
1000
0000
1000
0001
0000
0001
0010
0000
,
0000
0000
1100
0000
1001
0000
0011
0000
0100
1000
0010
0100
0001
0010
0100
0000
,
1000
0001
1000
0001
0020
0000
0000
0000
0000
0000
0000
0000
0000
0000
0000
0000
,
0000
0000
0000
0000
,
0030
0000
0000
0000
;

//---------------dance-single - ----------------
#NOTES:
     dance-single:
     :
     Beginner:
     2:
     0.103,0.167,0.029,0.000,0.000:
0000
0000
0000
0000
,
0000
0000
0000
0000
,
0000
0000
0000
0000
,
0000
0000
0000
0000
,
0000
0000
0000
0000
,
0001
0000
0000
0000
,
1000
0000
0000
0000
,
0001
0000
1000
0000
,
0001
0000
0000
0000
,
0010
0000
0000
0000
,
0000
0000
0000
0000
,
0100
0000
0000
0000
,
0000
0000
0000
0000
,
1000
0000
0000
0000
,
0000
0000
0000
0000
,
0001
0000
0000
0000
,
0000
0000
0000
0000
,
0100
0000
0000
0000
,
0010
0000
0000
0000
,
0100
0000
0000
0000
,
0010
0000
0000
0000
,
1000
0000
0000
0000
,
0001
0000
0000
0000
,
1000
0000
0000
0000
,
0000
0000
0000
0000
,
0100
0000
0000
0000
,
0010
0000
0000
0000
,
0001
0000
0000
0000
,
1000
0000
0000
0000
,
0001
0000
0000
0000
,
0010
0000
0000
0000
,
0100
0000
0000
0000
,
1000
0000
0000
0000
,
0001
0000
1000
0000
,
1001
0000
0000
0000
,
0001
0000
0000
0000
,
0100
0000
0000
0000
,
0010
0000
0000
0000
,
1000
0000
0000
0000
,
0001
0000
0000
0000
,
1000
0000
0000
0000
,
0001
0000
0000
0000
,
0000
0000
0000
0000
,
1000
0000
0010
0000
,
1000
0000
0000
0000
,
0001
0000
0100
0000
,
0001
0000
0000
0000
,
1000
0000
0001
0000
,
1000
0000
0000
0000
,
0001
0000
1000
0000
,
0001
0000
0000
0000
,
1000
0000
0000
0000
,
0010
0000
0000
0000
,
0100
0000
0000
0000
,
0010
0000
0000
0000
,
1000
0000
0000
0000
,
0001
0000
0000
0000
,
0010
0000
0000
0000
,
0001
0000
0000
0000
,
1001
0000
0000
0000
,
0000
0000
0000
0000
,
0000
0000
0000
0000
,
0000
0000
0000
0000
,
1000
0000
0000
0000
,
0100
0000
0000
0000
,
0010
0000
0000
0000
,
0000
0000
0000
0000
,
0001
0000
0100
0000
,
0010
0000
0000
0000
,
0100
0000
0010
0000
,
1000
0000
0000
0000
,
0001
0000
1000
0000
,
0100
0000
0000
0000
,
0010
0000
0001
0000
,
1000
0000
0000
0000
,
0001
0000
1000
0000
,
0001
0000
0000
0000
,
1000
0000
0001
0000
,
1000
0000
0000
0000
,
0100
0000
0010
0000
,
0001
0000
0000
0000
,
1000
0000
0100
0000
,
0010
0000
0000
0000
,
1001
0000
0001
0000
,
1000
0000
0000
0000
,
0001
0000
1000
0000
,
0001
0000
0000
0000
,
0100
0000
0010
0000
,
1000
0000
0000
0000
,
0010
0000
0100
0000
,
0001
0000
0000
0000
,
0000
1001
0000
0000
;
