#TITLE:テンプラ揚三;
#SUBTITLE:;
#ARTIST:GARIBEN KEN;
#TITLETRANSLIT:TEMPURA AGESAN;
#SUBTITLETRANSLIT:;
#ARTISTTRANSLIT:;
#CREDIT:DigiMindAxel;
#BANNER:TEMPURA AGESAN.png;
#BACKGROUND:TEMPURA AGESAN-bg.png;
#LYRICSPATH:TEMPURA AGESAN.lrc;
#CDTITLE:pop'n music.png;
#MUSIC:TEMPURA AGESAN.ogg;
#METERTYPE:DDR X;
#OFFSET:-12.366;
#SAMPLESTART:23.533;
#SAMPLELENGTH:12.000;
#SELECTABLE:YES;
#BPMS:0.000=85.600,16.000=171.200,148.000=85.600,175.000=171.200;
#STOPS:;
#BGCHANGES:;

//---------------dance-single - ----------------
#NOTES:
     dance-single:
     :
     Easy:
     6:
     0.302,0.390,0.375,0.139,0.000:
0010
0000
0000
0000
,
0010
0000
0000
0000
,
0100
0000
0000
0000
,
0100
0000
0000
0000
,
0001
0001
1000
1000
,
0010
0010
0100
0110
,
0001
0000
1000
0000
,
1001
1000
0001
0100
,
0110
1000
0100
0010
,
0001
0010
0001
0010
,
1001
0000
0100
0010
,
0110
0000
1000
0001
,
1001
0000
0000
0001
,
2000
0000
0000
3001
,
0100
0000
0010
0000
,
0100
0010
0100
0010
,
2000
0000
0000
0000
,
3002
0000
0000
0000
,
0103
0000
0100
0000
,
1001
0010
0100
1001
,
0001
0010
0100
1000
,
0100
1000
0100
1000
,
1001
0100
0010
0100
,
1001
0001
1000
0010
,
0110
0001
1000
0010
,
0110
0100
0001
1000
,
1001
0010
0100
0010
,
1001
0100
0010
0001
,
1001
0100
0010
1000
,
1001
0100
0010
0100
,
0110
0001
0010
0100
,
1001
0100
0010
0001
,
1001
1000
0001
1000
,
1001
0100
0010
0001
,
0110
0100
0110
0010
,
1000
1001
0110
1001
,
0002
0000
0000
0000
,
2003
0000
0000
3002
,
0000
0000
0000
0000
,
0000
0000
0000
0000
,
0023
0000
0000
0230
,
0000
0000
2300
0000
,
0000
0000
3000
0000
,
0000
0000
0000
1001
,
0001
1000
0001
0100
,
0100
0100
0010
1001
,
0100
0010
0001
1001
,
0010
0100
1000
1001
,
0100
0010
0100
1001
,
0010
0100
0010
1001
,
0100
0010
0001
0110
,
1000
0001
0000
1000
,
1000
0001
0001
1001
,
1001
0100
0010
0110
,
0110
1000
1000
1001
,
1001
0010
0100
0110
,
0110
0001
0001
1001
,
0100
1001
0010
2000
,
3200
0320
0032
2003
,
3200
0320
0031
1001
;

//---------------dance-single - ----------------
#NOTES:
     dance-single:
     :
     Hard:
     11:
     0.493,0.442,0.192,0.209,0.009:
1001
0000
1001
0000
,
0101
0000
0101
0000
,
1100
0000
1100
0000
,
0110
0000
0000
0000
0110
0000
0010
0010
,
2001
0000
0000
0100
3100
0000
0010
0000
,
0001
0100
0010
0100
0001
0100
0010
0100
,
0002
0000
0000
1000
1003
0000
0010
0000
,
0110
0000
0100
0000
0001
0100
0001
1000
,
0200
0000
0000
0010
0310
0000
0001
0000
,
1000
0100
0010
0100
1000
0100
0010
0100
,
2000
0000
0000
0001
3001
0000
0010
0000
,
0110
0000
0100
0000
0001
0100
0010
0000
,
2001
0000
0001
0000
0100
0000
3001
1000
,
0002
0000
0000
0000
1003
0000
0010
0100
,
0001
0010
0100
1000
0001
0000
0100
0000
,
0110
0000
0010
0000
1000
0100
0010
0000
,
2001
0000
0001
0000
0100
0000
3001
1000
,
0002
0000
0000
0000
1003
0000
0010
0100
,
0001
0000
0001
1000
0100
0000
0100
0010
,
0001
1000
0010
1000
0001
0000
1001
0000
,
1000
0100
0010
0100
1000
0100
0010
0000
,
0001
0010
0100
0010
0001
0010
0100
0000
,
1000
0010
0100
0010
1000
0010
0100
0000
,
0001
0100
0010
0100
0001
0100
0010
0000
,
1000
0100
0010
0001
0010
0100
1000
0000
,
0001
0100
0010
0100
0001
0100
0010
0000
,
1000
0010
0100
0001
1000
0010
0100
0000
,
0001
1000
0100
1000
0001
1000
0100
0000
,
1002
0000
0010
0000
1000
0000
0013
0001
,
0200
0000
0010
0000
0001
0000
0310
1000
,
0100
0010
0001
1000
0010
1000
0001
0000
,
1000
0001
0010
0100
0001
0100
0010
0001
,
2000
0000
0001
0000
0100
0000
3001
1000
,
0200
0000
0010
0000
0001
0000
0310
1000
,
0100
0000
0100
0010
0001
0000
0001
1000
,
0010
0100
0001
1000
0100
0000
0110
0000
,
0100
0010
0001
1000
0100
0000
0000
0000
,
1002
0000
0010
0023
0000
0100
0230
0000
,
1000
1300
0100
0010
0002
0000
1003
0020
,
0000
0130
0002
0000
0013
0200
0000
0000
,
1300
0000
1000
0001
0100
0001
0020
0000
,
0100
0230
0000
1000
2300
0000
0001
3001
,
1000
0100
0010
0000
0000
0000
0000
0000
,
0001
1000
0001
0000
0100
0000
0100
0000
0010
0100
0010
0000
1001
0000
0000
0000
,
1000
0010
0001
0010
1000
0000
0001
0010
,
0001
0100
0001
0010
0001
0100
0010
0000
,
1000
0010
0001
0010
1000
0000
0100
0010
,
0001
0010
0100
0010
0001
1000
0020
0000
,
0000
0100
0130
0001
1000
0000
1001
0000
,
0010
0000
0100
1000
0001
0000
1001
0000
,
0100
0000
0010
0001
0100
0000
1001
0000
,
0010
0000
0200
0000
0000
0000
1300
0001
,
0100
0001
1000
0001
0100
0001
1000
0100
,
0001
0100
1000
0100
0001
0100
1000
0001
,
0010
0001
1000
0001
0010
0001
1000
0010
,
0001
0010
1000
0010
0001
0010
1000
0100
,
0010
0000
0100
0010
0001
0000
1000
0010
,
0100
0001
1000
0100
0010
0001
1000
0010
,
0001
0010
1000
0100
0001
0100
1000
0010
,
0001
0010
1000
0100
0001
0100
1000
0000
;

//---------------dance-single - ----------------
#NOTES:
     dance-single:
     :
     Challenge:
     14:
     0.602,0.625,0.209,0.035,0.318:
0011
0000
0101
0000
,
1010
0000
0110
0000
,
0011
0000
0110
0000
,
1100
0000
0000
0000
0000
0000
0000
0000
0011
0000
0000
0000
0100
0100
0100
0000
,
1000
0001
1000
0100
0010
0100
1000
1000
,
0001
0000
0100
0001
0000
0100
0001
0000
0100
0001
0000
0100
0001
0000
1000
0000
,
0001
0010
0100
0010
0001
0100
0010
0100
,
0001
0000
1000
0000
0000
0100
0000
0000
0010
0000
0010
0000
0001
0000
0001
0000
,
1000
0001
1000
0010
0100
0010
1000
0100
,
0010
0000
0001
0100
0000
0001
0100
0000
0001
0100
0000
0001
0100
0000
0010
0000
,
1000
0100
0010
0100
1000
0001
0100
0001
,
1000
0000
0100
0000
0000
0010
0000
0000
0001
0000
0001
0000
1000
0000
1000
0000
,
0001
0010
0100
0000
1010
0000
1001
0000
,
0010
0100
0001
1000
1100
0000
1001
0000
,
0001
0000
0100
0000
0010
0000
0000
0100
0001
0000
0000
0000
1001
0000
0000
0000
,
0100
0010
0001
0100
0110
0000
1100
0000
,
0010
0001
0100
0000
0101
0000
1001
0000
,
0100
1000
0010
0100
0101
0000
1001
0000
,
0010
0000
0001
0000
0100
0000
0000
0001
1000
0000
0000
0000
1100
0000
0000
0000
,
0010
0001
0100
0010
1000
0000
1001
0000
,
0010
0000
0100
0000
0001
0000
0100
0000
0010
0100
0010
0000
1000
0000
0000
0000
,
0100
0000
0010
0001
0000
1000
0001
0000
0010
0001
0000
1000
0001
0000
0010
0000
,
0100
0000
1000
0000
0010
0000
0100
0000
0001
1000
0001
0000
0010
0000
0000
0000
,
0100
0000
1000
0000
0010
0000
0100
0000
0010
1000
0010
0000
0100
0000
0000
0000
,
0001
0000
0010
0000
1000
0000
0010
0000
0001
0100
0001
0000
1000
0000
0000
0000
,
0010
0000
0100
0001
0000
1000
0001
0000
0100
0001
0000
1000
0001
0000
0010
0000
,
0100
0000
1000
0000
0010
0000
0100
0000
0010
1000
0010
0000
0100
0000
0000
0000
,
0001
0000
0100
0000
1000
0000
0100
0000
0001
1000
0001
0000
0010
0000
0000
0000
,
0001
0000
0010
0000
1000
0000
0010
0000
0001
0100
0010
0000
0100
0000
0100
0000
,
0001
1000
0100
0010
0001
1000
0100
0000
,
1000
0000
0010
0000
0001
0000
0010
0000
1000
0100
0010
0000
0001
0000
0001
0000
,
0100
0001
0010
0001
0100
0001
1000
0000
,
0100
0000
0010
0000
0001
0000
0100
0000
0010
1000
0001
0000
0010
0000
0010
0000
,
0100
1000
0010
0100
0001
1000
0100
0000
,
0010
0000
0100
0000
1000
0000
0001
0000
0100
0001
0010
0000
0100
0000
0100
0000
,
1000
0000
0001
0000
0010
0000
0100
0000
1000
0001
1000
0001
1000
0000
0000
0000
,
0001
0010
0100
1000
0010
0010
0010
0000
,
2001
0000
0100
0100
0000
0001
0001
0000
,
0100
3100
0010
0001
0200
0000
0010
0010
,
0000
0001
0001
0000
0010
0310
0000
0000
,
1001
0000
0100
0010
0001
0100
0020
0000
,
1000
1000
0000
0100
0100
0000
1030
0001
,
0010
0000
0100
0000
1000
0001
1000
0001
0100
0000
0000
0000
0000
0000
0000
0000
,
0001
0100
0001
0000
1000
0000
1000
0000
0100
0010
0100
0000
1000
0000
0001
0000
,
1000
0000
0010
0100
0001
0000
0001
0000
0010
0000
0100
0000
0010
0000
0001
1000
,
0000
0001
0100
0000
0001
1000
0000
0001
0100
0000
0001
0000
1000
0000
0100
0000
,
1000
0000
0001
0100
0010
0000
0010
0000
1000
0000
0100
0000
0010
0000
0001
0100
,
0000
0001
1000
0000
0001
0100
0000
0001
1000
0000
0100
0000
0010
0000
0001
0000
,
0100
0000
0010
1000
0100
0000
0100
0000
0010
0000
0001
0000
1000
0000
0010
0000
,
0000
0100
0000
0000
0001
0000
0000
0000
0100
0000
0000
0000
0001
0000
0010
0000
,
0001
0000
0000
0001
1000
0000
0000
0000
0010
0000
0000
0000
1000
0000
0001
0000
,
0000
0010
0000
0000
0200
0000
0000
0000
0000
0000
0300
0000
1001
0000
0100
0000
,
0010
0000
0001
1000
0010
0000
0010
0000
1000
0000
0001
0100
0001
0000
0010
0000
,
0100
0000
1000
0001
0100
0000
0100
0000
0001
0000
1000
0100
1000
0000
0010
0000
,
0100
0000
0001
1000
0100
0000
0100
0000
1000
0000
0001
0100
0001
0000
0010
0000
,
0100
0000
1000
0001
0100
0000
0100
0000
0001
0000
1000
0100
1000
0000
0001
0000
,
0100
0000
0010
0100
0001
0000
0001
0000
0010
0000
0100
1000
0010
0000
0010
0000
,
0100
0000
0001
1000
0001
0000
0010
0000
0100
0000
1000
0001
1000
0000
0100
0010
,
0001
0000
0010
0100
1000
0000
0001
1000
0100
0000
0100
0010
0001
0000
0010
0100
,
1000
0000
1000
0010
0100
0001
1000
0100
0001
0100
1000
0010
0100
0000
0000
0000
;

//---------------dance-single - ----------------
#NOTES:
     dance-single:
     :
     Medium:
     9:
     0.419,0.416,0.305,0.200,0.000:
2002
0000
3003
0000
,
0202
0000
0303
0000
,
2020
0000
3030
0000
,
2002
0000
3003
0000
,
1000
0001
1000
0110
,
0001
0000
0010
0000
0100
0000
1000
0010
,
0200
0000
0310
1000
,
0110
0001
0010
0100
,
1002
0000
0000
1000
1003
0000
0010
0000
,
0100
0001
1000
0000
0010
0100
0001
0000
,
0110
0000
1000
0010
0100
0000
0001
0000
,
1001
0000
1000
0000
0010
0100
0010
0000
,
1002
0100
1000
0103
,
0020
0000
0000
0000
0130
0000
0001
0100
,
1000
0100
0001
1000
0001
0000
0010
0000
,
0100
1000
0001
0100
,
0120
1000
0100
1000
,
0230
0000
0000
0000
0301
0000
1000
0100
,
1000
0000
0001
0100
0001
0000
1000
0100
,
0010
0001
0100
0010
0100
0000
1001
0000
,
0010
1000
0010
0000
0100
0001
0100
0000
,
0001
1000
0100
0000
1000
0001
0100
0000
,
1001
0000
0001
1000
0100
1000
0100
0000
,
0110
0000
0110
0000
1000
0010
0100
0000
,
1001
0000
0010
0100
0001
0000
1000
0000
,
0001
0010
0001
0010
0100
1000
0100
0000
,
0110
0000
1000
0001
1000
0000
0010
0000
,
0110
0000
1000
0010
0100
0010
1000
0000
,
0210
0000
0001
0000
0301
0000
1000
0100
,
1000
0000
0001
0000
1000
0000
0001
1000
,
0001
0000
0100
0010
0100
0000
0010
0000
,
1001
0000
1000
0100
0010
0100
1000
0000
,
0120
0000
1000
0000
1030
0000
0001
1000
,
0001
0000
0010
0000
0001
0000
0010
0001
,
0100
0000
0001
0100
0010
0000
1000
0000
,
0100
0010
0001
1001
,
0010
0100
0010
0000
,
1001
0000
0000
0100
0000
0000
0010
0000
,
0000
0001
0000
0000
0100
0000
0010
0100
,
0000
0010
0100
0000
0001
0010
0000
0000
,
1001
0000
1000
0000
0001
1000
0001
0000
,
0100
0010
0000
1000
0100
0000
1000
0100
,
0010
0001
2000
0000
0000
0000
3000
0000
,
0000
0000
0000
1001
,
0010
0100
0001
0100
0001
0000
1100
0000
,
0010
0001
0100
0000
0010
0000
1001
0000
,
0100
0010
1000
0010
1000
0000
0110
0000
,
0001
0000
1000
0100
1000
0100
0010
0000
,
0001
0010
0001
0000
1000
0000
0110
0000
,
0001
0000
0100
0010
0100
0000
1001
0000
,
0010
0000
0100
0001
0100
0000
1010
0000
,
1000
0000
0002
0000
0000
0000
1003
0100
,
0010
0000
0001
0010
0100
0000
1000
0100
,
0010
0000
0001
0010
0100
0000
1001
0000
,
0010
0000
0100
1000
0100
0000
1001
0000
,
0100
0000
0010
0001
0010
0000
1001
0000
,
0100
0010
2000
0000
3010
0100
0002
0000
,
0103
0010
2000
0000
3010
0000
0100
0001
,
2000
0000
3100
0010
0002
0000
0103
0010
,
1000
0000
0001
1000
0001
0000
1001
0000
;

//---------------dance-single - ----------------
#NOTES:
     dance-single:
     :
     Beginner:
     2:
     0.098,0.130,0.044,0.000,0.000:
0000
0000
0000
0000
,
0000
0000
0000
0000
,
0000
0000
0000
0000
,
0000
0000
0000
0000
,
1000
0000
0000
0000
,
1000
0000
0000
0000
,
0001
0000
0000
0000
,
0001
0000
0000
0000
,
1000
0000
0000
0000
,
1000
0000
0000
0000
,
0001
0000
0000
0000
,
0001
0000
0000
0000
,
0100
0000
0000
0000
,
0100
0000
0000
0000
,
0010
0000
0000
0000
,
0010
0000
0000
0000
,
0100
0000
0000
0000
,
0100
0000
0000
0000
,
0010
0000
0000
0000
,
0010
0000
0000
0000
,
1001
0000
1000
0000
,
1000
0000
0000
0000
,
0001
0000
0001
0000
,
0001
0000
0000
0000
,
0100
0000
0100
0000
,
0100
0000
0000
0000
,
0010
0000
0010
0000
,
0010
0000
0000
0000
,
1000
0000
1000
0000
,
1000
0000
0000
0000
,
0001
0000
0001
0000
,
0001
0000
0000
0000
,
0010
0000
0010
0000
,
0010
0000
0000
0000
,
0100
0000
0100
0000
,
0100
0000
0000
0000
,
1000
0000
1000
0000
,
1001
0000
0000
0000
,
0000
0000
0000
0000
,
0000
0000
0000
0000
,
0001
0000
0000
0000
,
0000
0000
0000
0000
,
0000
0000
0000
0000
,
1000
0000
0000
1001
,
0000
0001
0000
1000
,
0000
0000
0000
0001
,
0000
0100
0000
0001
,
0000
0000
0000
0010
,
0000
0100
0000
0010
,
0000
0000
0000
0001
,
0000
1000
0000
1001
,
0000
0000
0000
1000
,
0000
0100
0000
1000
,
0000
0100
0000
0010
,
0000
0001
0000
0010
,
0000
0001
0000
1000
,
0000
0001
0000
1000
,
0000
0001
0000
0100
,
0000
0100
0000
0010
,
0000
0010
0000
1001
;

//---------------dance-double - ----------------
#NOTES:
     dance-double:
     :
     Easy:
     6:
     0.273,0.390,0.166,0.261,0.000:
10000000
00000000
00000000
00000000
,
10000000
00000000
00000000
00000000
,
00010000
00000000
00000000
00000000
,
00010000
00000000
00000000
00000000
,
10000000
01000000
10000000
01000000
,
10010000
00000000
10010000
00000000
,
00200000
00000000
01300000
00000000
,
00100000
01000000
00001000
00010000
,
00000100
00000010
00000100
00000010
,
00001001
00000000
00001001
00000000
,
00000020
00000000
00000130
00000001
,
00001001
00000000
00000100
00000001
,
00020000
00000000
00000000
00031000
,
02000000
00000000
00000000
03100000
,
10000000
00010000
10000000
00000000
,
01000000
00100000
01000000
00100000
,
00002000
00000000
00000000
00013000
,
00000020
00000000
00000000
00000130
,
00000002
00000000
00000023
00000000
,
00000130
00001000
00010000
00011000
,
00001000
01000000
00001000
01000000
,
01100000
00000000
01100000
00000000
,
20000000
00000000
30010000
10000000
,
01000000
00100000
01000000
10000000
,
00001000
00100000
00001000
00100000
,
00011000
00000000
00011000
00000000
,
00020000
00000000
00030010
00000100
,
00000010
00001000
00000100
00000010
,
00000002
00000000
00001000
00000000
,
00001003
00000010
00010000
00001000
,
02000000
00000000
00100000
00000000
,
03100000
10000000
01000000
00100000
,
00002000
00000000
00010000
00000000
,
00013000
00000010
00000100
00000010
,
00002000
00000000
00003002
00000000
,
00001003
00000100
00000010
00001001
,
00000002
00000000
00000000
00000000
,
00002003
00000000
00000000
00003200
,
00000000
00000000
00020300
00000000
,
00000000
00000000
00000000
00030000
,
00002000
00000000
00000000
00203000
,
00000000
00000000
02300000
00000000
,
00000000
00000000
03000000
00000000
,
00000000
00000000
00000000
10010000
,
00010000
10000000
00010000
01000000
,
01000000
01000000
01000000
00010000
,
00100000
01000000
00100000
00001000
,
00001000
00001000
00001000
00010000
,
00000010
00000100
00000010
00001001
,
00000001
00001000
00000010
00010000
,
00001000
00100000
01000000
10000000
,
01000000
00200000
00000000
00310000
,
10000000
01000000
00100000
00011000
,
00001000
00010000
00000010
00000110
,
00000100
00000010
00000001
00001001
,
00001000
00000100
00010000
00011000
,
00001000
00100000
01000000
10010000
,
00010000
00100000
01000000
20000000
,
30200000
02300000
03002000
00023000
,
00030200
00000320
00000031
00001001
;

//---------------dance-double - ----------------
#NOTES:
     dance-double:
     :
     Medium:
     9:
     0.414,0.416,0.253,0.157,0.000:
11000000
00000000
01000000
00000000
,
00101000
00000000
00001000
00000000
,
00000110
00000000
00000100
00000000
,
00001001
00000000
00000001
00000000
,
00000010
00000000
00000001
00000000
00000010
00000001
00000010
00000000
,
00000001
00000000
00000100
00000000
00000010
00000000
00010000
00001000
,
02000000
00000000
03100000
10000000
,
01000000
00000000
00100000
00000000
01000000
10000000
01000000
00000000
,
10000000
00000000
00100000
00000000
10000000
00100000
10000000
00000000
,
01000000
00100000
00010000
00000000
00001000
00000010
00000100
00000000
,
00000001
00000000
00000100
00000001
00010000
00000000
00001000
00000000
,
00011000
00000000
01000000
00000000
00100000
01000000
00100000
00000000
,
20020000
00000000
00000000
00000000
30030000
00000000
00100000
01000000
,
00002000
00000000
00000000
00000000
00013000
00000000
00000100
00000010
,
00000100
00001000
00000001
00001000
00000100
00000000
00010000
00000000
,
00001000
01000000
00100000
01000000
,
20020000
00000000
00000000
00000000
30030000
00000000
01000000
00100000
,
00020000
00000000
00000000
00000000
00031000
00000000
00000010
00000100
,
00000010
00000000
00000100
00000001
00000100
00000000
00000001
00000010
,
00000100
00010000
00001000
00010000
00001000
00000000
00011000
00000000
,
00100000
01000000
00100000
00000000
01000000
10000000
01000000
00000000
,
10000000
01000000
00100000
00000000
00001000
00010000
00000010
00000000
,
00000110
00000000
00000100
00000001
00000010
00000100
00010000
00000000
,
00011000
00000000
00001000
00000000
00100000
01000000
10000000
00000000
,
10010000
00000000
00100000
01000000
00010000
00000000
01000000
00000000
,
00001000
00010000
00000100
00000010
00000001
00001000
00000001
00000000
,
00001001
00000000
00001000
00000000
00000100
00001000
00010000
00000000
,
01100000
00000000
10000000
00100000
01000000
00100000
10000000
00000000
,
20020000
00000000
00000000
00000000
30030000
00000000
10000000
01000000
,
00200000
00000000
00001000
00000000
00301000
00000000
00010000
00000010
,
00010000
00000000
00000010
00000100
00000010
00000000
00000100
00000000
,
00001001
00000000
00000001
00000010
00000100
00000010
00000001
00000000
,
00002002
00000000
00000000
00000000
00003003
00000000
00000001
00000100
,
00000010
00000000
00001000
00000000
00010000
00000000
00100000
01000000
,
10000000
00000000
00010000
01000000
00100000
00000000
10000000
00000000
,
01000000
00100000
00010000
00001000
00000010
00000000
00000010
00000000
,
00000100
00000001
00000010
00000100
00001000
00000000
00000000
00000000
,
00011000
00000000
00000000
01000000
00000000
00000000
00100000
00000000
,
00000000
10000000
00000000
00000000
01000000
00000000
00100000
00001000
,
00000000
00100000
00001000
00000000
00010000
00001000
00000000
00000000
,
00000110
00000000
00000010
00000000
00000100
00000001
00000010
00000000
,
00000100
00010000
00000000
00001000
00010000
00000000
00001000
01000000
,
00100000
10000000
02000000
00000000
00000000
00000000
03000000
00000000
,
00000000
00000000
00000000
10010000
,
10000000
01000000
00100000
01000000
10000000
00000000
01100000
00000000
,
01000000
00100000
00001000
00000000
00010000
00000000
00010010
00000000
,
00000010
00000100
00000001
00000100
00000010
00000000
00001001
00000000
,
00001000
00000000
00000100
00010000
00001000
00100000
01000000
00000000
,
10000000
00010000
10000000
00000000
00100000
00000000
01100000
00000000
,
01000000
00000000
00001000
00010000
00001000
00000000
00011000
00000000
,
00010000
00000000
00000010
00000100
00000010
00000000
00001001
00000000
,
00000001
00000000
00002000
00000000
00000000
00000000
00003001
00000010
,
00000100
00000000
00000010
00000100
00010000
00000000
00001000
01000000
,
00100000
00000000
01000000
00100000
10000000
00000000
10010000
00000000
,
00010000
00000000
01000000
00001000
00010000
00000000
00000110
00000000
,
00000100
00000000
00000001
00000010
00000100
00000000
00011000
00000000
,
01000000
00100000
20000000
00000000
30100000
01000000
00020000
00000000
,
10030000
01000000
00100000
00010000
00001000
00000000
00000100
00000010
,
00000002
00000000
00000013
00000100
00020000
00000000
00031000
01000000
,
00100000
01000000
00001000
01000000
00100000
00000000
10010000
00000000
;

//---------------dance-double - ----------------
#NOTES:
     dance-double:
     :
     Hard:
     11:
     0.494,0.442,0.192,0.209,0.013:
10010000
00000000
11000000
00000000
,
00110000
00000000
00011000
00000000
,
00000110
00000000
00001001
00000000
,
00000101
00000000
00000000
00000000
00000000
00000000
00000000
00000000
00010010
00000000
00000000
00000000
00010000
00001000
00010000
00000000
,
02001000
00000000
00000000
00100000
03100000
00000000
10000000
00000000
,
01000000
00100000
00010000
00100000
01000000
00100000
00010000
01000000
,
00200000
00000000
00000000
01000000
01300000
00000000
00001000
00000000
,
00011000
00000000
00010000
00000000
00000100
00000010
00000001
00000100
,
00000002
00000000
00000000
00001000
00001003
00000000
00000010
00000000
,
00010000
00000001
00000010
00000001
00010000
00000001
00000010
00000001
,
00020000
00000000
00000000
00001000
00031000
00000000
00100000
00000000
,
01100000
00000000
01000000
00000000
10000000
00100000
01000000
00000000
,
10020000
00000000
00100000
00000000
10000000
00000000
00130000
01000000
,
00002000
00000000
00000000
00000000
00013000
00000000
00000100
00000010
,
00000001
00000010
00000100
00010000
00001000
00000000
00100000
00000000
,
01100000
00000000
01000000
00000000
10000000
00100000
01000000
00000000
,
10020000
00000000
00100000
00000000
10000000
00000000
00130000
01000000
,
20000000
00000000
00000000
00000000
30010000
00000000
10000000
00100000
,
01000000
00000000
00100000
01000000
00001000
00000000
00010000
00000100
,
00000001
00000100
00010000
00000010
00000100
00000000
00000110
00000000
,
00000001
00000010
00001000
00000010
00000001
00000100
00000001
00000000
,
00000100
00000010
00010000
00000010
00000100
00000010
00010000
00000000
,
00001000
00100000
01000000
00100000
00001000
00100000
01000000
00000000
,
00100000
00010000
10000000
00010000
00100000
00010000
10000000
00000000
,
01000000
00100000
00010000
00100000
01000000
00100000
00001000
00000000
,
00010000
00000010
00000100
00000010
00010000
00000010
00000100
00000000
,
00000001
00000010
00000100
00010000
00001000
00100000
01000000
00000000
,
10000000
01000000
00100000
00001000
00010000
00000100
00000010
00000000
,
00001002
00000000
00000010
00000000
00001000
00000000
00000013
00000100
,
00020000
00000000
00001000
00000000
00100000
00000000
00031000
01000000
,
00100000
01000000
00001000
01000000
10000000
01000000
00100000
00000000
,
10000000
00010000
00100000
00010000
01000000
10000000
01000000
00100000
,
20000000
00000000
00010000
00000000
01000000
00000000
30010000
01000000
,
00002000
00000000
00010000
00000000
00010000
00000000
00013000
00000010
,
00000100
00000000
00000010
00000100
00000001
00000000
00000010
00000100
,
00001000
00010000
00100000
01000000
10000000
00000000
10010000
00000000
,
10000000
00100000
01000000
00001000
00010000
00000000
00000000
00000000
,
00000120
00000000
00001000
00002030
00000000
00000001
00003002
00000000
,
00000010
00000013
00000100
00001000
00020000
00000000
00130000
02000000
,
00000000
13000000
00200000
00000000
10300000
00020000
00000000
00000000
,
01030000
00000000
00001000
00010000
00000010
00000100
00000002
00000000
,
00000010
00000023
00000000
00000100
00000230
00000000
00001000
00001300
,
00010000
01000000
00100000
00000000
00000000
00000000
00000000
00000000
,
10000000
00010000
10000000
00000000
00010000
00000000
00010000
00000000
01000000
00100000
01000000
00000000
10010000
00000000
00000000
00000000
,
00010000
10000000
00100000
10000000
00010000
00000000
10000000
00100000
,
00010000
00100000
10000000
00100000
00010000
00100000
10000000
00000000
,
01000000
00100000
00010000
00001000
00000100
00000000
00001000
00000010
,
00000001
00000010
00001000
00000010
00000001
00000010
00002000
00000000
,
00000000
00000100
00003100
00010000
00001000
00000000
00011000
00000000
,
01000000
00000000
00100000
10000000
00010000
00000000
10010000
00000000
,
10000000
00000000
01000000
00100000
00001000
00000000
00011000
00000000
,
00010000
00000000
00000020
00000000
00000000
00000000
00000130
00000001
,
00000010
00000001
00000100
00000001
00000010
00000001
00000100
00000010
,
00010000
00000100
00010000
00000010
00000100
00000010
00001000
00010000
,
00100000
01000000
00100000
00010000
00100000
01000000
00100000
00010000
,
10000000
00100000
01000000
00100000
10000000
00100000
01000000
00010000
,
10000000
00000000
00010000
10000000
00100000
00000000
01000000
00001000
,
00010000
00000100
00000010
00000001
00000100
00000010
00000100
00000001
,
00010000
00000100
00000001
00000100
00010000
00001000
01000000
10000000
,
01000000
00001000
00100000
01000000
10000000
00010000
00001000
00000000
;

//---------------dance-double - ----------------
#NOTES:
     dance-double:
     :
     Challenge:
     14:
     0.616,0.625,0.192,0.035,0.318: // measure 1
10010000
01000000
10010000
01000000
,  // measure 2
00011000
01000000
00011000
00000010
,  // measure 3
00001001
00000010
00001001
00000100
,  // measure 4
00011000
00000000
00000000
00000000
00000100
00000000
00000000
00000000
00011000
00000000
00000000
00000000
00001000
00001000
00001000
00000000
,  // measure 5
01000000
00100000
01000000
00010000
10000000
01000000
00100000
00001000
,  // measure 6
00010000
00000000
00000100
00000010
00000000
00000100
00000010
00000000
00000100
00000010
00000000
00000100
00000010
00000000
00000001
00000000
,  // measure 7
00000100
00000010
00000100
00000001
00000010
00000100
00010000
00000010
,  // measure 8
00010000
00000000
00001000
00000000
00000000
00100000
00000000
00000000
01000000
00000000
01000000
00000000
00100000
00000000
00100000
00000000
,  // measure 9
00010000
10000000
00010000
01000000
00100000
01000000
00001000
00010000
,  // measure 10
00000100
00000000
00000010
00000001
00000000
00000010
00000001
00000000
00000010
00000001
00000000
00000010
00000001
00000000
00000100
00000000
,  // measure 11
00000010
00000100
00000001
00000010
00000100
00010000
00001000
00100000
,  // measure 12
01000000
00000000
00100000
00000000
00000000
00010000
00000000
00000000
10000000
00000000
10000000
00000000
00100000
00000000
00100000
00000000
,  // measure 13
10000000
01000000
00100000
00001000
00010000
00000000
00011000
00000000
,  // measure 14
00000100
00000010
00000001
00000100
00000110
00000000
00000101
00000000
,  // measure 15
00000010
00000000
00001000
00000000
00000001
00000000
00000000
00000100
00000010
00000000
00000000
00000000
00000110
00000000
00000000
00000000
,  // measure 16
00010000
00001000
00100000
01000000
10000000
00000000
10010000
00000000
,  // measure 17
10000000
00100000
01000000
00001000
00010000
00000000
00011000
00000000
,  // measure 18
00000100
00000010
00000001
00000100
00000110
00000000
00001010
00000000
,  // measure 19
00000100
00000000
00000001
00000000
00010000
00000000
00000000
00001000
00010000
00000000
00000000
00000000
00011000
00000000
00000000
00000000
,  // measure 20
00100000
01000000
10000000
01000000
00100000
00000000
01100000
00000000
,  // measure 21
10000000
00000000
00100000
00000000
10000000
00000000
00100000
00000000
01000000
00010000
01000000
00000000
00001000
00000000
00001000
00000000
,  // measure 22
00010000
00000000
00000100
00000010
00000000
00000100
00000010
00000000
00000100
00000010
00000000
00000100
00000010
00000000
00000001
00000000
,  // measure 23
00001000
00000000
00000010
00000000
00010000
00000000
00001000
00000000
00100000
01000000
00100000
00000000
00001000
00000000
00001000
00000000
,  // measure 24
00100000
00000000
01000000
00000000
10000000
00000000
00010000
00000000
10000000
01000000
10000000
00000000
00010000
00000000
00000000
00000000
,  // measure 25
10000000
00000000
01000000
00000000
10000000
00000000
01000000
00000000
00100000
00010000
00100000
00000000
00001000
00000000
00000000
00000000
,  // measure 26
00010000
00000000
00000001
00000100
00000000
00000001
00000100
00000000
00000001
00000100
00000000
00000001
00000100
00000000
00000010
00000000
,  // measure 27
00010000
00000000
00001000
00000000
01000000
00000000
00100000
00000000
10000000
01000000
10000000
00000000
00100000
00000000
00100000
00000000
,  // measure 28
10000000
00000000
01000000
00000000
00100000
00000000
00010000
00000000
01000000
00100000
01000000
00000000
00001000
00000000
00000000
00000000
,  // measure 29
00010000
00000000
00000010
00000000
00000100
00000000
00000010
00000000
00010000
00000010
00000100
00000000
00000001
00000000
00000001
00000000
,  // measure 30
00000010
00000100
00001000
00000100
00000010
00000001
00000100
00000100
,  // measure 31
00000010
00000000
00010000
00000000
00001000
00000000
00100000
00000000
01000000
10000000
00100000
00000000
01000000
00000000
01000000
00000000
,  // measure 32
00010000
00100000
01000000
00100000
00010000
10000000
00001000
00000000
,  // measure 33
00010000
00000000
00000100
00000000
00000010
00000000
00000100
00000000
00010000
00000001
00000100
00000000
00000001
00000000
00000001
00000000
,  // measure 34
00001000
00000100
00000001
00000100
00010000
00001000
00100000
00000000
,  // measure 35
00010000
00000000
01000000
00000000
10000000
00000000
01000000
00000000
00010000
00100000
01000000
00000000
10000000
00000000
10000000
00000000
,  // measure 36
01000000
00000000
00100000
00000000
00001000
00000000
00010000
00000000
00000010
00000100
00000010
00000100
00000010
00000000
00000000
00000000
,  // measure 37
00000100
00000001
00000010
00000100
00001000
00001000
00001001
00000000
,  // measure 38
00000120
00000000
00010000
00010000
00000000
00000100
00000100
00000000
,  // measure 39
00010000
00010030
00000001
00000010
00000200
00000000
00000010
00000010
,  // measure 40
00000000
00001000
00001000
00000000
00000010
00000310
00000000
00000000
,  // measure 41
00001001
00000000
00000001
00000010
00000100
00010000
00002000
00000000
,  // measure 42
01000000
01000000
00000000
10000000
10003000
00000000
00010000
00100000
,  // measure 43
01000000
00000000
10000000
00000000
01000000
00100000
01000000
00100000
00010000
00000000
00000000
00000000
00000000
00000000
00000000
00000000
,  // measure 44
00001000
00010000
00001000
00000000
00010000
00000000
00010000
00000000
00000010
00000100
00000010
00000000
00001000
00000000
00000001
00000000
,  // measure 45
00001000
00000000
00000100
00010000
00001000
00000000
00001000
00000000
01000000
00000000
00100000
00000000
01000000
00000000
00010000
10000000
,  // measure 46
00000000
01000000
10000000
00000000
00010000
10000000
00000000
01000000
10000000
00000000
00100000
00000000
01000000
00000000
00010000
00000000
,  // measure 47
01000000
00000000
00001000
00010000
00000010
00000000
00000010
00000000
00000100
00000000
00000001
00000000
00000010
00000000
00000100
00001000
,  // measure 48
00000000
00000001
00001000
00000000
00000100
00001000
00000000
00000001
00001000
00000000
00000010
00000000
00010000
00000000
00001000
00000000
,  // measure 49
00100000
00000000
01000000
10000000
00010000
00000000
00010000
00000000
10000000
00000000
01000000
00000000
00100000
00000000
00001000
00000000
,  // measure 50
00000000
00010000
00000000
00000000
00000010
00000000
00000000
00000000
00000100
00000000
00000000
00000000
00000001
00000000
00000010
00000000
,  // measure 51
00000001
00000000
00000000
00000100
00000010
00000000
00000000
00000000
00010000
00000000
00000000
00000000
00001000
00000000
00100000
00000000
,  // measure 52
00000000
01000000
00000000
00000000
20000000
00000000
00000000
00000000
00000000
00000000
30000000
00000000
10010000
00000000
00010000
00000000
,  // measure 53
10000000
00000000
01000000
00100000
00001000
00000000
00001000
00000000
00010000
00000000
00000010
00000100
00000010
00000000
00000100
00000000
,  // measure 54
00000001
00000000
00000010
00000100
00010000
00000000
00010000
00000000
00001000
00000000
01000000
00100000
01000000
00000000
00010000
00000000
,  // measure 55
10000000
00000000
00100000
01000000
00010000
00000000
00010000
00000000
00001000
00000000
00000100
00000010
00000100
00000000
00001000
00000000
,  // measure 56
00000001
00000000
00000100
00000010
00001000
00000000
00001000
00000000
00010000
00000000
01000000
00100000
01000000
00000000
00010000
00000000
,  // measure 57
10000000
00000000
01000000
10000000
00100000
00000000
00100000
00000000
01000000
00000000
00001000
00010000
00000010
00000000
00000010
00000000
,  // measure 58
00000100
00000000
00000001
00001000
00000001
00000000
00000010
00000000
00000100
00000000
00010000
00001000
00010000
00000000
00001000
01000000
,  // measure 59
00100000
00000000
10000000
00100000
01000000
00000000
00100000
01000000
00001000
00000000
00010000
00000100
00000010
00000000
00000100
00000010
,  // measure 60
00000001
00000000
00000100
00000001
00000100
00000010
00010000
00001000
00010000
00001000
00100000
01000000
00100000
00000000
00000000
00000000
;
