#TITLE:天空脳番長危機十六連打;
#SUBTITLE:;
#ARTIST:D.J.SETUP;
#TITLETRANSLIT:TECHNO BANCHOU KIKI JUUROKU RENDA;
#SUBTITLETRANSLIT:;
#ARTISTTRANSLIT:;
#CREDIT:DigiMindAxel;
#BANNER:TECHNO BANCHOU KIKI JUUROKU RENDA.png;
#BACKGROUND:TECHNO BANCHOU KIKI JUUROKU RENDA-bg.png;
#LYRICSPATH:;
#CDTITLE:beatmania IIDX.png;
#MUSIC:TECHNO BANCHOU KIKI JUUROKU RENDA.ogg;
#METERTYPE:DDR X;
#OFFSET:-13.200;
#SAMPLESTART:45.150;
#SAMPLELENGTH:12.000;
#SELECTABLE:YES;
#BPMS:0.000=150.000;
#STOPS:;
#BGCHANGES:;

//---------------dance-single - ----------------
#NOTES:
     dance-single:
     :
     Easy:
     6:
     0.275,0.476,0.282,0.051,0.000:
1000
0001
1000
0001
,
1000
0010
0100
0010
,
0100
0001
1000
0001
,
1000
0010
1000
0010
,
0100
0001
0100
0001
,
0100
0010
0100
0010
,
1000
0010
1000
0010
,
0100
0100
0100
0000
,
1001
0001
0001
0010
,
0100
0100
0100
1000
,
0100
0100
0100
0010
,
0001
0001
0001
0000
,
1001
1000
1000
0010
,
0100
0100
0100
0001
,
0010
0010
0001
1000
,
0100
0100
1000
0001
,
0000
0000
0000
0000
,
0000
0000
0000
0000
,
0010
0000
0000
0000
,
0010
0000
0000
0000
,
1001
1000
0001
0001
,
0010
0100
1000
1000
,
0100
0010
0001
0001
,
0010
0100
1000
1000
,
0010
0100
0001
0001
,
0100
0010
1000
1000
,
0010
0100
0001
0001
,
1001
1001
0110
0110
,
1002
0000
0103
0010
,
2000
0000
3010
0100
,
0002
0000
0013
0100
,
2000
0000
3100
0010
,
1001
0000
0110
0000
,
1001
0000
0110
0000
,
1001
1001
1001
1001
,
0110
0110
0110
0110
,
2002
0000
0000
0000
,
0000
0000
0000
0000
,
3003
0000
0000
0000
,
0000
0000
0000
0000
,
0000
0000
0000
0000
,
0000
0000
0000
0000
,
0010
0000
0000
0000
,
0010
0000
0000
0000
,
0100
0000
0000
0000
,
0100
0000
0000
0000
,
1001
1000
0001
0010
,
1001
0001
1000
0100
,
1001
1000
0001
0100
,
1001
0001
1000
0010
,
1001
0100
0010
0001
,
0010
0100
1000
0001
,
1000
0100
0010
0001
,
0010
0100
1000
0010
,
0100
0010
0100
0000
0000
0000
0000
0000
,
0001
1000
0001
0000
0000
0000
0000
0000
,
0100
0010
0100
0000
0000
0000
0000
0000
,
0001
1000
0001
0000
0000
0000
0000
0000
,
1001
0100
1000
0100
,
1001
0010
0001
0010
,
1001
1001
0110
0110
,
1001
0000
0001
0000
1000
0001
1000
0000
;

//---------------dance-single - ----------------
#NOTES:
     dance-single:
     :
     Hard:
     11:
     0.506,0.609,0.308,0.197,0.248: // measure 1
1100
0000
1001
0000
0001
1000
0100
0010
,  // measure 2
0001
0000
0011
0000
1001
1000
0010
0100
,  // measure 3
0001
0000
0101
0000
1001
1000
0001
0010
,  // measure 4
0100
0000
1100
0000
1001
0001
1000
0100
,  // measure 5
0010
0000
0011
0000
1001
1000
0001
0010
,  // measure 6
0100
0000
1100
0000
1001
0001
0100
0001
,  // measure 7
1000
0000
1001
0000
1100
1000
0001
0100
,  // measure 8
0001
0000
0000
1000
0100
0000
0000
0010
0001
0000
0000
0100
0010
0000
0000
0000
,  // measure 9
2000
0001
3001
0000
1000
0010
0100
0010
,  // measure 10
2000
0001
3001
0000
1000
0100
0010
0100
,  // measure 11
2000
0001
3001
0000
1000
0001
0100
0001
,  // measure 12
2000
0100
3100
0000
0010
0001
0100
0010
,  // measure 13
1001
0000
0000
0001
0100
0000
0000
0000
0010
0000
0100
0000
0010
0000
1000
0000
,  // measure 14
0100
0000
0000
1000
0001
0000
0000
0000
0100
0000
0010
0000
0100
0000
0001
0000
,  // measure 15
1000
0000
0000
0010
0100
0000
0000
0000
0001
0000
1000
0000
0001
0000
0010
0000
,  // measure 16
0100
0000
0000
1000
0010
0000
0000
0100
0001
0000
0010
0000
0100
0000
1000
0000
,  // measure 17
0000
0000
0000
0000
,  // measure 18
0000
0000
0000
0000
,  // measure 19
0001
1000
0020
0000
0030
0000
0000
0000
,  // measure 20
1000
0001
0020
0000
0230
0000
0310
0000
,  // measure 21
0011
0000
1001
0000
0001
0100
1000
0100
,  // measure 22
0001
0000
1001
0000
1000
0010
0001
0010
,  // measure 23
1000
0000
1010
0000
0010
0100
0001
0010
,  // measure 24
0100
0000
0110
0000
0010
0100
1000
0001
,  // measure 25
0100
0000
0101
0000
0001
1000
0100
1000
,  // measure 26
0001
0000
1001
0000
1000
0100
0001
0100
,  // measure 27
1000
0000
1100
0000
1000
0001
0010
1000
,  // measure 28
0010
0000
0000
0001
0010
0000
0000
0001
1000
0000
0010
0000
0100
0000
0001
0000
,  // measure 29
2000
0000
3200
0000
0301
0100
1000
0001
,  // measure 30
0020
0000
2030
0000
3010
0001
1000
0001
,  // measure 31
0200
0000
2300
0000
3100
0001
0010
1000
,  // measure 32
0020
0000
0032
0000
1003
0010
0100
0000
,  // measure 33
1001
0001
0010
0000
1001
0001
0010
0000
,  // measure 34
1001
1000
0100
0000
1001
1000
0100
0000
,  // measure 35
1000
1000
0001
0001
1000
0010
0001
0010
,  // measure 36
1000
0000
0000
0100
0010
0000
0000
0001
0100
0000
0001
0000
0010
0000
0100
0000
,  // measure 37
1000
1000
1000
1000
,  // measure 38
1000
1000
1000
1000
,  // measure 39
2000
0000
0000
0000
,  // measure 40
0000
0000
0000
0000
,  // measure 41
0000
3000
0000
0000
,  // measure 42
0000
0000
0000
0000
,  // measure 43
0020
0000
0000
0000
,  // measure 44
0230
0000
0000
0000
,  // measure 45
0320
0000
0000
0000
,  // measure 46
0230
0000
0300
0000
,  // measure 47
1001
0000
0000
1000
0001
0000
0000
0001
0100
0000
0000
0100
0010
0000
0000
0000
,  // measure 48
0110
0000
0000
0010
1000
0000
0000
1000
0010
0000
0000
0010
0100
0000
0000
0000
,  // measure 49
1001
0000
0000
1000
0001
0000
0000
0001
0010
0000
0000
0010
0100
0000
0000
0000
,  // measure 50
1100
0000
0000
0100
1000
0000
0000
1000
0010
0000
0000
0010
0100
0000
0000
0000
,  // measure 51
1001
0000
0000
0001
0010
0000
0000
0010
0100
0000
0000
0100
1000
0000
0000
0000
,  // measure 52
1001
0000
0000
0001
0100
0000
0000
0100
0001
0000
0000
0001
0010
0000
0000
0000
,  // measure 53
0110
0000
0000
0100
1000
0000
0000
1000
0001
0000
0000
0001
0100
0000
0000
0000
,  // measure 54
1001
0000
0000
0001
1000
0000
0000
1000
0010
0000
0000
0010
0100
0000
0000
0000
,  // measure 55
0001
0100
0001
0200
0000
0000
0010
0000
0000
0000
0310
0000
0100
0001
0000
0000
,  // measure 56
1000
0100
1000
0200
0000
0000
0010
0000
0000
0000
0310
0000
0100
1000
0000
0000
,  // measure 57
0001
1000
0001
2000
0000
0000
0010
0000
0000
0000
3010
0000
1000
0001
0000
0000
,  // measure 58
0010
0100
0010
0100
0000
0000
1000
0010
1000
0000
0001
0100
0010
0100
0010
0100
,  // measure 59
0010
0001
0100
1000
0001
1000
0100
0001
,  // measure 60
1000
0100
0001
1000
0001
0100
1000
0000
,  // measure 61
1001
0000
0000
0001
0100
0000
0000
0100
1000
0000
0000
1000
0100
0000
0000
0100
,  // measure 62
0001
0000
0010
0000
0100
0000
1000
0000
0010
0100
0010
0100
0010
0100
0010
0000
;

//---------------dance-single - ----------------
#NOTES:
     dance-single:
     :
     Challenge:
     13:
     0.657,0.741,0.051,0.342,0.847: // measure 1
1001
0000
0000
0000
1000
0000
0000
0000
1001
0000
0000
0000
0001
1000
0000
0100
,  // measure 2
0000
0010
0000
0001
1000
0000
0000
0000
1001
0000
0000
0000
0001
1000
0000
0100
,  // measure 3
0000
0010
0000
0001
1000
0000
0000
0000
1001
0000
0000
0000
0001
1000
0000
0100
,  // measure 4
0000
0010
0000
0001
1000
0000
0000
0000
0100
0000
1000
0001
0000
1000
0000
0010
,  // measure 5
0000
0100
0000
0001
1000
0000
0000
0000
0100
0000
0010
0100
0000
1000
0000
0010
,  // measure 6
0000
0100
0000
0001
0010
0000
0000
0000
0100
0000
0010
0001
0000
1000
0000
0010
,  // measure 7
0000
0100
0000
0001
1000
0000
0000
0000
0100
0000
0010
0100
0000
1000
0000
0010
,  // measure 8
0000
0100
0000
0001
0010
0000
0000
0001
1000
0000
0000
0001
0010
0100
0010
0100
,  // measure 9
0010
0000
0000
0001
1000
0000
0000
1000
0010
0000
0000
0010
0100
0000
0000
0100
,  // measure 10
0001
0000
0000
0001
1000
0000
0000
1000
0100
0000
0000
0100
0010
0000
0000
0010
,  // measure 11
0001
0000
0000
0001
1000
0000
0000
1000
0010
0000
0000
0010
0100
0000
0000
0100
,  // measure 12
0001
0000
0000
0001
0100
0000
0000
0100
0010
0000
1000
0000
0100
0000
0010
0000
,  // measure 13
0001
0000
1000
0010
1000
0000
0001
1000
0001
0000
0100
0010
0000
1000
0000
0100
,  // measure 14
0000
0010
0000
0001
1000
0000
0010
1000
0010
0000
1000
0001
0000
0010
0000
0100
,  // measure 15
0000
1000
0000
0001
0100
0000
0010
0100
0010
0000
1000
0001
0000
0010
0000
0100
,  // measure 16
0000
0010
0000
0001
1000
0000
0000
0010
1000
0000
0001
0000
0010
0001
0010
0001
,  // measure 17
0010
0100
0000
0000
0000
0000
0000
0000
0000
1000
0000
0001
0010
0001
0000
0100
,  // measure 18
0000
0010
0000
0000
0000
0000
0000
0000
0000
1000
0000
0001
0010
0001
0000
0100
,  // measure 19
0000
0010
0000
0000
0000
0000
0000
0000
0000
1000
0000
0001
0010
0001
0000
0100
,  // measure 20
0000
0010
0000
0000
0000
0000
0000
0000
1000
0002
0000
0000
1003
0000
0000
0000
,  // measure 21
1001
0000
1000
0000
0010
1000
0000
0000
0001
0020
0000
0000
0031
0000
0000
0000
,  // measure 22
0010
0000
0100
0000
1000
0001
0000
0100
0000
0002
0000
0000
1003
0000
0000
0000
,  // measure 23
0001
0000
0010
0000
0001
1000
0000
0000
0010
2000
0000
0000
3010
0000
0000
0000
,  // measure 24
1000
0000
0001
0000
0010
0001
0000
0100
0000
0020
0000
0000
0130
0000
0000
0000
,  // measure 25
0001
0000
1000
0000
0001
0010
0000
0000
0100
0020
0000
0000
0130
0000
0000
0000
,  // measure 26
1000
0000
0001
0000
1000
0010
0000
0100
0000
0002
0000
0000
0013
0000
0000
0000
,  // measure 27
0100
0000
1000
0000
0100
0010
0000
0000
0001
0200
0000
0000
0301
0000
0000
1000
,  // measure 28
0100
0000
0000
0010
0001
0000
0000
1000
0001
0000
0010
0000
0100
1000
0100
1000
,  // measure 29
0002
0000
0100
0000
0100
0000
0103
0000
0001
1000
0000
1000
0020
0000
0000
0000
,  // measure 30
0230
0000
0001
0000
0001
0000
0301
0000
1000
0100
0000
0100
0020
0000
0000
0000
,  // measure 31
0032
0000
1000
0000
1000
0000
1003
0000
0001
0100
0000
0100
0020
0000
0000
0000
,  // measure 32
2030
0000
0100
0000
0100
0000
3100
0000
1000
0010
0000
0010
0200
0000
0000
0000
,  // measure 33
0310
0000
0010
0000
1000
0100
0000
0000
0010
0000
0010
0000
0001
0100
0000
0000
,  // measure 34
0010
0000
0010
0000
1000
0100
0000
0000
0010
0000
0010
0000
0001
1000
0000
0000
,  // measure 35
0010
0010
0100
0100
0001
0001
0010
0010
,  // measure 36
0100
0000
1000
0001
1000
0000
0100
1000
0100
0000
0010
0001
0010
0001
0100
0010
,  // measure 37
0200
0300
0200
0300
0200
0300
0200
0300
,  // measure 38
0200
0300
0200
0300
0200
0300
0200
0300
,  // measure 39
0200
0300
0020
0030
2000
3000
0020
0030
0200
0300
0002
0003
,  // measure 40
0020
0030
0002
0000
0000
0203
0000
0000
0302
0000
0000
2000
,  // measure 41
0000
0000
0000
0000
,  // measure 42
0000
0000
0000
3003
,  // measure 43
2000
0000
0000
3000
,  // measure 44
0200
0000
0000
0300
,  // measure 45
0020
0000
0000
0030
,  // measure 46
0002
0000
2000
3003
,  // measure 47
1001
0000
1000
0010
1000
0000
0001
0000
0010
0000
0001
0100
0000
0100
0010
0000
,  // measure 48
1000
0000
0001
0010
0001
0000
1000
0000
0100
0000
0010
0100
0000
0100
1000
0000
,  // measure 49
0010
0000
0100
0010
0100
0000
0001
0000
0010
0000
0100
1000
0000
1000
0001
0000
,  // measure 50
0100
0000
0010
0100
0010
0000
1000
0000
0001
0000
0010
0001
0000
0001
1000
0000
,  // measure 51
0100
0000
0001
1000
0001
0000
0100
0000
1000
0000
0010
0100
0000
0100
0001
0000
,  // measure 52
0100
0000
1000
0001
1000
0000
0100
0000
0001
0000
0010
0100
0000
0100
1000
0000
,  // measure 53
0010
0000
0001
1000
0001
0000
0010
0000
1000
0000
0001
1000
0000
1000
0100
0000
,  // measure 54
0010
0000
0001
1000
0001
0000
0100
0010
0100
0000
0001
0000
1000
0000
0100
0000
,  // measure 55
0010
0001
0010
0001
0010
0001
0010
0001
0010
0001
0010
0000
0001
0010
0000
0000
,  // measure 56
0100
1000
0100
1000
0100
1000
0100
1000
0100
1000
0100
0000
1000
0100
0000
0000
,  // measure 57
1000
0001
1000
0001
1000
0001
1000
0001
1000
0001
1000
0000
0001
1000
0000
0000
,  // measure 58
0001
1000
0001
0000
1000
0100
1000
0000
0001
0010
0001
0010
0100
1000
0100
1000
,  // measure 59
0001
0000
0100
0010
1000
0000
0100
0000
0001
0000
0100
0000
1000
0001
1000
0000
,  // measure 60
0001
0000
1000
0100
0010
0000
0100
0000
1000
0000
0001
0000
0100
0010
1000
0000
,  // measure 61
0001
0010
0001
0000
1000
0001
1000
0000
0010
1000
0010
0000
0100
0010
0100
0000
,  // measure 62
0001
0010
0001
0010
0100
1000
0100
1000
0010
0100
0010
0100
0001
0010
0100
0000
;

//---------------dance-single - ----------------
#NOTES:
     dance-single:
     :
     Beginner:
     1:
     0.084,0.159,0.077,0.000,0.000:
1001
0000
0000
0000
,
1000
0000
0000
0000
,
1000
0000
0000
0000
,
1000
0000
0000
0000
,
0001
0000
0000
0000
,
0001
0000
0000
0000
,
0001
0000
0000
0000
,
0001
0000
0000
0000
,
1001
0000
0000
0000
,
0010
0000
0000
0000
,
0010
0000
0000
0000
,
0010
0000
0000
0000
,
0100
0000
0000
0000
,
0100
0000
0000
0000
,
0100
0000
0000
0000
,
0100
0000
0000
0000
,
0001
0000
0000
0000
,
0000
0000
0000
0000
,
0000
0000
0000
0000
,
0000
0000
0000
0000
,
1001
0000
0000
0000
,
1000
0000
0000
0000
,
0010
0000
0000
0000
,
1000
0000
0000
0000
,
0010
0000
0000
0000
,
0100
0000
0000
0000
,
0010
0000
0000
0000
,
0100
0000
0000
0000
,
1001
0000
0000
0000
,
0001
0000
0000
0000
,
0100
0000
0000
0000
,
0001
0000
0000
0000
,
0100
0000
0100
0000
,
0100
0000
0100
0000
,
0010
0000
0010
0000
,
0010
0000
0000
0000
,
1000
0000
0000
0000
,
0000
0000
0000
0000
,
0000
0000
0000
0000
,
0000
0000
0000
0000
,
0000
0000
0000
0000
,
0000
0000
0000
0000
,
0001
0000
0000
0000
,
0001
0000
0000
0000
,
0001
0000
0000
0000
,
0001
0000
0000
0000
,
1001
0000
0000
0000
,
0010
0000
0000
0000
,
1000
0000
0000
0000
,
0010
0000
0000
0000
,
0100
0000
0000
0000
,
0010
0000
0000
0000
,
0100
0000
0000
0000
,
0010
0000
0000
0000
,
1001
0000
0000
0000
,
1001
0000
0000
0000
,
1001
0000
0000
0000
,
1001
0000
0000
0000
,
0100
0000
0000
0000
,
0001
0000
0000
0000
,
0100
0000
0010
0000
,
0100
0000
0100
0000
,
0100
0000
0000
0000
;

//---------------dance-single - ----------------
#NOTES:
     dance-single:
     :
     Medium:
     8:
     0.413,0.477,0.548,0.103,0.000: // measure 1
1000
0000
0100
0000
0010
0000
0001
1000
,  // measure 2
0010
0000
1000
0000
0001
0000
0010
0100
,  // measure 3
1000
0000
0100
0000
0010
0000
0100
1000
,  // measure 4
0001
0000
0100
0000
0001
1000
0001
1000
,  // measure 5
0001
0000
0010
0000
0100
0010
0100
0010
,  // measure 6
0100
0000
1000
0000
0001
0100
0001
0100
,  // measure 7
0001
0000
1000
0000
0100
0010
0100
0010
,  // measure 8
0100
1100
1100
1001
,  // measure 9
0001
1000
0100
0000
1000
0001
1000
0000
,  // measure 10
0100
0010
0001
0000
0100
0010
0100
0000
,  // measure 11
0010
1000
0100
0000
0010
0001
0010
0000
,  // measure 12
0001
0010
0100
0000
1000
0001
1000
0001
,  // measure 13
1000
0000
1001
0000
0001
0100
0010
0000
,  // measure 14
1000
0000
1001
0000
0001
0010
0100
0000
,  // measure 15
1000
0000
1001
0000
1000
0010
0100
0000
,  // measure 16
0001
0000
1001
0000
1000
0100
0010
0001
,  // measure 17
1000
0000
0000
0000
,  // measure 18
0000
0000
0000
0000
,  // measure 19
0020
0000
0030
0000
,  // measure 20
0200
0000
0300
0000
,  // measure 21
1001
0000
1001
0000
0010
1000
0010
0000
,  // measure 22
1001
0000
1001
0000
0100
0001
0100
0000
,  // measure 23
1001
0000
1001
0000
0010
1000
0010
0000
,  // measure 24
1001
0000
1001
0000
0100
0001
0100
0000
,  // measure 25
1001
0000
1001
0000
0100
1000
0100
0000
,  // measure 26
1001
0000
1001
0000
0010
0001
0010
0000
,  // measure 27
1001
0000
1001
0000
0100
1000
0100
0000
,  // measure 28
1010
0101
1100
0011
,  // measure 29
2001
0000
0001
0000
3010
0100
0010
0000
,  // measure 30
1002
0000
1000
0000
0103
0010
0100
0000
,  // measure 31
2001
0000
0001
0000
3010
0100
0010
0000
,  // measure 32
1002
0000
1000
0000
0013
0100
0010
0000
,  // measure 33
1001
0100
1001
0010
,  // measure 34
1001
0100
1001
0010
,  // measure 35
1010
0101
0011
1100
,  // measure 36
1001
0110
1001
0110
,  // measure 37
2002
0000
0000
0000
,  // measure 38
0000
0000
0000
0000
,  // measure 39
3003
0000
0000
0000
,  // measure 40
0000
0000
0000
0000
,  // measure 41
0000
0000
0000
0000
,  // measure 42
0000
0000
0000
0000
,  // measure 43
0200
0000
0300
0000
,  // measure 44
0020
0000
0030
0000
,  // measure 45
0200
0000
0300
0000
,  // measure 46
0020
0000
0030
0000
,  // measure 47
1001
0000
1100
0000
0010
0001
1000
0000
,  // measure 48
1001
0000
0011
0000
0100
1000
0001
0000
,  // measure 49
1001
0000
1010
0000
0100
0001
1000
0000
,  // measure 50
1001
0000
0101
0000
0010
1000
0001
0000
,  // measure 51
1001
0000
1100
0000
0010
0001
0100
0000
,  // measure 52
1001
0000
0011
0000
0100
1000
0010
0000
,  // measure 53
1001
0000
0101
0000
0010
1000
0100
0000
,  // measure 54
1001
0000
1010
0000
0100
0001
0010
0100
,  // measure 55
1000
1000
0001
0001
0000
1000
0001
0000
,  // measure 56
0010
0010
0100
0100
0000
1000
0001
0000
,  // measure 57
0100
0100
0010
0010
0000
1000
0001
0000
,  // measure 58
1000
1000
0001
0001
1000
0100
0010
0000
,  // measure 59
1001
0000
1000
0001
0010
0001
1000
0000
,  // measure 60
1001
0000
0001
1000
0100
1000
0001
0000
,  // measure 61
1001
0011
0110
1100
,  // measure 62
1000
0001
0010
0100
0010
0001
1000
0010
;
