#TITLE:遊戯大熊猫;
#SUBTITLE:;
#ARTIST:98;
#TITLETRANSLIT:TAWAMURE PANDA;
#SUBTITLETRANSLIT:;
#ARTISTTRANSLIT:;
#CREDIT:DigiMindAxel;
#BANNER:TAWAMURE PANDA.png;
#BACKGROUND:TAWAMURE PANDA-bg.png;
#LYRICSPATH:;
#CDTITLE:GITADORA.png;
#MUSIC:TAWAMURE PANDA.ogg;
#METERTYPE:DDR X;
#OFFSET:-0.541;
#SAMPLESTART:46.812;
#SAMPLELENGTH:12.000;
#SELECTABLE:YES;
#BPMS:0.000=145.000;
#STOPS:;
#BGCHANGES:-5.000=TAWAMURE PANDA.avi=1.000=1=1=0,
99999=-nosongbg-=1.000=0=0=0 // don't automatically add -songbackground-
;

//---------------dance-single - ----------------
#NOTES:
     dance-single:
     :
     Easy:
     5:
     0.253,0.284,0.131,0.455,0.000: // measure 1
0000
0000
0000
0000
,  // measure 2
0000
0000
0000
0000
,  // measure 3
0000
0000
0000
0000
,  // measure 4
0000
0000
0000
0000
,  // measure 5
2000
0000
0000
0000
,  // measure 6
3200
0000
0000
0000
,  // measure 7
2300
0000
0000
0000
,  // measure 8
3002
0000
0000
0000
,  // measure 9
0023
0000
0000
0000
,  // measure 10
0032
0000
0000
0000
,  // measure 11
0203
0000
0000
0000
,  // measure 12
0320
0000
0000
0000
,  // measure 13
0130
0010
0100
0000
,  // measure 14
0001
0000
0010
0000
,  // measure 15
0100
1000
0100
0000
,  // measure 16
2002
0000
3003
0000
,  // measure 17
1001
0000
0000
0010
,  // measure 18
0000
0000
1000
0001
,  // measure 19
2002
0000
0000
0000
,  // measure 20
3003
0000
0000
0000
,  // measure 21
1000
0100
0010
0001
,  // measure 22
1000
1000
1000
0000
,  // measure 23
0001
0010
0100
1000
,  // measure 24
0001
0001
0001
0000
,  // measure 25
0100
0010
1000
0010
,  // measure 26
0100
0100
0001
0001
,  // measure 27
0100
0010
0100
0001
,  // measure 28
1000
1000
0001
0001
,  // measure 29
2002
0000
3003
0000
,  // measure 30
0220
0000
0330
0000
,  // measure 31
1001
0000
0001
0010
,  // measure 32
0100
0000
0100
0000
,  // measure 33
0220
0000
0000
0330
,  // measure 34
2002
0000
0000
3003
,  // measure 35
1001
0010
0100
1000
,  // measure 36
0001
0100
0010
0100
,  // measure 37
0002
0000
0000
0000
,  // measure 38
1000
0000
0000
0000
,  // measure 39
2003
0000
0000
3000
,  // measure 40
2002
0000
0000
3003
,  // measure 41
0002
0000
0000
2003
,  // measure 42
0000
3000
0001
0100
,  // measure 43
0001
1000
0100
1000
,  // measure 44
0001
0010
0100
0010
,  // measure 45
0100
1000
0100
1000
,  // measure 46
0000
0002
0000
0000
,  // measure 47
2003
0000
0000
3001
,  // measure 48
0010
0001
1000
0020
,  // measure 49
0000
0230
0000
0310
,  // measure 50
1000
0100
0010
0100
,  // measure 51
1000
0000
0001
0100
,  // measure 52
0010
0100
0001
1000
,  // measure 53
0001
0000
2002
0000
,  // measure 54
3003
0220
0000
0330
,  // measure 55
1000
0100
1000
0001
,  // measure 56
0200
0000
0320
0000
,  // measure 57
0230
0000
0302
0003
,  // measure 58
0220
0000
0330
2002
,  // measure 59
0000
3003
0000
0000
,  // measure 60
2000
0000
3200
0000
,  // measure 61
2300
0000
3002
0000
,  // measure 62
0023
0000
0032
0000
,  // measure 63
1003
0000
0000
0001
0000
0000
1000
0000
,  // measure 64
0200
0000
0000
0320
,  // measure 65
0000
0000
0000
0000
0031
0000
0000
0000
0000
0000
2002
0000
0000
3003
0000
0000
;

//---------------dance-single - ----------------
#NOTES:
     dance-single:
     :
     Medium:
     9:
     0.401,0.454,0.341,0.184,0.070:
0000
0000
0000
0000
,
0000
0000
0000
0000
,
0000
0000
0000
0000
,
0000
0000
0000
0000
,
1000
0000
0000
1000
0000
0000
1000
0000
,
0200
0000
0000
0000
,
0310
0000
0000
0010
0000
0000
0010
0000
,
0002
0000
0000
0000
,
0103
0000
0000
0100
0000
0000
0100
0000
,
0020
0000
0000
0000
,
1030
0000
0000
1000
0000
0000
1000
0000
,
0002
0000
0000
0000
,
0103
0010
0100
0010
0100
0000
0000
0000
,
0001
0010
0110
0011
,
0001
0100
0001
0100
0001
0000
0000
0000
,
1001
0000
0000
1001
0000
0000
1001
0000
0000
0000
0000
0000
0000
0000
0000
0000
,
1100
0000
0000
0000
0000
0000
0000
0100
0000
0000
0000
0000
0110
0000
0000
0000
,
0000
0000
0000
0010
0000
0000
0000
0000
0000
0000
0000
0000
0000
0000
0000
0000
,
2002
0000
0000
0000
,
0000
0000
3003
0000
,
0001
0100
0010
0000
0100
0010
1000
0000
,
0001
1000
0001
1000
0001
0000
0010
0000
,
0100
0010
0001
0000
1000
0100
0010
0000
,
0001
1000
0001
1000
0001
0000
0100
0000
,
0010
1000
0100
1000
0010
0100
0010
1000
,
0001
0010
0100
0000
0010
0100
1000
0000
,
0100
0010
0001
0010
0001
0100
0010
1000
,
0010
0100
0001
0000
0100
0010
1000
0000
,
1100
1100
1100
0000
,
0011
0011
0011
0000
,
0001
1000
0001
1000
0100
0010
0001
1000
,
0100
1001
1001
0000
,
0100
0000
0000
0100
0000
0000
0110
0000
0000
0000
0000
0000
0000
0000
0000
0000
,
0001
0000
0000
0001
0000
0000
1001
0000
0000
0000
0000
0000
0000
0000
0000
0000
,
1000
0000
0000
0001
0000
0000
1000
0000
0000
0001
0000
0000
0100
0000
0000
0001
,
0000
0000
0010
0000
0000
0100
0000
0000
1000
0000
0000
0000
1100
0000
0000
0000
,
0010
0001
0100
0000
0100
0001
0010
0000
,
0010
0001
0100
0000
0200
0000
0000
0000
,
0320
1000
1000
1030
,
1001
0000
0000
0110
0000
0000
1001
0000
,
0002
1000
1003
0200
,
1000
0000
1300
0001
0100
0000
0101
0000
,
1001
0000
1000
0100
0010
0001
0100
0001
,
0010
0000
0100
1000
0100
1000
0001
0100
,
0001
0000
0100
0000
0010
0000
1000
0000
0010
0000
1000
0000
0100
0000
0000
0100
,
0000
0100
0011
0000
0000
0011
0000
0000
,
0110
0000
0000
0110
0000
0000
0100
1000
,
0100
1000
0010
0100
0010
0100
0002
0000
,
0000
2003
0000
3001
,
1010
0000
1010
0000
0100
0001
0010
0001
,
0100
0010
1000
0000
0001
1000
0001
1000
,
0100
0010
0100
0010
0001
0100
0010
1000
,
0100
0000
1100
0000
0011
0000
0000
0011
,
0000
0000
0110
0000
0000
0110
0000
0000
,
0100
1000
0010
1000
0100
1000
0010
0100
,
0002
0000
0023
0000
,
0230
0000
2300
0000
,
3001
0000
0010
0000
0000
0000
0000
0110
0000
0000
0000
0000
0100
0000
1000
0000
,
0000
0000
0000
1001
0000
0000
0000
0000
0001
0000
0000
0000
0001
0000
0000
0000
,
0020
0001
0032
0100
,
0203
0010
0320
1000
,
2030
0001
0001
3001
,
1000
0000
0000
1000
0000
0000
0100
0000
0000
0100
0000
0000
0010
0000
0001
0000
,
0100
0100
0100
0010
,
0010
0000
0000
0000
0010
0000
0000
0110
0000
0000
0001
0000
0000
1001
0000
0000
;

//---------------dance-single - ----------------
#NOTES:
     dance-single:
     :
     Hard:
     13:
     0.638,0.624,0.394,0.026,0.582:
0000
0000
0000
0000
,
0000
0000
0000
0000
,
0000
0000
0000
0000
,
0000
0000
0000
0000
,
1000
0000
0000
0010
0000
0000
0100
0000
0000
0001
0000
0000
1000
0000
0000
0100
,
0000
0000
1000
0000
0000
0010
0000
0000
0100
0000
0000
0000
0000
0000
0000
0000
,
0001
0000
0000
0010
0000
0000
0100
0000
0000
1000
0000
0000
0001
0000
0000
0100
,
0000
0000
0001
0000
0000
1000
0000
0000
0100
0000
0010
0000
0000
0000
0000
0000
,
0001
0000
0000
0010
0000
0000
0001
0000
0000
1000
0000
0000
0010
0000
0000
1000
,
0000
0000
0100
0000
0000
0010
0000
0000
0001
0000
0000
0000
0000
0000
0000
0000
,
0100
0000
0000
0001
0000
0000
1000
0000
0000
0100
0000
0000
1000
0000
0000
0010
,
0000
0000
0100
0000
0000
0001
0000
0000
0010
0000
0100
0000
0000
0000
0000
0000
,
1000
0000
1000
0000
0010
0100
0001
0000
0100
0000
0010
0000
0100
0000
0000
0000
,
0001
2000
0000
0100
3100
0000
1001
0000
,
0001
0000
0001
0000
1000
0100
0010
0000
0100
0000
1000
0000
0100
0000
0000
0000
,
1000
0001
0000
0100
0001
0000
1000
0001
0000
0000
0000
0000
0000
0000
0000
0000
,
1001
0000
1000
0000
0000
0010
0000
0110
0000
0000
0000
0000
1001
0000
0001
0000
,
0000
0100
0000
0110
0000
0000
0000
0000
1000
0000
0000
0000
1000
0000
0001
0000
,
0200
0000
0010
0000
,
0010
0000
0010
0000
0310
0000
0000
1000
,
0001
0010
1000
0010
0001
1000
0100
0010
,
0001
0000
0100
0001
1000
0000
0100
0000
0010
0000
0001
1000
0010
0000
1000
0000
,
0001
1000
0001
0100
1000
0100
0001
0010
,
0100
0000
1000
0001
0100
0000
0010
0000
1000
0000
0001
0010
0100
0000
1000
0000
,
0001
0100
0001
0000
0100
0010
0100
0000
0001
0100
0001
0000
0100
0010
0100
0000
,
0001
0100
1000
0100
0001
0010
0100
1000
,
0100
0010
0100
0000
1000
0010
1000
0000
0100
0010
0100
0000
1000
0010
1000
0000
,
0001
0010
1000
0010
0001
1000
0100
0010
,
0001
0000
1000
0010
1000
0000
0001
0000
0010
0000
0100
0000
0010
0000
0001
0000
,
1001
1000
1010
0010
0110
0000
0100
0001
,
1000
0000
0001
0010
0001
0000
1000
0000
0010
0000
0100
0000
0010
0000
1000
0000
,
1001
0000
0001
0000
0011
0000
0010
0000
0110
0000
0110
0000
0000
1001
0000
0000
,
1000
0000
0010
1000
0000
0001
0010
0000
0000
0000
0000
0000
0100
0000
1000
0000
,
0001
0000
0100
0001
0000
1000
0100
0000
0000
0000
0000
0000
0010
0000
0001
0000
,
1000
0000
0010
1000
0010
0000
0100
0000
0010
1000
0010
0000
0100
0000
0001
0010
,
0001
0000
0100
0000
0001
0010
0001
0000
0100
0000
0010
1000
0010
0000
1000
0000
,
0001
0010
0000
0001
0010
0000
0001
0010
0000
0001
0010
0000
0100
0000
0100
0000
,
1000
0010
0000
1000
0010
0000
1000
0010
0000
1000
0010
0000
0100
0000
0100
0000
,
0001
1000
0000
0001
1000
0000
0001
1000
0000
0001
1000
0000
0010
0000
0010
0000
,
0101
0000
0000
0101
0000
0000
1010
0000
0000
1010
0000
0000
1001
0000
0001
0000
,
1000
0100
0010
0001
1000
0000
0001
0010
,
0100
0000
1000
0000
0001
0100
0001
0100
0001
0000
0000
1000
0100
0000
0000
0010
,
0100
0000
0000
0000
1001
0000
0000
1000
0010
0000
0000
0100
0010
0000
1000
0000
,
0100
0000
0010
0000
0001
0000
1000
0001
0010
0000
0100
0000
0010
0001
0010
0000
,
0100
0010
0100
0000
1000
0001
1000
0001
1000
0000
0100
0000
0010
0000
0000
0011
,
0000
0000
0011
0000
1001
0000
0000
1001
0000
0000
0110
0000
0000
0000
0000
0000
,
1001
0000
0000
1001
0000
0000
0110
0000
0000
0000
0001
0000
0010
0000
0001
0000
,
1000
0000
0000
0010
0000
0000
0100
0000
0000
0000
0000
0000
0001
0000
0000
1000
0000
0000
0001
0000
0000
2000
0000
0000
0000
0000
0000
0000
0000
0000
0000
0000
0000
0000
0000
0000
3100
0000
0000
0000
0000
0000
0000
0000
0010
0000
0000
0000
,
0000
0100
0000
0010
0000
0001
1000
0001
1000
0001
0000
0000
,
1001
0000
0000
1000
0010
0000
0000
0100
0001
0000
1000
0000
0100
0010
0100
0000
,
0010
0001
0010
0000
0001
1000
0001
1000
0001
0000
0100
0000
0010
0000
0100
0001
,
1000
0000
0100
1000
0100
0000
0010
0000
0001
0000
0100
0000
0010
0000
0100
0001
,
0000
0000
1000
0100
0000
1000
0001
1000
0001
0000
0000
1001
0000
0000
0110
0000
,
0000
0000
0000
0000
1001
0000
0000
1001
0000
0000
0110
0000
0000
0000
1000
0000
,
0001
0000
0100
0010
1000
0000
0100
1000
0100
0000
0010
0001
0000
1000
0001
0000
,
0100
0000
0010
0000
0100
0000
0010
0000
1000
0000
0100
0000
,
0010
0000
0001
0000
0010
0000
0001
0000
0100
0010
0100
0010
,
1001
0000
1000
0000
0000
0010
0000
0110
0000
0000
0000
0000
1001
0000
0001
0000
,
0000
0010
0000
0110
0000
0000
0000
0000
1000
0000
0000
0000
1000
0000
0001
0000
,
0010
0001
0000
0010
0001
0000
0010
0001
0000
0010
0001
0000
0100
0000
0100
0000
,
0010
1000
0000
0010
1000
0000
0010
1000
0000
0010
1000
0000
0100
0000
0100
0000
,
0010
0001
0000
0010
0001
0000
0010
0001
0000
0010
0001
0000
0100
0000
0100
0000
,
1010
0000
0000
0110
0000
0000
0101
0000
0000
0110
0000
0000
1001
0000
1001
0000
,
1000
0100
0010
0001
0100
0000
0001
0010
,
0100
0000
1000
0000
0001
1000
0001
1000
0000
0000
1100
0000
0000
0110
0000
0000
;

//---------------dance-single - ----------------
#NOTES:
     dance-single:
     :
     Challenge:
     16:
     0.879,0.908,0.420,0.079,1.000:
0000
0000
0000
0000
,
0000
0000
0000
0000
,
0000
0000
0000
0000
,
0000
0000
0000
0000
,
1000
0100
0000
1000
0001
0000
1000
0100
0000
1000
0001
0000
1000
0000
1000
0000
,
0100
0010
0000
0001
1000
0000
0100
0010
0000
0001
1000
0000
0010
0000
0010
0000
,
0100
0001
0000
1000
0100
0000
0010
0001
0000
1000
0010
0000
0100
0000
0100
0000
,
0001
1000
0000
0100
1000
0000
0001
1000
0000
0100
1000
0000
0001
0000
0001
0000
,
0100
0010
0000
1000
0010
0000
0100
0010
0000
1000
0010
0000
0100
0000
0100
0000
,
0001
1000
0000
0100
1000
0000
0001
0010
0000
0001
1000
0000
0010
0000
0010
0000
,
0100
0001
0000
1000
0001
0000
1000
0010
0000
1000
0001
0000
0010
0000
0010
0000
,
0100
1000
0000
0100
0010
0000
0001
1000
0000
0100
0010
0000
0002
0000
0000
0000
,
0103
0010
0100
0000
0001
1000
0100
0010
0001
0100
0001
0100
0010
0000
0100
0000
,
0001
0010
0200
0000
0000
0000
1300
0010
0100
0010
1000
0001
1000
0000
0000
0000
,
0100
1000
0100
0000
0010
0001
0100
0001
0020
0000
0000
0000
0000
0000
0030
0000
,
0001
1000
0000
1000
0100
0000
0100
0010
0000
0000
0001
0100
0010
1000
0001
0100
,
0010
0000
1010
0000
0000
0110
0000
0101
0000
0000
0000
0000
0011
0000
1001
0000
,
0000
1001
0000
1100
0000
0000
0000
0000
0010
0000
0000
0010
0001
1000
0100
0010
,
0001
0000
0000
0001
0000
0000
0001
0000
0110
0000
0000
0000
0000
0000
0000
0000
,
1000
0000
0000
1000
0000
0000
1000
0000
0110
0000
0000
0000
0000
0000
0001
0000
,
0001
0100
0001
0000
0100
0010
0100
0000
0001
0100
0001
0000
0100
0010
0100
0000
,
0001
0000
1000
0100
0010
0000
0010
0000
0001
0000
1000
0100
0010
0000
0010
0000
,
0001
1000
0001
0000
1000
0100
1000
0000
0001
1000
0001
0000
1000
0100
1000
0000
,
0001
0000
1000
0010
0100
0000
0100
0000
0001
0000
1000
0010
0100
0000
0100
0000
,
0001
0100
0001
0100
0010
1000
0010
1000
0100
0010
0100
0010
0001
1000
0001
0000
,
0010
0001
0010
0001
0100
0010
0100
0010
1000
0100
1000
0100
0010
0001
1000
0000
,
0010
1000
0010
1000
0001
0010
0001
0010
0100
0010
0100
1000
0010
0100
0010
0000
,
0100
0001
0100
0001
1000
0100
1000
0100
0010
0001
0010
0001
0100
0010
1000
0000
,
1001
0000
0001
0010
0100
0000
1100
0000
1000
0000
0001
0100
0000
0001
1000
0000
,
1001
1001
0110
0110
1001
0000
0100
0010
,
1001
0000
1000
0010
0100
0000
0001
0000
0010
0100
0010
0000
0001
0010
0001
0000
,
1001
0000
0010
0100
0010
0000
0110
0000
1001
0000
1001
0000
1000
0010
0000
0000
,
1000
0100
0010
0001
1000
0010
2000
0000
0000
0000
3001
0100
0000
0001
1000
0000
,
0100
0010
0001
0100
0010
0100
0002
0000
0000
0000
1003
0001
0000
0100
0001
0000
,
1000
0001
0100
0001
1000
0000
0001
1000
0100
1000
0001
0000
1000
0100
0010
0100
,
1000
0000
0001
0100
0010
0001
0010
0000
0100
0001
1000
0100
0010
0000
0100
1000
,
0001
0010
0001
1000
0010
0000
1000
0010
0100
1000
0100
0010
1000
0001
0010
0000
,
0100
0010
0001
1000
0010
1000
0001
0010
0200
0000
0000
0000
2300
0000
0000
0000
,
3002
0000
0010
0000
0010
0010
0013
0000
,
1001
0000
0000
1010
0000
0000
1001
0000
0000
0101
0000
0000
0100
0010
0100
0000
,
0001
0000
0010
0100
1000
0000
0001
0010
0100
0000
0000
0000
1000
0000
0010
0100
,
0001
0000
0100
0010
1000
0001
1000
0001
1000
0000
0100
1000
0001
0000
0001
1000
,
0100
0000
0010
0000
1001
0000
0001
1000
0010
0000
0010
1000
0001
0000
0001
0000
,
0100
0000
0100
0000
1001
0000
1000
0010
0100
0000
0001
0100
0001
0000
1000
0100
,
0001
0100
1000
0000
0001
0010
0100
0010
0001
1000
0010
0000
1010
0000
0000
0110
,
0000
0000
0101
0000
0100
0010
1000
0010
0100
0010
1000
0000
0001
1000
0000
0100
,
1000
0001
0100
0001
1000
0001
0100
0000
0110
0000
0010
0000
1000
0100
0010
0000
,
0100
0000
0000
1000
0000
0000
0001
0000
0000
0100
0000
0000
1000
0000
0000
0100
0000
0000
0001
0000
0000
2000
0000
0000
0000
0000
0000
0000
0000
0000
0000
0000
0000
0000
0000
0000
3001
0000
0000
0000
0010
0000
0000
0000
0100
0000
0000
0000
,
0001
0100
1000
0001
0100
0010
0001
0010
1000
0001
0000
0000
,
1001
0000
1000
0010
0100
0001
0010
0000
0110
0000
1100
0000
0011
0000
0001
1000
,
0001
0010
1000
0010
0001
1000
0001
0000
1000
0100
0010
0000
0100
1000
0001
0100
,
1000
0100
0001
0010
0001
0100
0010
1000
0100
0000
0010
0001
1000
0000
0100
1000
,
0010
0000
0010
0100
0001
1000
0100
0010
0001
0100
1000
0100
0010
1000
0001
0000
,
0000
1000
0000
1000
0001
0010
1000
0010
0100
1000
0001
0000
1001
0000
1000
0000
,
0010
0100
0010
1000
0001
0010
1000
0010
0001
0100
1000
0100
0001
0010
0100
0010
,
0001
0100
1000
0001
0010
1000
0001
0100
1000
0100
0010
1000
,
0001
1000
0100
0001
1000
0010
0001
1000
0100
0010
0001
1000
,
1010
0000
0110
0000
0000
0110
0000
0101
0000
0000
0000
0000
0011
0000
0110
0000
,
0000
0110
0000
1100
0000
0000
0000
0000
1000
0000
1000
0001
1000
0000
0010
0000
,
1000
0001
0000
0001
0010
0000
0010
0100
0000
0100
1000
0000
0010
0000
0010
0000
,
0100
0001
0000
0001
1000
0000
1000
0010
0000
0010
0100
0000
0001
0000
0001
0000
,
0010
0100
0000
0100
1000
0000
1000
0010
0000
0010
0100
0000
0001
0000
0001
0000
,
1000
0100
0000
1001
0000
0000
0001
0010
0000
1001
0000
0000
1000
0001
1000
0000
,
0010
0000
0010
0100
0001
0000
0001
0100
0010
0000
0000
0000
1000
0000
1000
0100
,
0010
0000
0010
0001
1000
0010
0100
0001
0000
0000
0101
0000
0000
1001
0000
0000
;

//---------------dance-single - ----------------
#NOTES:
     dance-single:
     :
     Beginner:
     2:
     0.110,0.169,0.123,0.000,0.000:
0000
0000
0000
0000
,
0000
0000
0000
0000
,
0000
0000
0000
0000
,
0000
0000
0000
0000
,
1000
0000
0000
0000
,
0010
0000
0000
0000
,
0100
0000
0000
0000
,
0001
0000
0000
0000
,
1000
0000
0000
0000
,
0001
0000
0000
0000
,
0010
0000
0000
0000
,
0100
0000
0000
0000
,
1000
0000
1000
0000
,
0000
0000
0000
0000
,
0100
0000
0100
0000
,
1001
0000
0000
0000
,
1001
0000
0000
0001
,
0000
0000
0000
0000
,
0100
0000
0000
0000
,
0000
0000
0000
0000
,
0001
0000
0000
0000
,
0010
0000
0000
0000
,
0100
0000
0000
0000
,
1000
0000
0000
0000
,
0001
0000
0010
0000
,
0001
0000
0000
0000
,
1000
0000
0100
0000
,
1000
0000
0000
0000
,
1001
0000
0000
0000
,
0110
0000
0000
0000
,
1001
0000
0001
0000
,
1000
0000
0000
0000
,
1001
0000
0000
0000
,
0110
0000
0000
0000
,
1001
0000
0000
0001
,
0000
0000
1000
0000
,
0100
0000
0000
0000
,
0100
0000
0000
0000
,
0010
0000
0000
0000
,
0110
0000
0000
0000
,
0000
0000
0000
0000
,
0000
0000
0001
0000
,
1000
0000
0001
0000
,
0000
0100
0000
0001
,
0000
0100
0000
0001
,
0000
1000
0000
0000
,
0100
0000
0000
0010
,
0000
0001
0000
0010
,
0000
0000
0000
0100
,
0000
1000
0000
0010
,
0000
0000
0100
0000
,
0010
0000
0100
0000
,
0000
0000
1001
0000
,
0000
0110
0000
0000
,
0001
0000
1000
0000
,
0001
0000
0010
0000
,
0100
0000
1000
0000
,
0010
0000
0000
0010
,
0000
0000
0000
0000
,
1001
0000
0000
0000
,
1000
0000
0000
0000
,
1000
0000
0000
0000
,
1001
0000
0000
0000
,
0000
0000
0000
0010
,
0000
0110
0000
0000
;
