#TITLE:タンバリンビーツ;
#SUBTITLE:;
#ARTIST:Sana;
#TITLETRANSLIT:TAMBOURINE BEATS;
#SUBTITLETRANSLIT:;
#ARTISTTRANSLIT:;
#CREDIT:DigiMindAxel;
#BANNER:TAMBOURINE BEATS.png;
#BACKGROUND:TAMBOURINE BEATS-bg.png;
#LYRICSPATH:TAMBOURINE BEATS.lrc;
#CDTITLE:pop'n music.png;
#MUSIC:TAMBOURINE BEATS.ogg;
#METERTYPE:DDR X;
#OFFSET:-8.472;
#SAMPLESTART:72.412;
#SAMPLELENGTH:12.000;
#SELECTABLE:YES;
#BPMS:0.000=120.000;
#STOPS:;
#BGCHANGES:;

//---------------dance-single - ----------------
#NOTES:
     dance-single:
     :
     Easy:
     2:
     0.173,0.178,0.027,0.054,0.000:
0001
0000
1000
0000
,
0001
0000
1000
0000
,
0001
0000
1000
0000
,
0010
0100
0000
0000
,
0001
0000
0100
0010
,
0100
0000
0001
0000
,
1000
0100
0010
0000
,
0100
0010
0001
0000
,
1000
0001
1000
0000
,
0001
1000
0001
0000
,
1000
0000
0010
0000
,
0100
0010
0100
0000
,
0001
0000
1000
0000
,
0100
0000
0010
0000
,
0001
0000
0100
0000
,
0010
0100
0001
0000
,
1000
0000
0010
0100
,
0010
0000
1000
0001
,
1000
0000
0100
0010
,
0001
0100
0000
0000
,
0001
0001
0001
0000
,
1000
1000
1000
0000
,
1002
0000
0000
0000
0000
0000
0000
2003
,
0000
0000
3000
0000
,
0001
0001
0001
0000
,
1000
1000
1000
0000
,
0100
0010
0100
0000
,
0010
0001
0010
0000
,
0100
0010
0100
0000
,
1000
0100
1000
0000
,
0001
0000
0001
0000
,
0001
0000
0000
0000
,
0000
1001
0000
0000
,
1000
0010
1000
0000
,
0200
0000
0320
0000
,
0031
0100
0010
0100
,
0000
1001
0000
0000
,
0002
0000
0203
0000
,
0310
1000
0100
0010
,
0100
0000
0000
0000
,
1000
0100
0010
0100
,
0000
0000
0000
0000
,
1000
0000
0001
0100
,
0010
0000
0100
0010
,
1000
0000
0001
0010
,
0100
1000
0010
0000
,
0100
0000
0001
0010
,
0100
0000
0010
0100
,
1000
0000
0001
1000
,
0010
0100
0001
1000
;

//---------------dance-single - ----------------
#NOTES:
     dance-single:
     :
     Medium:
     7:
     0.329,0.355,0.152,0.027,0.000: // measure 1
0001
0100
0001
0100
,  // measure 2
0001
1000
0001
1000
,  // measure 3
0100
0010
0100
0010
,  // measure 4
0001
0010
0100
1000
0000
0000
0000
0000
,  // measure 5
0001
0000
0100
0000
0010
0100
0010
0000
,  // measure 6
0100
0001
1000
0100
1000
0000
0000
0001
,  // measure 7
1000
0001
1000
0001
0000
0000
0000
0100
,  // measure 8
0001
0100
0001
0100
0000
0000
0000
0000
,  // measure 9
0001
1000
0100
0001
,  // measure 10
0100
0000
1000
0000
0001
1000
0100
0000
,  // measure 11
1000
0001
1000
0001
1000
0001
0000
0000
,  // measure 12
0100
0010
0100
0010
0100
0010
0000
0000
,  // measure 13
1001
0000
1100
0000
0010
0001
1000
0000
,  // measure 14
1001
0000
0011
0000
0100
1000
0001
0000
,  // measure 15
1001
0000
1100
0000
0010
0001
1000
0000
,  // measure 16
0001
0010
0100
1000
0000
0000
0000
0000
,  // measure 17
1001
0000
0101
0000
0010
1000
0001
0000
,  // measure 18
1001
0000
1010
0000
0100
0001
1000
0000
,  // measure 19
1001
0000
0101
0000
0010
1000
0001
0000
,  // measure 20
1000
0100
0010
0001
0000
0000
0000
0000
,  // measure 21
1000
1000
1000
1000
1000
0000
0000
0000
,  // measure 22
0001
0001
0001
0001
0001
0000
0000
0000
,  // measure 23
1001
0000
0100
0000
0010
0000
0001
2000
,  // measure 24
0000
0000
0010
3010
,  // measure 25
1000
1000
1000
1000
1000
0000
0000
0000
,  // measure 26
0001
0001
0001
0001
0001
0000
0000
0000
,  // measure 27
0010
0000
0100
0000
1000
0100
0010
0000
,  // measure 28
0001
0000
0100
0000
0010
0100
0001
0000
,  // measure 29
1000
0100
0010
0001
,  // measure 30
1000
0100
0010
0001
1000
0000
1000
0000
,  // measure 31
0001
1000
0100
0010
,  // measure 32
0002
0000
0000
0000
,  // measure 33
1003
0000
1001
0000
0001
0100
0001
1000
,  // measure 34
0100
0000
0010
0000
0001
0000
0100
0010
,  // measure 35
1000
0000
0100
0010
0001
0000
0010
0100
,  // measure 36
1000
0010
1000
0010
1000
0010
1000
0000
,  // measure 37
0001
0000
1001
0000
1000
0100
1000
0010
,  // measure 38
0100
0001
1000
0100
,  // measure 39
0010
0001
0100
0010
1000
0000
0100
0000
,  // measure 40
0010
0001
0100
0000
,  // measure 41
0001
1000
0100
0000
0010
0001
0100
0000
,  // measure 42
0020
0000
0030
1001
,  // measure 43
0001
0100
0010
0000
1000
0000
1000
0000
,  // measure 44
0100
0010
0001
0000
0010
0000
0010
0000
,  // measure 45
0001
0100
0010
0000
1000
0000
1000
0000
,  // measure 46
0100
0010
0001
1000
0000
0000
0000
0000
,  // measure 47
0100
1000
0010
0000
0100
0000
0100
0000
,  // measure 48
0001
0010
0100
0000
0010
0000
0010
0000
,  // measure 49
0001
1000
0100
0000
0010
0000
0010
0000
,  // measure 50
0001
0010
0100
1000
0000
1001
0000
0000
;

//---------------dance-single - ----------------
#NOTES:
     dance-single:
     :
     Hard:
     11:
     0.536,0.467,0.143,0.304,0.345:
1000
0000
0001
0000
0010
0000
0000
0000
0100
0000
0000
0100
0000
0000
0100
0000
,
0010
0000
0001
0000
1000
0000
0000
0000
0010
0000
0000
0010
0000
0000
0010
0000
,
0100
0001
0010
1000
0010
0001
1000
0100
,
1000
0000
0010
0000
0100
0000
0001
0000
0000
0000
1000
0010
1000
0000
0001
0000
,
0010
0000
0100
0000
0010
0000
0100
0000
1000
0001
0000
0100
0000
0000
0001
0000
,
0100
0000
0010
0000
1000
0000
0001
1000
0000
0100
0000
0000
0000
0000
0010
0000
,
0001
1000
0100
0020
0000
0031
1000
0010
,
1000
0001
0100
0020
0000
1030
0000
0000
,
0001
0000
0100
0001
0000
0100
0010
0000
1000
0020
0000
0000
1030
0000
0000
0000
,
0001
0000
1000
0100
0000
0010
0100
0000
1000
0000
0001
0010
0000
0001
0000
0000
,
0010
0001
0100
0010
1000
0100
0110
0000
,
0100
1000
0010
0100
0001
0010
0110
0000
,
1000
0000
0010
0000
0001
0000
0010
0000
2000
0000
0000
0100
0000
0000
3100
0000
,
1000
0000
0010
0000
0001
0000
0010
0000
2000
0000
0000
0100
0000
0000
3100
0000
,
0010
0001
1000
0100
0010
1000
0010
0001
,
1000
0001
0010
0200
0000
0300
1001
0000
,
1000
0000
0010
1000
0000
0001
0100
0000
0002
0000
0000
1000
0000
0000
1003
0000
,
0001
0000
0010
0001
0000
1000
0100
0000
0020
0000
0000
0001
0000
0000
0031
0000
,
0100
0000
0010
1000
0000
0001
0010
0000
0100
0000
1000
0000
0010
0000
0100
0000
,
0010
0000
1000
0001
0000
0010
0001
0000
1000
0010
1000
0010
1000
0000
0000
0000
,
0001
0000
0001
0000
0010
0100
1000
0010
0000
0200
0000
0000
0301
0000
0000
0000
,
1000
0000
1000
0000
0100
0010
0001
0100
0000
0020
0000
0000
1030
0000
0000
0000
,
1002
0000
0100
0000
1003
0001
0010
0200
,
0000
0000
1000
0000
1300
0000
0000
0000
0001
1000
0010
1000
0001
0000
0000
0000
,
1000
0000
1000
0000
0010
0100
0001
0010
0000
0200
0000
0000
1300
0000
0000
0000
,
0001
0100
0001
0100
0000
0010
1000
0100
0000
0020
0000
0000
0130
0000
0000
0000
,
1000
1000
0100
0100
0010
0010
0000
0001
,
0100
0000
0010
1000
0000
0001
0010
0000
0100
1000
0010
1000
0100
0000
0000
0000
,
0010
0000
0001
1000
0001
0000
0010
0000
0100
0010
0001
0000
1000
0000
0010
0100
,
0010
0000
1000
0000
0001
0000
0010
0000
0100
1000
0001
1000
0100
0000
0000
0000
,
0010
0001
0000
0010
0001
0000
1000
0000
0010
1000
0000
0010
1000
0000
0001
0000
,
0020
0100
0100
0130
,
0110
0000
1001
0000
1000
0010
0001
0020
,
0000
1000
1000
1030
0001
0010
0100
1000
,
0001
0000
0100
0000
0001
1000
0000
0200
0000
0000
0310
0000
0001
0100
0000
0020
,
0000
1030
0010
0001
0010
1000
0100
0010
,
0110
0000
1001
0000
0001
0010
1000
0020
,
0000
0001
0001
0031
1000
0010
1000
0000
,
0001
0000
1000
0000
0100
1000
0000
0020
0000
0000
0130
0000
0001
0000
0100
0020
,
0000
0000
1030
0000
0010
0000
1000
0001
0000
0000
0100
0000
0100
0000
0000
0000
,
1001
0000
1000
0000
0010
0100
0000
0002
0000
0000
1003
0100
0010
0000
0001
1000
,
0000
0000
0000
1001
,
0001
0000
0010
0000
1000
0000
0010
0000
0002
0000
0000
0023
0000
0000
0230
0000
,
0000
0300
1000
0000
0010
0000
0001
0000
0020
0000
0000
2030
0000
0000
3020
0000
,
0000
0030
1000
0000
0100
0000
0001
0000
0100
0000
1000
0000
0001
0000
0010
0000
,
1100
0000
1000
0000
0010
0000
0110
0000
0000
0000
0010
0100
0001
0000
0001
0000
,
1000
0000
0010
0100
0001
0000
0100
0000
2000
0000
0000
3200
0000
0000
0302
0000
,
0000
0003
0010
0100
1000
0000
0100
0000
0002
0000
0000
0203
0000
0000
2300
0000
,
0000
3000
0100
0010
0001
0000
1000
0000
0100
0000
1000
0000
0001
0000
0100
0000
,
0101
0001
1000
1100
0000
0110
1001
0000
;

//---------------dance-single - ----------------
#NOTES:
     dance-single:
     :
     Beginner:
     1:
     0.098,0.134,0.089,0.000,0.000:
0001
0000
0000
0000
,
0100
0000
0000
0000
,
0001
0000
0000
0000
,
1000
0000
0000
0000
,
0100
0000
0000
0000
,
0010
0000
0000
0000
,
0100
0000
0100
0000
,
0010
0000
0010
0000
,
0001
0000
0000
0000
,
1000
0000
0000
0000
,
0001
0000
0000
0000
,
1000
0000
0000
0000
,
1001
0000
0000
0000
,
0001
0000
0000
0000
,
0100
0000
0000
0000
,
0010
0000
0000
0000
,
0100
0000
0010
0000
,
0010
0000
1000
0000
,
1000
0000
0001
0000
,
0001
0000
0000
0000
,
1001
0000
0000
0000
,
0110
0000
0000
0000
,
1001
0000
0000
0000
,
0000
0000
0000
0000
,
1001
0000
0000
0000
,
0110
0000
0000
0000
,
0001
0000
0000
0000
,
0100
0000
0010
0000
,
1000
0000
0000
0000
,
0001
0000
0010
0000
,
0100
0000
0000
0000
,
0000
0000
0000
0000
,
1001
0000
1000
0000
,
0100
0000
1000
0000
,
0001
0000
0010
0000
,
0100
0000
0000
0000
,
1001
0000
0001
0000
,
0100
0000
0010
0000
,
0100
0000
0000
0000
,
0000
0000
0000
0000
,
0001
0000
1000
0000
,
0100
0000
0000
0000
,
1000
0000
0010
0000
,
1000
0000
0001
0000
,
1000
0000
0010
0000
,
0110
0000
0000
0000
,
0001
0000
0010
0000
,
0001
0000
1000
0000
,
0001
0000
0010
0000
,
0001
0000
0000
1001
;
