#TITLE:Sweets×Sweets;
#SUBTITLE:;
#ARTIST:Team-D;
#TITLETRANSLIT:Sweets Sweets;
#SUBTITLETRANSLIT:;
#ARTISTTRANSLIT:;
#CREDIT:DigiMindAxel;
#BANNER:Sweets Sweets.png;
#BACKGROUND:Sweets Sweets-bg.png;
#LYRICSPATH:;
#CDTITLE:maimai.png;
#MUSIC:Sweets Sweets.ogg;
#METERTYPE:DDR X;
#OFFSET:-1.117;
#SAMPLESTART:57.035;
#SAMPLELENGTH:12.000;
#SELECTABLE:YES;
#BPMS:0.000=132.000;
#STOPS:70.000=0.454545
,85.000=0.454545
;
#BGCHANGES:-4.000=Sweets Sweets.avi=1.000=1=1=0,
99999=-nosongbg-=1.000=0=0=0 // don't automatically add -songbackground-
;

//---------------dance-single - ----------------
#NOTES:
     dance-single:
     :
     Easy:
     5:
     0.251,0.256,0.058,0.000,0.000:
0000
0000
0000
0000
,
0000
0000
0000
0000
,
0000
0000
0000
0000
,
0000
0000
0000
0000
,
0001
1000
0001
1000
,
0100
1000
0100
1000
,
0001
1000
0001
1000
,
0100
0010
0001
1000
,
0100
1000
0100
1000
,
0001
1000
0001
1000
,
0001
0100
0001
0100
,
0010
0100
0010
0100
,
0001
1000
0001
1000
,
0100
0010
0100
0010
,
0001
0100
0001
0100
,
0010
1000
0001
0001
,
1001
1000
1000
1000
,
0100
1000
0100
0010
,
0010
0010
0010
0001
,
0010
0001
0000
0010
,
0010
0010
0010
0100
,
0010
0100
1000
1000
,
1000
1000
0010
0100
,
0010
0000
1001
1000
,
0001
0010
0001
1000
,
0001
0010
0001
1000
,
0100
0010
0001
1000
,
0001
1000
0001
1000
,
0010
1000
0001
1000
,
0010
1000
0001
0010
,
0100
1000
0000
0001
,
0100
0001
0100
0001
,
1000
0001
1000
0100
,
1000
0100
1000
0001
,
1000
0001
1000
0010
,
1000
0010
1000
0010
,
0100
0010
0100
0001
,
0100
0001
0100
0001
,
0010
0100
1000
0001
,
1000
0001
1000
0001
,
0010
0001
0010
0001
,
1000
0001
1000
0010
,
1000
0010
1000
0100
,
0010
0100
0010
0001
,
1000
0001
1000
0010
,
1000
0010
1000
0001
,
0001
0001
0001
1001
,
0000
0000
0000
1000
,
0000
0000
0000
1001
,
0000
0000
0000
0001
,
0000
0000
0000
0110
,
0000
0000
0000
0010
,
0000
0000
0000
0110
;

//---------------dance-single - ----------------
#NOTES:
     dance-single:
     :
     Medium:
     7:
     0.398,0.384,0.146,0.301,0.000:
0000
0000
0000
0000
,
0000
0000
0000
0000
,
0000
0000
0000
0000
,
0000
0000
0000
0000
,
0001
0000
0010
0000
0100
0000
1000
0001
,
1000
0001
1000
0001
1000
0000
0001
0000
,
1000
0000
0100
0000
0010
0000
0001
1000
,
0001
1000
0001
1000
0001
0000
1000
0000
,
0010
0000
0100
0000
0001
0000
0100
0010
,
0100
0010
0100
0010
0100
0000
0001
0000
,
0100
0000
0010
0000
1000
0000
0010
0100
,
0010
0100
0010
0100
0010
0000
1000
0000
,
0100
0000
0010
0000
0001
0000
1000
0001
,
1000
0001
1000
0001
1000
0000
0001
0000
,
0100
0000
0010
0000
1000
0000
0001
1000
,
0001
0010
0100
1100
,
1001
0000
1000
0100
1000
0000
0100
1000
,
0100
0000
1000
0001
0100
0000
1001
0000
,
0001
0010
0001
0000
0010
0001
0010
0000
,
0001
1000
0010
0000
0000
0000
1001
0000
,
1000
0010
1000
0000
0010
1000
0010
0000
,
1000
0001
0010
0000
1001
0000
0001
0100
,
0001
0000
0100
0001
0100
0000
0001
1000
,
0100
0000
2001
3002
,
2003
3001
0200
0320
,
0230
0310
2000
3200
,
2300
3002
1000
1000
,
1003
0001
0020
0032
,
0023
0031
2000
3002
,
2003
3001
0200
0320
,
0230
0310
0000
1001
,
0001
0100
0001
0100
0001
0010
0100
1000
,
0001
0000
0001
0000
1000
0001
1000
0100
,
1000
0100
1000
0010
0100
0001
1000
0000
,
1000
0000
0010
0000
0100
0010
0100
0001
,
0100
0001
1000
0100
0010
0001
1000
0000
,
1000
0000
0001
0000
0010
0001
0010
0100
,
1000
0100
1000
0010
0100
0001
0010
0000
,
0001
0000
1000
0000
0100
1000
0100
0010
,
0001
0010
0001
0100
0010
1000
0100
0000
,
1000
0000
0001
0000
0100
0001
0100
0010
,
1000
0010
1000
0100
0010
0001
1000
0000
,
0100
1000
0001
1001
,
1000
0010
1000
0010
0100
0001
0010
0100
,
1000
0000
0001
0000
0010
0001
0010
0001
,
0100
0010
1000
0010
0100
0001
1000
0000
,
0100
0010
0001
0022
,
0000
0000
0033
0220
,
0000
0000
0330
2200
,
0000
0000
3300
0220
,
0000
0000
0330
2002
,
0000
0000
3003
0220
,
0000
0000
0330
1001
;

//---------------dance-single - ----------------
#NOTES:
     dance-single:
     :
     Hard:
     10:
     0.503,0.487,0.058,0.223,0.121: // measure 1
0000
0000
0000
0000
,  // measure 2
0000
0000
0000
0000
,  // measure 3
0000
0000
0000
0000
,  // measure 4
0000
0000
0000
0000
,  // measure 5
1000
0001
1000
0020
0000
0130
0000
0001
,  // measure 6
0100
1000
0100
0001
0000
0000
1000
0100
,  // measure 7
1000
0001
0100
0020
0000
1030
0000
0001
,  // measure 8
0010
1000
0010
0001
2000
0000
3001
0000
,  // measure 9
1000
0010
0100
0002
0000
1003
0000
0001
,  // measure 10
0100
1000
0100
0001
0000
0000
1000
0001
,  // measure 11
1000
0100
0010
0002
0000
1003
0000
0001
,  // measure 12
0010
1000
0010
0001
0000
0000
0010
0100
,  // measure 13
1000
0010
0001
0020
0000
1030
0000
0001
,  // measure 14
0010
0100
0010
0001
0000
0000
0100
0010
,  // measure 15
1000
0100
0001
0200
0000
1300
0000
0001
,  // measure 16
1000
0000
1000
0001
0100
0001
0100
0000
0100
0020
0000
0000
,  // measure 17
1030
0000
1000
0000
1000
0000
0100
0000
0010
0000
0001
0000
0001
0100
0010
0000
,  // measure 18
0100
0100
0001
0010
0200
0300
1000
1000
,  // measure 19
1000
0000
0010
0000
0100
0000
0001
0000
0001
0010
0100
0000
0010
0000
0010
0000
,  // measure 20
0001
1000
2200
0000
0000
3300
0001
0001
,  // measure 21
0001
0000
0010
0000
0100
0000
1000
0000
1000
0010
0100
0000
0010
0000
0010
0000
,  // measure 22
1000
0100
0020
0030
0001
0001
0001
0100
,  // measure 23
0010
0000
1000
0000
1000
0100
0010
0000
0100
0000
0100
0000
1000
0000
0010
0000
,  // measure 24
0100
0000
0001
0000
0001
1000
0001
0000
1000
0000
0000
1000
0100
0000
0000
0100
,  // measure 25
0010
0000
0000
0001
1000
0010
1000
0000
0001
0000
0000
0100
0010
0000
0100
0000
,  // measure 26
0001
0000
0000
0000
0010
0000
0100
0000
1000
0000
0000
1000
0001
0000
0000
0001
,  // measure 27
0100
0000
0000
0100
0000
0000
0001
0000
0010
0000
0100
0000
0010
0000
0001
0000
,  // measure 28
0100
0000
0000
0000
0010
0000
1000
0000
0100
0000
0000
0100
0010
0000
0000
0010
,  // measure 29
0100
0000
0000
0000
1000
0000
0001
0000
0100
0000
0000
0100
0000
0000
0001
0000
,  // measure 30
0000
0000
0000
0000
0010
0000
0100
0000
2000
0000
0000
3002
0000
0000
2000
0000
,  // measure 31
0000
0000
3003
0000
0000
0000
0001
0100
,  // measure 32
0010
0001
0010
1000
0001
0001
1000
1000
,  // measure 33
0100
0010
0001
0000
0001
0010
1000
0010
,  // measure 34
0001
1000
0010
1000
0001
0100
0010
0001
,  // measure 35
0010
1000
0001
0000
0001
0100
1000
0100
,  // measure 36
0001
1000
0100
1000
0001
0010
0100
0001
,  // measure 37
0100
1000
0001
0100
0001
0010
1000
0010
,  // measure 38
0001
1000
0010
1000
0001
0020
0000
0130
,  // measure 39
0020
0000
0032
0000
1003
0000
0001
0010
,  // measure 40
0100
0001
0100
1000
0010
0100
0010
1000
,  // measure 41
0001
0010
1000
0010
0001
1000
0001
0100
,  // measure 42
0010
0001
0010
1000
0100
0010
0100
1000
,  // measure 43
0001
0010
1000
0010
0001
1000
0001
0010
,  // measure 44
0100
0001
0100
1000
0010
0100
0010
1000
,  // measure 45
0001
0010
1000
0010
0001
0100
0010
0001
,  // measure 46
0010
1000
0100
0010
0100
1000
0001
0100
,  // measure 47
1000
0000
0000
0100
0000
0000
0001
0000
0010
0000
0100
0000
1000
0000
0000
0000
0000
0000
1020
0000
0000
0000
0000
0000
,  // measure 48
1000
1000
1030
0120
,  // measure 49
0100
0000
0000
0000
0100
0000
0000
0000
0130
0000
0000
0000
0001
0000
0100
0001
,  // measure 50
0100
0000
0001
1000
0001
0000
0010
0000
0100
0000
1000
0000
0010
0000
0001
0000
,  // measure 51
0010
1000
0200
0000
0310
0000
0021
0000
,  // measure 52
0001
0001
0031
0210
,  // measure 53
0010
0010
0310
1001
;

//---------------dance-single - ----------------
#NOTES:
     dance-single:
     :
     Beginner:
     2:
     0.098,0.128,0.126,0.000,0.000:
0000
0000
0000
0000
,
0000
0000
0000
0000
,
0000
0000
0000
0000
,
0000
0000
0000
0000
,
1000
0000
0000
0000
,
0100
0000
0000
0000
,
1000
0000
0000
0000
,
0100
0000
0000
0000
,
0110
0000
0000
0000
,
0010
0000
0000
0000
,
0100
0000
0000
0000
,
0001
0000
0000
0000
,
0010
0000
0000
0000
,
0001
0000
0000
0000
,
0100
0000
0000
0000
,
0010
0000
0000
0000
,
0110
0000
0000
0000
,
1000
0000
0000
0110
,
0000
0000
0000
0001
,
0000
0000
0000
0110
,
0000
0000
0000
1000
,
0000
0000
0110
0000
,
0000
0000
0001
0000
,
0000
0000
1001
0000
,
0000
0000
1000
0000
,
0000
0000
0001
0000
,
0000
0000
1000
0000
,
0000
0000
0010
0000
,
0000
0000
0100
0000
,
0000
0000
0001
0000
,
0000
0000
0000
1001
,
0000
1000
0000
1000
,
0000
0000
0000
0001
,
0000
0001
0000
0001
,
0000
0000
0000
1000
,
0000
1000
0000
1000
,
0000
0000
0000
0001
,
0000
0001
0000
0001
,
0000
0000
0000
0110
,
0000
0100
0000
0100
,
0000
0000
0000
0010
,
0000
0010
0000
0010
,
0000
0000
0000
1001
,
0000
1000
0000
1000
,
0000
0000
0000
0001
,
0000
0001
0000
0001
,
0000
0000
0000
1001
,
0000
0000
0000
1001
,
0000
0000
0000
0010
,
0000
0000
0000
0010
,
0000
0000
0000
0110
,
0000
0000
0000
0110
,
0000
0000
0000
0100
;
