#TITLE:Summer End Anthem;
#SUBTITLE:;
#ARTIST:Personative;
#TITLETRANSLIT:;
#SUBTITLETRANSLIT:;
#ARTISTTRANSLIT:;
#CREDIT:DigiMindAxel;
#BANNER:Summer End Anthem.png;
#BACKGROUND:Summer End Anthem-bg.png;
#LYRICSPATH:;
#CDTITLE:crossbeats REV..png;
#MUSIC:Summer End Anthem.ogg;
#METERTYPE:DDR X;
#OFFSET:-12.600;
#SAMPLESTART:22.553;
#SAMPLELENGTH:12.000;
#SELECTABLE:YES;
#BPMS:0.000=180.000,160.000=90.000,176.000=180.000;
#STOPS:;
#BGCHANGES:;

//---------------dance-single - ----------------
#NOTES:
     dance-single:
     :
     Easy:
     6:
     0.277,0.276,0.130,0.057,0.000:
1001
0000
1000
0000
,
1000
0001
1000
0000
,
1001
0000
0001
0000
,
1000
0001
0010
0000
,
0002
0000
1000
0000
,
1000
0000
1000
0000
,
1000
0000
1000
0000
,
1003
0000
1001
0000
,
0001
1000
0001
0000
,
1000
0100
1000
0000
,
0001
1000
0001
0000
,
0100
0001
0100
0000
,
0001
1000
0001
0000
,
1000
0100
1000
0000
,
0001
1000
0001
0000
,
0010
0001
0010
0000
,
0001
0010
0100
0000
,
1000
0010
0100
0000
,
0001
1000
0100
0000
,
0010
0001
1000
0000
,
0001
0100
0010
0000
,
0100
0010
1000
0000
,
0001
0010
0100
1000
,
0002
0000
0000
0000
,
1003
0100
1000
0000
,
0001
1000
0001
0000
,
1000
0100
1000
0000
,
0001
1000
0001
0000
,
1000
0100
0010
0001
,
1000
0010
0100
0001
,
1000
0000
0000
1000
0000
0000
0001
0000
,
0000
0001
0000
0000
1001
0000
0000
0000
,
1000
0100
1000
0100
,
1000
0001
1000
0001
,
0100
0001
0100
0001
,
0100
0010
0100
0000
,
1001
0001
0001
0000
,
1000
0000
0001
0000
,
0010
0100
1000
0001
,
0010
0000
0110
0000
,
1001
0000
1000
0000
,
0010
0000
0100
0000
,
0001
0000
0100
0000
,
0010
1000
0001
0000
,
1000
0001
1000
0000
,
0001
1000
0001
0000
,
0010
0001
0010
0000
,
0100
1000
0100
0000
,
1000
0001
1000
0000
,
0001
1000
0001
0000
,
0100
0001
0100
0000
,
0010
1000
0010
0000
,
0000
1001
0000
1001
,
0000
1001
0000
1001
,
0000
1001
0000
1001
,
0000
1001
0000
1001
,
0001
1000
0001
1000
,
0002
0000
0000
0000
,
1003
0100
0010
0001
,
2002
0000
0000
3003
,
1000
0010
1000
0001
,
0010
0000
0100
1000
,
0001
0100
0001
1000
,
0100
0000
0010
0001
,
0100
0010
0100
0000
,
0001
1000
0100
0010
,
0002
0000
1000
0000
,
1003
0000
0001
0001
,
1000
0100
1000
0001
,
1000
0100
0010
0000
,
0001
0100
0001
1000
,
0001
0010
0100
0000
,
0010
0001
0100
0010
,
1000
0100
0010
0001
,
2000
0000
0000
0000
,
0000
0000
0000
3000
;

//---------------dance-single - ----------------
#NOTES:
     dance-single:
     :
     Medium:
     10:
     0.493,0.491,0.422,0.130,0.077:
1100
0000
0011
0000
,
1001
0000
0001
0000
1000
0000
1100
0000
0000
0000
0000
0000
,
0101
0000
1010
1000
,
0001
0000
0010
0001
0000
0100
0010
0000
0000
0000
0000
0000
,
1001
0000
1100
1000
,
1001
0000
0001
0000
0100
0000
0110
0000
0000
0000
0000
0000
,
1001
0000
0011
0001
,
1000
0000
0100
1000
0000
0010
0100
0000
0000
0100
0000
0000
,
1001
0000
1000
0010
0100
0000
0010
0100
,
0000
0001
1000
0000
0100
0010
0100
0010
,
0001
0000
1000
0010
0100
0000
0001
0100
,
0000
0001
1000
0000
0010
0100
0010
0100
,
0001
0000
0100
0010
1000
0000
0100
0010
,
0001
0000
1000
0100
0010
0000
0001
0000
,
1000
0000
0001
0100
0010
0100
0000
0001
,
1000
0100
0020
0000
,
0031
0000
0100
0010
1000
0000
0001
1000
,
0000
0100
1000
0000
0001
0100
0100
0000
,
0001
0000
1000
0100
0010
0000
0100
1000
,
0000
0001
0100
0000
0001
0001
0001
0000
,
0100
0000
1000
0100
0001
0000
0010
0100
,
1000
0000
0001
0010
0100
0000
1000
0000
,
0100
0000
0001
0100
1000
0001
0000
2002
,
0000
0000
0000
3003
,
0001
0101
0001
0101
,
0100
0110
0100
0110
,
1000
0000
1000
0100
1000
0000
0001
0010
,
0001
0000
1000
0100
1000
0000
0000
0000
,
0000
1001
0000
1100
0000
0110
0000
0011
,
0000
1001
0000
1001
0000
1001
0000
1000
,
0001
0000
0000
0101
0000
0000
0100
0000
,
0000
0110
0000
0000
1000
0001
1000
0001
,
1000
0000
0001
0100
1000
0000
0100
0001
,
1000
0000
0001
0100
0010
0000
2000
0000
,
3001
0000
1000
0100
0001
0000
0100
1000
,
0001
0000
0010
0100
0020
0000
0130
0000
,
1001
0000
1100
0000
0011
0000
0000
0011
,
0000
0000
1001
0000
0000
0000
1000
0000
0001
0000
0000
0100
0000
0000
0001
0000
,
1000
0100
0010
0100
,
1000
0001
0100
0001
1000
0000
0000
0000
,
1200
0000
0000
1000
0000
0000
0000
2300
0000
0000
0000
0000
3001
0000
1000
0000
,
0020
0000
0000
0100
0000
0000
0130
0000
0000
0000
0000
0000
0001
0000
1000
0000
,
0020
0000
0000
0100
0000
0000
0000
0230
0000
0000
0301
0000
0000
1000
0100
0000
,
2000
0000
0000
0001
0000
0000
0000
3001
0000
0000
0000
0000
0000
0000
0000
0000
,
1000
0000
0001
0010
0100
0000
1000
0001
,
0000
1000
0001
0000
0010
0000
0010
0100
,
1000
0000
0001
0100
0010
0000
0100
0001
,
0000
1000
0100
0000
0010
0001
1000
0000
,
0001
0000
0010
0100
1000
0001
0000
0100
,
0010
0000
0100
0010
0000
1000
0001
0000
,
0010
0000
0100
0000
0010
0001
0000
1000
,
0010
0000
0100
0002
0000
0000
0000
0000
,
0103
0110
1000
1001
,
0001
0011
0100
0110
,
1000
0000
1001
0000
0010
0010
0110
0000
,
0001
0011
0100
0110
,
1000
1000
1001
0000
0010
0000
0110
0000
,
2002
0000
0000
3003
,
1000
0010
1000
0001
0010
1000
0010
0001
,
1000
0000
0100
1000
0000
0010
0100
0000
0000
0000
0000
0000
,
1001
0000
1000
0001
0100
0000
0001
1000
,
0000
0100
1000
0000
0100
0010
0100
0010
,
0001
0000
1000
0010
0100
0000
0001
0100
,
0000
0001
1000
0000
0100
0010
0001
0010
,
0100
0000
1000
0001
0100
0001
0000
1000
,
0100
0000
1000
0100
0000
1000
0001
0000
,
0020
0000
0000
0100
0100
0000
0000
0000
,
0130
0110
1001
1001
,
1000
0000
0001
0010
1000
0000
0010
0001
,
0000
1000
0010
0000
0100
0001
1000
0100
,
0010
0000
0001
0100
1000
0000
0100
0001
,
0000
1001
0000
1001
0000
0001
1000
0000
,
0100
1001
0100
1001
,
1000
0001
0000
0100
0001
1000
0100
0000
,
0020
0000
0000
0000
,
0000
0000
0000
0030
;

//---------------dance-single - ----------------
#NOTES:
     dance-single:
     :
     Hard:
     14:
     0.702,0.737,0.503,0.389,0.531: // measure 1
0101
0000
1010
0010
,  // measure 2
0110
0000
0000
0000
0010
0000
0000
0000
0100
0000
0001
0000
0100
0000
0000
0000
0000
0000
0001
0000
0000
0001
0000
0000
,  // measure 3
1001
0000
0000
0000
0000
0000
1000
0100
1000
0000
0000
0000
1000
0000
1000
0000
,  // measure 4
0010
0000
0000
0000
0100
0000
0000
0000
0010
0000
0000
0000
0100
0000
0000
0000
0001
0000
0000
0000
0010
0000
0000
0000
0100
0000
0000
0000
0000
0000
0000
0000
0000
0100
0000
0000
0000
0000
0000
0000
0000
0000
0100
0000
0000
0000
0000
0000
,  // measure 5
1001
0000
0000
0000
0000
0000
0001
1000
0001
0000
0000
0000
0001
0000
0000
0000
,  // measure 6
0100
0000
0000
0000
0100
0000
0000
0000
0100
0000
0010
0000
1000
0000
0000
0000
0000
0000
0001
0000
0000
0001
0000
0000
,  // measure 7
1001
0000
0000
0000
0000
0000
1000
0100
1000
0000
0000
0000
0001
0000
0001
0000
,  // measure 8
0100
0001
0100
0001
1000
0100
1000
0000
0000
1100
0000
0000
,  // measure 9
1001
0000
0000
0001
0000
0000
0100
0000
0001
0000
0000
0000
0100
0000
0110
0000
,  // measure 10
0000
0000
1000
0000
1001
0000
0000
0000
0001
0100
0000
0001
0100
0000
0001
0000
,  // measure 11
1000
0000
0000
0100
0000
0000
1000
0000
0001
0000
0000
0000
0020
0000
0032
0000
,  // measure 12
0000
0000
0203
0000
0320
0000
0000
0000
1030
0000
0001
1000
0000
0001
1000
0000
,  // measure 13
0010
0000
0000
0010
0000
0000
0100
0000
0001
0000
0010
0000
0000
0000
1100
0000
,  // measure 14
1000
0000
0000
0000
0110
0000
0100
0000
0000
0001
0100
0000
0001
0100
0000
0001
,  // measure 15
1000
0000
0000
0100
0000
0000
1000
0000
0100
0000
0010
0000
0000
0000
0001
0000
,  // measure 16
1000
0000
0000
0001
0000
0000
0200
0000
0000
0000
0000
0000
0000
0000
0300
0000
,  // measure 17
1001
0000
0000
0001
0000
0000
0100
0000
0101
0000
0000
0000
0010
0000
0110
0000
,  // measure 18
0000
0000
1000
0000
1001
0000
0000
0000
0001
0010
0000
0001
0010
0000
0100
0000
,  // measure 19
1000
0000
0000
0010
0000
0000
1000
0000
0001
0000
0000
0000
0020
0000
0230
0000
,  // measure 20
0000
0000
0320
0000
0032
0000
0000
0000
1003
0000
0001
0100
0000
0001
0100
0000
,  // measure 21
0010
0000
0000
1000
0000
0000
0100
0000
0010
0000
0100
0000
0000
0000
1010
0000
,  // measure 22
0010
0000
0000
0000
1001
0000
0001
0000
0000
0010
0001
0000
0010
0001
0000
1000
,  // measure 23
0001
0000
0000
0010
0000
0000
0001
0000
0010
0000
0100
0000
0000
0000
1001
0000
,  // measure 24
1000
0001
0010
0100
1000
0001
0010
0100
,  // measure 25
2000
0000
0001
0001
3002
0000
0100
0100
,  // measure 26
0203
0000
0010
0000
0310
1000
0001
0000
,  // measure 27
0020
0000
0001
0001
0032
0000
0100
0100
,  // measure 28
0203
0000
0010
0010
0310
0000
0000
0000
,  // measure 29
0000
1010
0000
0110
0000
0101
0000
1001
,  // measure 30
0000
0220
0330
0220
0330
0220
0330
0110
,  // measure 31
1001
0000
0000
1000
0000
0000
1100
0000
0000
0100
0000
0000
0110
0000
0000
0010
,  // measure 32
0000
0011
0000
0000
0001
0001
1000
1000
,  // measure 33
0001
0200
0010
0310
1000
0200
1000
1300
,  // measure 34
0010
0200
0001
0301
1000
0100
0020
0000
,  // measure 35
0130
0000
1000
0020
0100
0130
0001
0020
,  // measure 36
0001
0031
0100
1000
0200
0000
0310
0000
,  // measure 37
0001
0000
1000
0000
1001
0000
0000
0000
0100
0000
0000
0100
0000
0000
1100
0000
,  // measure 38
0000
0000
0220
0000
0330
0000
0110
0000
1001
0000
0000
0001
0000
0000
0001
0000
,  // measure 39
1000
0100
0001
0100
1000
0010
0001
0010
,  // measure 40
1000
0001
1000
0001
1000
0001
1000
0001
1000
0000
0000
0000
0000
0000
0000
0000
,  // measure 41
1001
0000
0000
1000
0000
0001
0000
1001
0000
0000
0000
0000
0001
0100
1000
0100
,  // measure 42
0001
0000
0000
0101
0000
0000
1001
0000
0000
0000
0000
0000
1000
0100
0001
0100
,  // measure 43
1000
0000
0000
0100
0000
0010
0000
0110
0000
0000
0011
0000
0000
0001
0100
0010
,  // measure 44
1000
0000
0000
1010
0000
0000
0000
2002
0000
0000
0000
0000
0000
0000
3003
0000
,  // measure 45
0002
0000
0000
0010
0000
0000
0010
0000
0013
0000
0000
0000
0100
0000
1000
0000
,  // measure 46
0000
0000
0010
0000
0100
0000
0000
0000
0001
0100
0000
0001
0100
0000
0001
0000
,  // measure 47
2000
0000
0000
0100
0000
0000
0100
0000
3100
0000
0000
0000
0010
0000
0001
0000
,  // measure 48
0000
0000
0010
0000
0100
0000
0000
0000
1000
0000
0100
1000
0000
0100
1000
0000
,  // measure 49
0020
0000
0000
0100
0000
0000
0130
0000
0001
0000
1000
0000
0000
0000
0100
0000
,  // measure 50
0010
0000
0000
0000
0001
0000
1000
0000
0000
0010
0100
0000
0010
0100
0000
0001
,  // measure 51
2000
0000
0000
0010
0000
0000
3010
0000
1000
0000
0001
0000
0000
0000
0010
0000
,  // measure 52
0100
0000
0000
1000
0000
0000
0002
0000
0000
0000
0000
0000
0000
0000
0000
0000
,  // measure 53
1003
0010
1000
0010
1000
0000
0000
0000
0001
1000
0001
1000
0001
0000
0000
0000
,  // measure 54
0010
0001
0010
0001
0010
0000
0000
0000
0001
1000
0001
1000
0001
0000
0000
0000
,  // measure 55
1000
0100
1000
0100
1000
0000
0000
0000
0010
0100
0010
0100
0010
0000
0000
0000
,  // measure 56
0100
0001
0100
0001
0100
0000
0000
0000
0001
1000
0001
1000
0001
0000
0000
0000
,  // measure 57
0010
0001
0010
0001
0010
0000
0000
0000
0100
0010
0100
0010
0100
0000
0000
0000
,  // measure 58
1002
0000
0000
0000
0000
0000
1003
0001
1000
0000
0000
0000
0001
0000
0001
0000
,  // measure 59
1000
0010
1000
0010
1000
0000
0100
0000
0010
0001
0010
0001
0010
0000
0100
0000
,  // measure 60
1000
0001
0100
0001
1000
0100
0010
0000
0000
0000
0000
0000
,  // measure 61
1001
0000
0000
0001
0000
0000
0100
0000
1000
0000
0000
0000
0100
0000
0110
0000
,  // measure 62
0000
0000
0100
0000
0101
0000
0000
0000
0001
1000
0000
1000
0010
0000
0100
0000
,  // measure 63
0001
0000
0000
1000
0000
0000
0010
0000
0001
0000
0010
0000
2000
0000
3002
0000
,  // measure 64
0000
0000
0023
0000
0230
0000
0000
0000
1300
0000
0010
0100
0000
0100
0001
0000
,  // measure 65
1000
0000
0000
0001
0000
0000
0010
0000
1000
0000
0010
0000
0000
0000
1001
0000
,  // measure 66
0001
0000
1000
0000
0010
0000
0100
0000
0000
0001
1000
0000
0001
1000
0000
0001
,  // measure 67
0020
0000
0000
0001
0001
0000
0001
0001
,  // measure 68
0031
1000
0010
1000
0001
0010
0100
0000
0000
0110
0000
0000
,  // measure 69
1001
0000
0000
1000
0000
0000
0010
0000
0110
0000
0000
0000
0001
0000
0011
0000
,  // measure 70
0000
0000
0100
0000
0110
0000
0000
0000
0010
1000
0000
1000
0001
0000
0010
0000
,  // measure 71
0100
0000
0000
0010
0000
0000
0001
0000
1001
0000
0000
0000
1000
0000
1010
0000
,  // measure 72
0000
0220
0330
0220
0330
0110
1001
0000
,  // measure 73
1000
0010
1000
0001
0000
0001
0010
0100
1000
0100
0000
0000
,  // measure 74
0010
0000
0011
0000
0000
0000
1001
0000
1000
0010
0000
0010
0100
0000
0001
0000
,  // measure 75
0200
0000
0000
0000
,  // measure 76
0000
0000
0000
0300
;

//---------------dance-single - ----------------
#NOTES:
     dance-single:
     :
     Beginner:
     3:
     0.110,0.150,0.057,0.000,0.000:
1001
0000
0000
0000
,
1000
0000
0000
0000
,
0001
0000
0000
0000
,
1000
0000
0000
0000
,
1000
0000
0000
0000
,
1000
0000
0000
0000
,
0001
0000
0000
0000
,
0001
0000
0000
0000
,
0100
0000
0010
0000
,
0100
0000
0000
0000
,
0001
0000
1000
0000
,
0001
0000
0000
0000
,
1000
0000
0001
0000
,
1000
0000
0000
0000
,
0100
0000
0010
0000
,
0100
0000
0000
0000
,
1000
0000
0001
0000
,
0100
0000
0000
0000
,
0001
0000
1000
0000
,
0001
0000
0000
0000
,
0010
0000
0001
0000
,
0100
0000
0000
0000
,
0010
0000
0100
0000
,
0010
0000
0000
0000
,
1000
0000
0000
0000
,
0000
0000
0000
0000
,
1000
0000
0000
0000
,
0000
0000
0000
0000
,
0001
0000
0000
0000
,
0000
0000
0000
0000
,
0001
0000
0000
0000
,
0000
0000
0000
0000
,
1001
0000
1000
0000
,
1000
0000
0000
0000
,
0001
0000
0001
0000
,
0001
0000
0000
0000
,
1000
0000
0100
0000
,
1000
0000
0000
0000
,
0001
0000
1000
0000
,
0001
0000
0000
0000
,
1001
0000
0000
0000
,
0001
0000
0000
0000
,
0100
0000
0000
0000
,
0010
0000
0000
0000
,
0100
0000
0000
0000
,
0000
0000
0000
0000
,
0100
0000
0000
0000
,
0000
0000
0000
0000
,
0100
0000
0000
0000
,
0000
0000
0000
0000
,
0100
0000
0000
0000
,
0000
0000
0000
0000
,
0000
1001
0000
0001
,
0000
0001
0000
0000
,
0000
1001
0000
1000
,
0000
1000
0000
0000
,
0000
1001
0000
0001
,
0000
0000
0000
0000
,
0000
1001
0000
1000
,
0000
0000
0000
0000
,
0001
0000
0100
0000
,
0001
0000
0000
0000
,
1000
0000
0001
0000
,
1000
0000
0000
0000
,
0100
0000
1000
0000
,
0100
0000
0000
0000
,
0010
0000
0000
0000
,
0010
0000
0000
0000
,
0001
0000
1000
0000
,
0001
0000
0000
0000
,
0100
0000
0001
0000
,
1000
0000
0000
0000
,
0100
0000
0100
0000
,
0010
0000
0010
0000
,
0001
0000
0000
0000
;
