#TITLE:Struck By The Rain;
#SUBTITLE:;
#ARTIST:+TEK;
#TITLETRANSLIT:;
#SUBTITLETRANSLIT:;
#ARTISTTRANSLIT:;
#CREDIT:DigiMindAxel;
#BANNER:Struck By The Rain.png;
#BACKGROUND:Struck By The Rain-bg.png;
#LYRICSPATH:;
#CDTITLE:DigiMindAxel original simfile.png;
#MUSIC:Struck By The Rain.ogg;
#METERTYPE:DDR X;
#OFFSET:-4.520;
#SAMPLESTART:72.361;
#SAMPLELENGTH:12.000;
#SELECTABLE:YES;
#BPMS:0.000=127.330,40.000=126.950,104.000=126.700,216.000=127.330;
#DISPLAYBPM:127;
#STOPS:;
#BGCHANGES:;

//---------------dance-single - ----------------
#NOTES:
     dance-single:
     :
     Easy:
     4:
     0.216,0.222,0.062,0.224,0.004:
0000
0000
0000
0000
,
2002
0000
0000
3003
,
1000
0000
0001
0000
,
1000
0000
0100
0000
,
1000
0000
0001
0000
,
0100
0000
0010
0000
,
0100
0000
0001
0000
,
1000
0000
0100
0000
,
0010
0000
0100
0000
,
1000
1000
1000
0000
,
0002
0000
0103
0000
,
0020
0000
0130
0000
,
0002
0000
1003
0000
,
0200
0000
1300
0000
,
1001
0001
1000
1000
,
0001
0010
0100
0000
,
1000
0000
0010
0000
,
0100
0001
0100
0000
,
0002
0000
1003
0000
,
0200
0000
0310
0000
,
0001
0001
0100
0100
,
0001
0010
0100
0000
,
2000
0000
3100
0000
,
0020
0000
0130
0000
,
1000
0001
0100
0000
,
0001
1000
0001
0000
,
2000
0000
0100
0000
,
3200
0000
0010
0000
,
0320
0000
0001
0000
,
0032
0000
0000
0003
,
0020
0000
0100
0000
,
0230
0000
1000
0000
,
2300
0000
0001
0000
,
3002
0000
0100
0000
,
0103
0000
0010
0000
,
2002
0000
0000
3003
,
1000
0100
1000
0001
,
0100
0100
0100
0000
,
0001
1000
0100
1000
,
0001
0001
0001
0000
,
0010
0100
1000
0001
,
1000
1000
1000
0000
,
0100
1000
0010
0100
,
2002
0000
3003
0000
,
0001
1000
0001
0010
,
0100
1000
0001
0000
,
0100
0001
0100
0010
,
0100
0100
0100
0000
,
0001
1000
0100
0010
,
0100
1000
0001
0000
,
0100
0001
0010
0100
,
2002
0000
3003
0000
,
0001
0010
0100
1000
,
2002
0000
3003
0000
,
0001
1000
0100
0010
,
0001
0000
0100
0000
,
0010
0100
0001
0100
,
0010
0000
1000
0000
,
0001
0010
0100
1000
,
0001
0000
0100
0000
,
0010
1000
0100
0010
,
0220
0000
0000
0330
,
2000
0000
0000
0000
,
0000
0000
0000
0000
0000
0000
0000
0000
0000
0000
0000
0000
0000
0000
0000
0000
3000
0000
0000
0000
0000
0000
0000
0000
0000
0000
0000
0000
0000
0000
0000
1001
;

//---------------dance-single - ----------------
#NOTES:
     dance-single:
     :
     Medium:
     8:
     0.419,0.444,0.447,0.316,0.054: // measure 1
0000
0000
0000
0000
0000
0000
0000
0000
0000
0000
0000
0000
0000
0000
0000
1001
,  // measure 2
0000
0000
1000
0001
1000
0000
0000
0000
,  // measure 3
0010
1000
0001
0000
0010
0000
0100
0000
,  // measure 4
1100
1000
0010
0100
,  // measure 5
0101
0001
1000
0100
,  // measure 6
0010
0001
0010
0100
0010
0000
0100
0000
,  // measure 7
1100
0001
0100
0010
,  // measure 8
1010
0100
0010
0001
,  // measure 9
0011
0000
0000
0000
0010
0000
0000
0000
0100
0000
0000
0000
1000
0000
0000
1001
,  // measure 10
0000
0001
1000
0001
1000
0000
0000
0000
,  // measure 11
0101
0000
0100
0010
0100
0000
0001
0000
,  // measure 12
1001
0000
1000
0100
1000
0000
0001
0000
,  // measure 13
2001
0000
3002
0000
2003
0000
3001
1000
,  // measure 14
0010
0100
0001
0000
1000
0000
0001
0000
,  // measure 15
2001
3002
2003
3001
,  // measure 16
0201
0000
0302
0000
0103
0010
1000
0000
,  // measure 17
1001
0000
0000
0000
0011
0000
0000
0000
1001
0000
0000
0000
1100
0000
0000
1001
,  // measure 18
0000
1000
0001
1000
0001
0000
0000
0000
,  // measure 19
0101
0000
0100
0001
1000
0000
0001
1000
,  // measure 20
0000
0100
0000
0010
0000
0001
1000
0000
,  // measure 21
1100
0000
0100
0000
0110
0000
0010
0001
,  // measure 22
0100
0010
1000
0000
0001
0000
1000
0000
,  // measure 23
1001
0101
1001
1010
,  // measure 24
1001
0011
1100
0011
,  // measure 25
1001
0000
0000
0000
0110
0000
0000
0000
0110
0000
0000
0000
0110
0000
0000
1001
,  // measure 26
0000
0001
1000
0001
1000
0000
0000
0000
,  // measure 27
1020
0000
0000
0000
0130
0001
0010
0100
,  // measure 28
0000
1000
0000
0010
0000
0100
0000
0000
,  // measure 29
0102
0000
0000
0000
1003
0001
0100
0010
,  // measure 30
0000
0010
0000
0010
0000
0000
0000
0000
,  // measure 31
2001
0000
0000
0000
3100
0010
0001
0000
,  // measure 32
1001
1001
0110
0110
,  // measure 33
1002
0000
0000
0000
1003
0000
0001
0100
,  // measure 34
0020
0000
0000
1030
0001
1000
0001
0000
,  // measure 35
2002
0000
0000
0000
3003
0000
1000
0000
0001
0000
0010
0000
0100
0000
0000
1001
,  // measure 36
0000
1000
0001
1000
0001
0000
0000
0000
,  // measure 37
2000
0000
3001
0100
0020
0000
0130
0001
,  // measure 38
1000
0000
0100
1000
0000
0000
0000
0020
,  // measure 39
0000
0000
0130
0001
0010
0000
0100
0000
,  // measure 40
1000
0001
0100
0001
0000
0000
0000
0000
,  // measure 41
2000
0000
3100
0010
0002
0000
1003
0010
,  // measure 42
0200
0000
0301
1000
0000
0000
0000
0000
,  // measure 43
0101
0101
1001
1001
,  // measure 44
1000
0010
0100
0001
0000
0000
0000
0000
,  // measure 45
2000
0000
3001
0010
0200
0000
0310
0001
,  // measure 46
1000
0000
0010
1000
0000
0000
0000
0002
,  // measure 47
0000
0000
0013
0100
1000
0000
0001
0000
,  // measure 48
0010
0001
0100
0010
0000
0000
0000
0000
,  // measure 49
2000
0000
3100
0010
0002
0000
0103
0010
,  // measure 50
2000
0000
3001
1000
0001
0000
0000
0200
,  // measure 51
0000
0000
0301
0000
0010
0000
0100
0000
2000
0000
0000
0000
3010
0000
0000
1001
,  // measure 52
0000
0000
1000
0001
1000
0000
0000
0200
,  // measure 53
0000
0000
0310
0000
0001
0000
1000
0000
0020
0000
0000
0000
0130
0000
0000
1001
,  // measure 54
0000
0000
0000
0000
1000
0000
0001
0000
1000
0000
0000
0000
0000
0000
0000
1002
,  // measure 55
0000
0023
0230
2300
,  // measure 56
3001
0000
1010
0000
0010
0100
0001
0000
,  // measure 57
1000
0000
0100
1000
0100
1000
0001
0000
,  // measure 58
1001
0000
0000
0000
1000
0000
0000
0000
1100
0000
0000
0000
0100
0000
0000
1002
,  // measure 59
0000
0023
0032
0203
,  // measure 60
0320
1030
0001
0101
,  // measure 61
0100
0000
0000
0000
0010
0000
1000
0000
0010
0000
1000
0000
0001
0000
0000
1001
,  // measure 62
0000
0000
0000
0000
1000
0000
0001
0000
1000
0000
0000
0000
0000
0000
0000
1020
,  // measure 63
0000
0000
0000
0000
,  // measure 64
0000
0000
0000
0000
0000
0000
0000
0000
0000
0000
0000
0000
0000
0000
0000
0000
0000
0000
0000
0130
0000
0000
0000
0000
0000
0100
0000
0000
0000
0000
0000
0110
;

//---------------dance-single - ----------------
#NOTES:
     dance-single:
     :
     Hard:
     11:
     0.528,0.469,0.278,0.447,0.174: // measure 1
0000
0000
0000
0000
0000
0000
0000
0000
0000
0000
0000
0000
0000
0000
0000
1001
,  // measure 2
0000
1000
0001
0000
0001
0000
0010
0000
0100
0000
0000
0000
1100
0000
0000
1001
,  // measure 3
0000
1000
0001
0000
0200
0000
0000
0000
2300
0000
0000
0000
3200
0000
0000
0301
,  // measure 4
0000
0000
0000
0000
2000
0000
0000
0000
3020
0000
0000
0000
0230
0000
0000
0301
,  // measure 5
0000
0000
1000
0000
0100
0000
1000
0000
0001
0000
0100
0000
0001
0000
0000
1000
,  // measure 6
0000
0000
1000
0000
0100
0000
0010
0000
0001
0000
0000
0000
0011
0000
0000
1001
,  // measure 7
0000
0001
1000
0000
0200
0000
0000
0000
0302
0000
0000
0000
0203
0000
0000
1300
,  // measure 8
0000
0000
0000
0000
0002
0000
0000
0000
0023
0000
0000
0000
0230
0000
0000
1300
,  // measure 9
0000
0000
0001
0000
0100
0000
0001
0000
1000
0000
0100
0000
1000
0000
0000
1001
,  // measure 10
0000
1000
0001
0000
0001
0000
0100
0000
0010
0000
0000
0000
0000
0000
0000
0000
,  // measure 11
1001
1000
0001
0010
0000
0001
0010
0100
,  // measure 12
1000
0010
0001
0010
0000
1000
0100
1000
,  // measure 13
0002
0000
0203
0000
2300
0000
3100
0001
,  // measure 14
0010
0100
1000
0001
0000
1000
0010
1000
,  // measure 15
1002
0203
2300
3200
,  // measure 16
0302
0000
0023
0000
1030
0010
0001
0000
,  // measure 17
1000
0000
0001
0000
0100
0000
0001
0000
1000
0000
0001
0000
0100
0000
0000
1001
,  // measure 18
0000
0001
1000
0000
1000
0000
0100
0000
0010
0000
0000
0000
0000
0000
0000
0000
,  // measure 19
1001
0001
0100
0010
0000
0000
1000
0001
,  // measure 20
1000
0010
0001
0010
0000
1000
0100
1000
,  // measure 21
1002
0000
0023
0000
2030
0000
3010
0001
,  // measure 22
1000
0100
0010
0001
0000
1000
0010
1000
,  // measure 23
1002
0023
2030
3020
,  // measure 24
0032
0000
0203
0000
1300
0100
0001
0000
,  // measure 25
1000
0000
0001
0000
0010
0000
0001
0000
1000
0000
0001
0000
0010
0000
0000
1001
,  // measure 26
0000
1000
0001
0000
0001
0000
0100
0000
0010
0000
0000
0000
0000
0000
0000
0000
,  // measure 27
2001
0000
0001
0000
3001
1000
0100
0020
,  // measure 28
0000
0000
0001
0000
0000
0000
0001
0000
0000
0000
0031
0000
1000
0000
0001
1000
,  // measure 29
0002
0000
0100
0000
0103
0001
0010
1100
,  // measure 30
0000
0000
1100
0000
0000
0000
1100
0000
0000
0000
1000
0001
1000
0000
0001
1000
,  // measure 31
0002
0000
0100
0000
0103
0001
1000
0000
,  // measure 32
1020
0230
0302
0013
,  // measure 33
2001
0000
0100
0000
3002
0000
1003
0100
,  // measure 34
0010
0000
0000
0000
0000
0000
0001
0000
0010
0000
0001
0000
1000
0000
0000
0010
,  // measure 35
2000
0000
0000
0000
3001
0000
1000
0001
0100
0000
0001
0100
0001
0000
0000
1001
,  // measure 36
0000
0001
1000
0000
1000
0000
0010
0000
0100
0000
0000
0000
0100
0000
0000
0000
,  // measure 37
1001
0001
1000
0100
0000
0100
1000
0001
,  // measure 38
0100
1000
0100
0001
0000
0000
1000
0001
,  // measure 39
0100
1000
0100
0001
0010
0100
0010
0000
,  // measure 40
0001
0100
0010
2000
0000
0001
3001
0000
,  // measure 41
1001
0001
0100
0010
1000
0010
0001
0010
,  // measure 42
1000
0100
0010
0002
0000
1000
1003
0000
,  // measure 43
0001
1000
0100
1000
0001
0010
1000
0010
,  // measure 44
0001
0100
0010
2000
0000
0001
3001
0000
,  // measure 45
1001
1000
0001
0100
0001
0010
1000
0010
,  // measure 46
0001
1000
0100
0010
0000
0000
0001
1000
,  // measure 47
0010
0001
0010
1000
0100
0010
0001
0000
,  // measure 48
1000
0001
0100
0020
0000
1000
1030
0000
,  // measure 49
1001
0001
0010
0100
1000
0010
0001
0010
,  // measure 50
1000
0100
0010
0002
0000
1000
1003
0000
,  // measure 51
0001
0000
0100
0000
1000
0000
0100
0000
0001
0000
0010
0000
0100
0000
0000
1001
,  // measure 52
0000
0001
1000
0000
1000
0000
0100
0000
0010
0000
0000
0000
0000
0000
0001
0000
,  // measure 53
1000
0000
0100
0000
0001
0000
0100
0000
1000
0000
0010
0000
0100
0000
0000
1001
,  // measure 54
0000
0001
1000
0000
1000
0000
0010
0000
0100
0000
0000
0000
0100
0000
0000
1001
,  // measure 55
0000
1000
0001
0000
0020
0000
0000
0000
2030
0000
0000
0000
3020
0000
0000
0031
,  // measure 56
0000
0000
1000
0000
0002
0000
0000
0000
0203
0000
0000
0000
0320
0000
0000
1030
,  // measure 57
0000
0000
0001
0000
0010
0000
1000
0000
0010
0000
0001
0000
1000
0000
0000
1001
,  // measure 58
0000
0000
0001
0000
1000
0000
0010
0000
0100
0000
0000
0000
0101
0000
0000
1001
,  // measure 59
0000
0001
1000
0000
0200
0000
0000
0000
0302
0000
0000
0000
0203
0000
0000
1300
,  // measure 60
0000
0000
0001
0000
0200
0000
0000
0000
0320
0000
0000
0000
2030
0000
0000
3001
,  // measure 61
0000
0000
1000
0000
0010
0000
0001
0000
0010
0000
1000
0000
0001
0000
0000
1001
,  // measure 62
0000
1000
0001
0000
0001
0000
0010
0000
0100
0000
0000
0000
1100
0000
0000
1002
,  // measure 63
0000
0000
0000
0000
,  // measure 64
0000
0000
0000
0000
0000
0000
0000
0000
0000
0000
0000
0000
0000
0000
0103
0000
0000
0000
0000
0101
0000
0000
0000
0000
0000
0110
0000
0000
0000
0000
0000
1010
;

//---------------dance-single - ----------------
#NOTES:
     dance-single:
     :
     Challenge:
     14:
     0.670,0.622,0.578,0.185,0.470: // measure 1
0000
0000
0000
0000
0000
0000
0000
0000
0000
0000
0000
0000
0000
0000
0000
1001
,  // measure 2
0000
1000
0010
0000
1010
0000
0110
0000
0101
0000
0000
0000
1001
0000
0000
1001
,  // measure 3
0000
0001
1000
0000
0100
1000
0100
0000
0010
0100
0010
0000
0001
0010
0001
1000
,  // measure 4
0000
0010
1000
0000
0100
0010
0100
0000
0010
0001
0010
0000
0001
1000
0001
0010
,  // measure 5
0000
0100
0010
0000
0001
0100
0001
0000
1000
0001
1000
0000
0100
1000
0100
0010
,  // measure 6
0000
0001
1000
0000
1010
0000
1010
0000
1010
0000
0000
0000
0110
0000
0000
1001
,  // measure 7
0000
0001
1000
0000
0010
1000
0010
0000
0100
0010
0100
0000
0001
1000
0001
0010
,  // measure 8
0000
0100
0010
0000
0001
0100
0001
0000
1000
0001
1000
0000
0100
1000
0100
0010
,  // measure 9
0000
0100
1000
0000
0001
0100
0001
0000
0100
0010
0100
0000
0001
1000
0000
1001
,  // measure 10
0000
0001
0100
0000
0101
0000
0110
0000
1010
0000
0000
0000
0000
0000
0000
0000
,  // measure 11
1001
1000
0100
0010
0000
0010
0001
1000
,  // measure 12
0001
0100
1000
0100
0000
0001
1000
0010
,  // measure 13
0100
0000
0000
0100
0001
0000
0000
0001
1000
0000
0000
1000
0001
0000
0010
0000
,  // measure 14
0100
1000
0100
0010
0000
0010
0001
1000
,  // measure 15
1001
0000
0000
0001
0010
0000
0000
0010
1000
0000
0000
1000
0010
0000
0000
0010
,  // measure 16
0001
0000
0000
0001
1000
0000
0000
1000
0010
0000
0110
0000
0110
0000
0000
0000
,  // measure 17
0001
0000
0010
0000
1000
0000
0010
0000
0001
0000
1000
0000
0010
0000
0000
1001
,  // measure 18
0000
1000
0001
0000
0011
0000
0110
0000
1100
0000
0000
0000
0000
0000
0000
0000
,  // measure 19
1001
0001
0010
0100
0000
0100
1000
0100
,  // measure 20
1000
0010
0001
0010
0000
1000
0010
1000
,  // measure 21
0001
0000
0000
0001
0100
0000
0000
0100
0010
0000
0000
0010
1000
0000
0100
0000
,  // measure 22
0001
0100
1000
0010
0000
0010
1000
0001
,  // measure 23
1001
0000
0000
1000
0100
0000
0000
0100
0001
0000
0000
0001
0100
0000
0000
0100
,  // measure 24
1000
0000
0000
1000
0001
0000
0000
0001
0010
0000
0110
0000
0110
0000
0000
0000
,  // measure 25
1000
0000
0010
0000
0001
0000
0010
0000
1000
0000
0100
0000
0010
0000
0000
1001
,  // measure 26
0000
0001
1000
0000
1010
0000
0110
0000
0101
0000
0000
0000
1001
0000
0000
0000
,  // measure 27
0001
0100
0001
1000
0100
0001
0100
2000
,  // measure 28
0000
0000
3020
0000
0000
0000
0230
0000
0000
0000
0302
0000
0000
0000
1003
0010
,  // measure 29
1000
0001
0010
0001
1000
0100
0010
0022
,  // measure 30
0033
0000
2200
0000
3300
0000
0022
0000
0033
0000
0001
1000
0100
0000
0010
0001
,  // measure 31
1000
0010
1000
0001
0100
1000
0100
0000
,  // measure 32
0001
0010
0100
1000
0001
0101
0101
0000
,  // measure 33
1000
0100
1000
0001
0100
0001
0010
1000
,  // measure 34
0010
0000
0000
0000
0001
0000
0100
0000
0010
0000
1000
0000
0001
0000
0000
0001
,  // measure 35
0100
0000
0010
0000
1000
0000
0100
0010
0001
0000
0100
0001
0100
0001
1000
0010
,  // measure 36
0000
1000
0010
0000
1010
0000
0110
0000
0101
0000
0000
0000
0100
0000
0000
0000
,  // measure 37
1001
0000
0000
0000
1000
0100
1000
0000
0001
1000
0001
0000
0010
0001
0010
0000
,  // measure 38
0100
1000
0001
0100
0001
1000
0100
0000
,  // measure 39
1000
0000
0001
0000
0100
0001
0100
0000
0001
1000
0001
0000
1000
0010
1000
0000
,  // measure 40
0100
0010
0001
2001
0000
0010
3010
0000
,  // measure 41
2001
0000
3100
0010
0200
0000
1300
0001
,  // measure 42
0020
0000
0130
1000
0001
0001
1000
1000
,  // measure 43
0001
0010
1000
0010
0001
0100
1000
0100
,  // measure 44
0101
1001
1010
1001
1000
0100
0010
0001
,  // measure 45
1001
0000
0000
0000
0001
0100
0001
0000
1000
0001
1000
0000
0100
1000
0100
0000
,  // measure 46
0010
0001
1000
0010
1000
0001
0010
0000
,  // measure 47
0001
0000
1000
0000
0100
1000
0100
0000
0010
0100
0010
0000
0001
0100
0001
0000
,  // measure 48
0010
0100
1000
1002
0000
0100
0103
0000
,  // measure 49
0120
0000
1030
0001
0020
0000
0130
1000
,  // measure 50
0002
0000
0013
0100
1000
0010
0110
0000
,  // measure 51
1000
0000
0100
0000
0001
0000
0100
0000
1000
0000
0010
0000
0100
0000
0000
1001
,  // measure 52
0000
0001
1000
0000
1100
0000
0110
0000
0011
0000
0000
0000
0000
0000
0002
0000
,  // measure 53
0000
0000
1003
0000
0010
0000
0001
0000
0010
0000
1000
0000
0001
0000
0000
1001
,  // measure 54
0000
1000
0001
0000
0101
0000
0110
0000
1010
0000
0000
0000
0010
0000
0000
1001
,  // measure 55
0000
0001
1000
0000
0010
1000
0010
0000
0100
0010
0100
0000
0001
0100
0001
1000
,  // measure 56
0000
0010
1000
0000
0001
0010
0001
0000
0010
0100
0010
0000
0100
1000
0100
0010
,  // measure 57
0000
0001
1000
0100
0010
0001
1000
0010
2000
0000
0000
0000
3001
0000
0000
1001
,  // measure 58
0000
1000
0010
0000
0110
0000
0110
0000
0110
0000
0000
0000
0011
0000
0000
1001
,  // measure 59
0000
1000
0001
0000
0010
0001
0010
0000
0100
0010
0100
0000
1000
0100
1000
0001
,  // measure 60
0000
0100
0001
0000
1000
0010
1000
0000
0001
1000
0001
0000
0010
0001
0010
0100
,  // measure 61
0000
1000
0001
0010
0100
1000
0001
0100
0002
0000
0000
0000
1003
0000
0000
1001
,  // measure 62
0000
0001
0100
0000
0101
0000
0110
0000
1010
0000
0000
0000
1001
0000
0000
0210
,  // measure 63
0000
0010
0010
0010
,  // measure 64
0010
0000
0000
0000
0000
0000
0000
0000
0010
0000
0000
0000
0000
0000
0310
0000
0000
0000
0000
0110
0000
0000
0000
0000
0000
1001
0000
0000
0000
0000
0000
0220
,  // measure 65
0000
0000
0330
0000
;

//---------------dance-single - ----------------
#NOTES:
     dance-single:
     :
     Beginner:
     2:
     0.086,0.123,0.062,0.000,0.004:
0000
0000
0000
0000
,
0000
0000
0000
0000
,
1000
0000
0000
0000
,
0010
0000
0000
0000
,
0100
0000
0000
0000
,
0001
0000
0000
0000
,
1000
0000
0000
0000
,
0100
0000
0000
0000
,
0010
0000
0000
0000
,
0001
0000
0000
0000
,
1000
0000
0000
0000
,
0010
0000
0000
0000
,
1000
0000
0000
0000
,
0001
0000
0000
0000
,
0010
0000
0000
0000
,
0001
0000
0000
0000
,
0100
0000
0000
0000
,
1001
0000
0000
0000
,
1000
0000
0000
0000
,
0100
0000
0000
0000
,
1000
0000
0000
0000
,
0001
0000
0000
0000
,
1000
0000
0000
0000
,
0010
0000
0000
0000
,
0100
0000
0000
0000
,
1001
0000
0000
0000
,
0001
0000
0000
0000
,
0010
0000
0000
0000
,
0001
0000
0000
0000
,
0000
0000
0000
0000
,
1000
0000
0000
0000
,
0010
0000
0000
0000
,
1000
0000
0000
0000
,
0001
0000
0000
0000
,
1000
0000
0000
0000
,
1001
0000
0000
0000
,
0001
0000
0000
0000
,
0100
0000
0010
0000
,
0100
0000
0000
0000
,
0001
0000
0000
0000
,
1000
0000
0100
0000
,
1000
0000
0001
0000
,
0100
0000
0000
0000
,
1001
0000
0000
0000
,
0001
0000
0000
0000
,
0010
0000
0100
0000
,
0010
0000
0000
0000
,
0001
0000
1000
0000
,
0010
0000
1000
0000
,
0010
0000
0100
0000
,
0001
0000
0000
0000
,
1001
0000
0000
0000
,
1000
0000
0001
0000
,
1001
0000
0000
0000
,
1000
0000
0000
0000
,
0010
0000
0000
0000
,
0100
0000
0000
0000
,
0001
0000
1000
0000
,
0001
0000
0000
0000
,
0010
0000
0000
0000
,
0100
0000
0000
0000
,
1001
0000
0000
0000
,
0001
0000
0000
0000
,
0000
0000
0000
0000
0000
0000
0000
0000
0000
0000
0000
0000
0000
0000
0000
0000
0000
0000
0000
0000
0000
0000
0000
0000
0000
0000
0000
0000
0000
0000
0000
1001
;
