#TITLE:Streak;
#SUBTITLE:;
#ARTIST:ARM (IOSYS);
#TITLETRANSLIT:;
#SUBTITLETRANSLIT:;
#ARTISTTRANSLIT:;
#CREDIT:DigiMindAxel;
#BANNER:Streak.png;
#BACKGROUND:Streak-bg.png;
#LYRICSPATH:;
#CDTITLE:maimai.png;
#MUSIC:Streak.ogg;
#METERTYPE:DDR X;
#OFFSET:-0.860;
#SAMPLESTART:20.000;
#SAMPLELENGTH:12.000;
#SELECTABLE:YES;
#BPMS:0.000=150.000;
#STOPS:;
#BGCHANGES:-3.000=Streak.avi=1.000=1=1=0,
99999=-nosongbg-=1.000=0=0=0 // don't automatically add -songbackground-
;

//---------------dance-single - ----------------
#NOTES:
     dance-single:
     :
     Easy:
     4:
     0.233,0.271,0.122,0.049,0.000: // measure 1
0000
0000
0000
0000
,  // measure 2
0000
0000
0000
0000
,  // measure 3
0000
0000
0000
0000
,  // measure 4
0000
0000
0000
0000
,  // measure 5
1001
0000
1000
0000
,  // measure 6
0000
0000
0001
0000
,  // measure 7
0001
0000
1000
0000
,  // measure 8
0000
0000
0001
0000
,  // measure 9
1001
0000
1000
0000
,  // measure 10
0001
0000
1000
0000
,  // measure 11
0100
0000
0100
0000
,  // measure 12
0100
0000
0000
0000
,  // measure 13
0110
0000
0010
0100
,  // measure 14
0010
0000
0100
0010
,  // measure 15
1000
0000
0100
0000
,  // measure 16
0010
0001
0010
0001
,  // measure 17
1000
1000
0001
0000
,  // measure 18
1000
1000
0001
0000
,  // measure 19
0010
0000
0100
0000
,  // measure 20
2002
0000
0000
3003
,  // measure 21
0001
0001
1000
0000
,  // measure 22
0001
0001
1000
0000
,  // measure 23
0100
1000
0010
0000
,  // measure 24
0100
0010
0100
0000
,  // measure 25
0001
0001
1000
0000
,  // measure 26
0001
0001
1000
0000
,  // measure 27
0100
0010
0100
1000
,  // measure 28
0010
0000
0000
0000
,  // measure 29
0110
0000
0100
0010
,  // measure 30
1000
0000
1000
0000
,  // measure 31
0010
0100
0001
0100
,  // measure 32
0010
0000
0010
0000
,  // measure 33
0110
0000
0100
0001
,  // measure 34
1000
0100
0010
0001
,  // measure 35
1000
1000
1000
1000
,  // measure 36
1001
0000
0000
0000
,  // measure 37
0001
0001
1000
0100
,  // measure 38
1000
0001
0001
1000
,  // measure 39
0100
1000
0001
0001
,  // measure 40
1000
0010
0100
0001
,  // measure 41
1000
1000
0001
0010
,  // measure 42
0001
0001
1000
0100
,  // measure 43
1000
1000
0001
0100
,  // measure 44
0010
0000
0000
0000
,  // measure 45
0110
0000
0100
0000
,  // measure 46
0010
0100
0010
0000
,  // measure 47
1001
0000
1000
0000
,  // measure 48
0001
1000
0001
0000
,  // measure 49
2002
0000
0000
0000
,  // measure 50
0000
0000
3003
0000
;

//---------------dance-single - ----------------
#NOTES:
     dance-single:
     :
     Medium:
     8:
     0.432,0.452,0.573,0.219,0.000:
0000
0000
0000
0000
,
0000
0000
0000
0000
,
0000
0000
0000
0000
,
0000
0000
0000
0000
,
0201
0000
0301
1000
,
1000
1000
1001
0000
,
1020
0000
1030
0001
,
0001
0001
1001
0000
,
0021
0000
0130
1000
,
1000
1000
1001
0000
,
1100
0000
0011
0000
,
2002
0000
0000
3003
,
0110
0000
0110
0000
0010
1000
0100
0000
,
0110
0000
0110
0000
0100
0001
0010
0000
,
0001
1000
0001
0000
0010
0100
1000
0000
,
0001
0000
1000
1000
1000
0100
0010
0000
,
0110
0000
0110
0000
0100
0001
0010
0000
,
0110
0000
0110
0000
0010
1000
0100
0000
,
2000
3001
2000
3010
,
2002
0000
0000
3003
,
1001
0000
1001
0000
0001
0100
0010
0000
,
1001
0000
1001
0000
1000
0100
0010
0000
,
0001
1000
0001
0000
0200
0000
0301
0000
,
1000
0000
0001
0001
0001
0010
0100
0000
,
1001
0000
1001
0000
1000
0010
0100
0000
,
1001
0000
1001
0000
0001
0010
0100
0000
,
0020
0031
2000
3001
,
0100
0000
0000
0000
0000
0100
0100
0000
,
0110
0000
0000
0101
0000
0000
0110
0000
,
0010
1000
0010
1000
0001
0000
0010
0000
,
0100
1000
0100
1000
0001
0010
0001
0010
,
0001
0000
0000
1001
0000
0000
1000
0000
,
1001
0000
0000
1100
0000
0000
1001
0000
,
0001
0100
0010
0000
0100
0010
0100
0010
,
0100
0001
1000
0100
,
1001
0000
0000
1001
0000
0000
1001
0000
,
1000
0000
0001
0100
0001
0000
0010
0000
,
0110
0000
0010
1000
0010
0000
1000
0000
,
1001
0000
0001
0000
1000
0100
1000
0100
,
0010
0000
0000
0110
0000
0000
0100
0000
,
1001
0000
0001
0100
0001
0000
0010
0000
,
0100
0000
0010
0001
0010
0001
0100
0000
,
0110
0000
0100
1000
0100
1000
0010
0000
,
0202
0000
0000
0303
,
0120
0000
1030
0001
,
1000
0100
0110
0000
,
0210
0000
0301
1000
,
0001
0010
0110
0000
,
2002
0000
0000
0000
,
0000
0000
3003
0000
;

//---------------dance-single - ----------------
#NOTES:
     dance-single:
     :
     Hard:
     13:
     0.653,0.754,0.439,0.231,0.445:
0000
0000
0000
0000
,
0000
0000
0000
0000
,
0000
0000
0000
0000
,
0000
0000
0000
0000
,
1200
1300
0210
0310
,
0001
1000
1001
0001
,
0201
0310
1020
0130
,
0100
0000
0000
0000
0100
0000
0001
1000
0001
0000
1000
0000
0000
0000
0000
0000
,
1100
0000
0100
0000
1000
0001
0100
0000
,
0001
0000
0010
0000
0100
1000
0001
0000
,
0022
0033
2200
3300
,
2002
0000
3003
0001
,
0011
0000
0000
0000
0011
0000
0000
0000
0001
1000
0010
1000
0001
0000
0001
0000
,
1001
0000
0000
0000
1001
0000
0000
0000
1000
0100
0010
0100
1000
0000
1000
0000
,
0001
0000
0100
0001
0200
0000
0000
0000
0301
0000
0010
0000
0100
0000
1000
0000
,
0001
0000
0000
0000
0001
0000
0001
0000
0010
0100
0010
0100
1000
0010
1000
0000
,
1010
0000
0000
0000
1010
0000
0000
0000
0010
0100
0001
0100
0010
0000
0010
0000
,
0110
0000
0000
0000
0110
0000
0000
0000
0100
0001
1000
0001
0100
0000
0100
0000
,
0001
0100
1000
0000
0001
0010
1000
0000
,
1001
0000
0000
1000
0000
0000
1000
0100
1000
0100
0010
0001
,
0100
0000
0000
0000
0101
0000
0000
0000
0001
1000
0100
1000
0001
0000
0001
0000
,
1001
0000
0000
0000
1001
0000
0000
0000
1000
0010
0100
0010
1000
0000
1000
0000
,
0001
0100
1000
0100
0001
1000
1010
0000
,
0010
0000
0000
0000
0010
0000
0010
0000
1000
0100
1000
0100
0010
0001
0100
0000
,
0101
0000
0000
0000
0101
0000
0000
0000
0100
0010
1000
0010
0100
0000
0100
0000
,
0110
0000
0000
0000
0110
0000
0000
0000
0010
0001
1000
0001
0010
0000
0010
0000
,
0001
0100
1000
0000
0001
0010
2000
0000
,
3002
0000
0000
0000
0000
1003
1001
0000
,
1000
0001
0010
1000
0010
0001
1000
0000
,
0100
0010
0001
1000
0010
0010
0010
0010
,
0100
0001
0100
0001
0100
0001
0100
0001
0010
0100
0010
0100
0010
0100
0010
0100
,
0010
0000
0000
0001
0000
0000
1001
0000
0000
0000
0100
0000
0110
0000
0000
0000
,
0001
1000
0100
0001
0100
1000
0001
0000
,
0100
0010
1000
0100
0010
0010
0010
0010
,
0100
0000
0000
0100
0000
0000
1000
0000
0000
1000
0000
0000
0001
0000
0100
0000
0010
0000
1000
0000
0010
0000
0100
0000
,
0001
0000
0000
1000
0000
0000
1001
0000
0000
0000
0000
0000
1001
0000
0000
0000
,
0101
0000
0000
0000
0001
0000
0001
0000
0001
0000
1000
0100
0000
0100
1000
0010
,
0100
0000
0000
0000
0010
0000
0010
0000
0010
0000
0100
0001
0000
0001
1000
0000
,
0001
1000
0001
1000
0001
1000
0001
1000
0001
0100
0001
0100
0001
0100
0001
0100
,
0001
0000
0000
1000
0000
0000
1100
0000
0000
0000
0010
0000
0110
0000
0000
0000
,
1001
0000
0000
0000
1000
0000
1000
0000
1000
0000
0010
0100
0000
0100
0001
0010
,
0100
0000
0000
0000
1000
0000
1000
0000
1000
0000
0001
0010
0000
0010
0100
0000
,
1000
0000
0000
1000
0000
0000
0001
0000
0000
0001
0000
0000
1000
0000
0010
0000
0100
0000
0001
0000
0100
0000
0010
0000
,
1000
0000
0000
0000
0000
0000
0000
0000
0001
1000
0100
0000
1000
0001
0000
0001
,
2000
0000
0000
0000
3200
0000
0000
0000
1300
0100
1000
0100
0010
0000
0010
0000
,
0200
0000
0000
0000
2300
0000
0000
0000
3001
0100
0001
0100
0010
0000
0010
0000
,
0100
0000
0100
0000
0100
0001
0010
0000
,
0100
0000
1000
0000
0001
0000
0100
0010
0100
0000
0010
0000
0000
0000
0000
0000
,
2002
0000
0000
0000
,
0000
0000
3003
0000
;

//---------------dance-single - ----------------
#NOTES:
     dance-single:
     :
     Beginner:
     1:
     0.101,0.175,0.085,0.000,0.000:
0000
0000
0000
0000
,
0000
0000
0000
0000
,
0000
0000
0000
0000
,
0000
0000
0000
0000
,
0001
0000
0000
0000
,
0000
0000
0000
0000
,
0010
0000
0000
0000
,
0000
0000
0000
0000
,
0100
0000
0000
0000
,
0000
0000
0000
0000
,
1000
0000
0001
0000
,
1000
0000
0000
0000
,
0001
0000
0000
0000
,
0010
0000
0000
0000
,
0100
0000
0100
0000
,
0100
0000
0000
0000
,
1000
0000
0000
0000
,
0010
0000
0000
0000
,
0100
0000
0100
0000
,
0100
0000
0000
0000
,
1001
0000
0001
0000
,
1000
0000
0001
0000
,
1000
0000
0000
0000
,
0100
0000
0000
0000
,
0010
0000
0001
0000
,
0010
0000
0001
0000
,
1000
0000
0000
0000
,
0100
0000
0000
0000
,
1001
0000
0000
0000
,
1000
0000
0000
0000
,
0010
0000
0010
0000
,
0010
0000
0000
0000
,
1001
0000
0000
0000
,
0001
0000
0000
0000
,
0010
0000
0010
0000
,
0010
0000
0000
0000
,
0110
0000
0000
0000
,
0100
0000
0000
0000
,
0010
0000
0000
0000
,
0100
0000
0000
0000
,
1001
0000
0000
0000
,
0001
0000
0000
0000
,
1000
0000
0000
0000
,
0001
0000
0000
0000
,
1001
0000
0000
0000
,
0100
0000
0000
0000
,
0010
0000
0000
0000
,
0100
0000
0000
0000
,
1001
0000
0000
0000
;
