#TITLE:Starlight Parade;
#SUBTITLE:;
#ARTIST:肥塚良彦;
#TITLETRANSLIT:;
#SUBTITLETRANSLIT:;
#ARTISTTRANSLIT:YOSHIHIKO KOEZUKA;
#CREDIT:DigiMindAxel;
#BANNER:Starlight Parade.png;
#BACKGROUND:Starlight Parade-bg.png;
#LYRICSPATH:Starlight Parade.lrc;
#CDTITLE:jubeat.png;
#MUSIC:Starlight Parade.ogg;
#METERTYPE:DDR X;
#OFFSET:-9.766;
#SAMPLESTART:70.142;
#SAMPLELENGTH:12.000;
#SELECTABLE:YES;
#BPMS:0.000=131.000;
#STOPS:;
#BGCHANGES:;

//---------------dance-single - ----------------
#NOTES:
     dance-single:
     :
     Easy:
     3:
     0.181,0.241,0.111,0.179,0.000:
0001
0000
1000
0000
,
0001
0000
0010
0000
,
0100
0000
0010
0000
,
0001
0000
1000
1000
,
0002
0000
0000
0000
,
0203
0000
0000
0000
,
0320
0000
0000
0000
,
2030
0000
0000
0000
,
3002
0000
0000
0000
,
0023
0000
0000
0000
,
0230
0000
0000
0000
,
0310
0000
0001
0000
,
2000
0000
0000
0000
,
3020
0000
0000
0000
,
0230
0000
0000
0000
,
0301
0000
0100
0000
,
1001
0000
1001
0000
,
1001
0000
0000
0000
,
0110
0000
0110
0000
,
0110
0000
0000
0000
,
0001
0000
1000
0000
,
0100
0000
1000
0000
,
0001
0000
0100
0000
,
0010
0000
0100
0100
,
0001
0000
0001
0000
,
1000
0000
1000
0000
,
0100
0000
0100
0000
,
0010
0000
0010
0000
,
0100
1000
0100
0000
,
1000
0001
1000
0000
,
0001
0010
0001
0000
,
2002
0000
0000
0000
,
3003
0000
0000
0000
,
1000
0100
0010
0000
,
0100
0000
1000
0000
,
0010
0100
0001
0000
,
0100
0000
0010
0000
,
1000
0100
0010
0000
,
0100
0010
0001
0000
,
1000
0000
0010
0000
,
0200
0000
0001
0000
,
0301
0100
0010
0000
,
0100
0010
1000
0000
,
0001
0010
0100
0000
,
1001
0000
0001
0000
,
1000
0100
0010
0000
,
0100
1000
0100
0000
,
0010
0001
0010
0001
,
2000
0000
0000
0000
,
3002
0000
0000
0003
,
2002
0000
3003
0010
,
0110
1000
0000
0100
,
0000
0010
0000
0001
,
2002
0000
0000
3003
,
2002
0000
3003
0001
,
1000
0100
1000
0001
,
1000
0000
1001
0000
;

//---------------dance-single - ----------------
#NOTES:
     dance-single:
     :
     Medium:
     7:
     0.344,0.336,0.162,0.102,0.064: // measure 1
1000
0000
0010
0000
0100
0000
0001
1000
,  // measure 2
0000
0000
1000
0001
0000
0000
0010
0100
,  // measure 3
0000
0000
0100
0010
0000
0000
0001
1000
,  // measure 4
0000
0000
0001
0000
1000
0001
1000
0000
,  // measure 5
1001
0000
1000
0100
0010
0000
0001
1000
,  // measure 6
0000
0000
0001
0010
0100
0000
1000
0001
,  // measure 7
1000
0000
0010
0000
1000
0100
0000
0010
,  // measure 8
0000
0001
0000
0001
0000
0001
0000
1000
,  // measure 9
0001
0000
0010
0000
0100
0000
1000
0010
,  // measure 10
0000
0000
1000
0001
1000
0000
0100
1000
,  // measure 11
0100
0000
0010
0000
0001
0000
0100
0001
,  // measure 12
2000
3100
0020
0031
,  // measure 13
1001
0000
1000
0000
0001
0000
0100
0010
,  // measure 14
0000
0000
0100
0001
0100
0000
0001
0000
,  // measure 15
1001
0000
1000
0000
0010
0100
0000
0001
,  // measure 16
0000
0000
1000
0000
0000
0000
1000
0000
0000
0000
1000
0000
0000
0000
0000
1001
,  // measure 17
0000
0000
0000
0000
0000
0000
0000
1001
0000
0000
0000
0000
0000
0000
0000
0110
,  // measure 18
0000
0000
0000
0000
0000
0000
0000
0000
0000
0000
0000
0000
0000
0000
0000
1010
,  // measure 19
0000
0000
0000
0000
0000
0000
0000
1010
0000
0000
0000
0000
0000
0000
0000
0101
,  // measure 20
0000
0000
0001
0001
,  // measure 21
1000
0100
1000
0000
0001
0000
0100
0001
,  // measure 22
1000
0000
0100
1000
0100
0000
0010
0001
,  // measure 23
0010
0000
0100
0010
0100
0000
1000
0010
,  // measure 24
1000
0001
1000
1000
,  // measure 25
1100
0000
0000
0110
0000
0000
0000
0000
,  // measure 26
0011
0000
0000
0110
0000
0000
0000
0000
,  // measure 27
1010
0000
0000
0110
0000
0000
0000
0000
,  // measure 28
0101
0000
0000
0110
0000
0000
0000
0000
,  // measure 29
0100
1000
0100
0000
0010
0000
0001
0000
,  // measure 30
1000
0001
1000
0000
0100
0000
0010
0000
,  // measure 31
0001
0100
0001
0000
0100
0000
0010
0000
,  // measure 32
2000
0000
0000
0000
,  // measure 33
3001
0000
0000
0000
0000
0000
1000
0001
,  // measure 34
1000
0100
0010
0100
1000
0000
0001
0000
,  // measure 35
0200
0010
0320
1000
,  // measure 36
1030
0001
0010
0000
0001
0010
0100
0010
,  // measure 37
0002
0100
0203
0010
,  // measure 38
0310
1000
0010
0100
0001
0000
0100
0000
,  // measure 39
0100
0001
0100
0010
1000
0000
0001
0000
,  // measure 40
1001
1000
0100
0010
,  // measure 41
0002
0100
0010
0103
,  // measure 42
0001
0100
0010
0100
0001
0000
1000
0000
,  // measure 43
0200
1000
2300
0001
,  // measure 44
3001
0010
0100
1000
0001
0000
0100
0001
,  // measure 45
2000
0000
0000
3100
0000
0000
0010
0001
,  // measure 46
1000
0000
0001
1000
0001
0000
0010
0100
,  // measure 47
1000
0000
0010
0100
0010
0000
1000
0100
,  // measure 48
0020
0001
0001
0031
,  // measure 49
0010
0001
0100
0010
1000
0000
1000
0000
,  // measure 50
0100
0000
0010
0000
0001
0000
0000
0001
0000
0000
0000
0000
0100
0000
0000
0100
,  // measure 51
0000
0000
0000
0000
0010
0000
0000
0010
0000
0000
0000
0000
1000
0000
0000
0001
,  // measure 52
0000
0000
0010
0001
0010
0000
0100
0000
,  // measure 53
0010
0001
0010
0000
0100
0000
1000
0001
,  // measure 54
1000
0000
0010
0000
0100
0000
0000
0100
0000
0000
0000
0000
0001
0000
0000
0001
,  // measure 55
0000
0000
0000
0000
1000
0000
0000
1000
0000
0000
0000
0000
0001
0000
0000
1000
,  // measure 56
0000
0000
0100
1000
0100
0000
0010
0001
,  // measure 57
1000
0000
0000
0000
0010
0000
0000
0110
0000
0000
0000
0000
0000
0000
0000
0000
;

//---------------dance-single - ----------------
#NOTES:
     dance-single:
     :
     Hard:
     9:
     0.485,0.433,0.196,0.196,0.209: // measure 1
0001
0000
0100
0000
0001
0000
0000
0000
1000
0000
0100
0000
0010
0000
0001
1000
,  // measure 2
0000
0000
0010
0000
0100
0000
0001
1000
0000
0000
0100
0000
0010
0000
0001
1000
,  // measure 3
0000
0000
0010
0000
0100
0000
0001
1000
0000
0000
0100
0000
0010
0000
0001
1000
,  // measure 4
0000
0000
0001
0000
1000
1000
1000
0010
,  // measure 5
0200
0000
0301
1000
0100
0001
0100
2000
,  // measure 6
0000
0000
3001
1000
0010
0001
0010
1000
,  // measure 7
0200
0000
0310
0001
0010
0100
0000
1001
,  // measure 8
0000
0110
0000
0110
0000
0110
0000
0110
,  // measure 9
1001
0001
0100
0010
0000
1000
0100
0001
,  // measure 10
0000
1000
0010
0001
1000
0100
0010
0100
,  // measure 11
1000
0000
0100
1000
0010
0100
0001
0010
,  // measure 12
0200
1000
1300
0000
0020
0100
0130
0000
,  // measure 13
1002
0000
0000
0013
0100
1000
0001
0200
,  // measure 14
0000
0301
1000
0010
0001
0010
1000
0010
,  // measure 15
0210
0000
0000
0301
1000
0010
0100
0101
,  // measure 16
0000
0000
1001
0000
0000
0000
1001
0000
0000
0000
1001
0000
0000
0000
1000
0020
,  // measure 17
0000
0000
0100
0000
0130
0000
0000
0002
0000
0000
0100
0000
0103
0000
0000
0020
,  // measure 18
0000
0000
0100
0000
0130
0000
0000
0000
0000
0000
0000
0000
0000
0000
0001
2000
,  // measure 19
0000
0000
0100
0000
3100
0000
0000
0020
0000
0000
0001
0000
0031
0000
0000
0200
,  // measure 20
0000
0010
0310
0000
1000
0001
1001
0000
,  // measure 21
1000
0000
0100
0000
1000
0000
0000
0000
0001
0000
0100
0000
0010
0000
0100
0001
,  // measure 22
0000
0000
0010
0000
0100
0000
1000
0001
0000
0000
0100
0000
0010
0000
1000
0100
,  // measure 23
0000
0000
0010
0000
0100
0000
1000
0001
0000
0000
0100
0000
0001
0000
0010
0100
,  // measure 24
0000
0000
0000
0000
1001
0000
0000
0000
1000
0000
0000
0010
0000
0000
0100
0000
,  // measure 25
0001
0000
0000
0001
0000
0000
0010
0000
0000
0100
0000
0000
0000
0000
0000
0000
,  // measure 26
0010
0000
0000
0010
0000
0000
0001
0000
0000
0100
0000
0000
0000
0000
0000
0000
,  // measure 27
0010
0000
0000
0010
0000
0000
1000
0000
0000
0100
0000
0000
0000
0000
0000
0000
,  // measure 28
0010
0000
0000
0010
0000
0000
0100
0000
0000
1000
0000
0000
0001
0000
0001
0000
,  // measure 29
1000
0100
0001
0100
1000
0001
0100
0000
,  // measure 30
0100
0001
1000
0010
0001
0010
1000
0000
,  // measure 31
1000
0001
0010
0100
0010
0001
1000
0010
,  // measure 32
0200
0000
0000
0000
,  // measure 33
0310
0000
0000
0000
0000
0000
1000
1000
,  // measure 34
0001
0000
0010
0000
0100
0000
0010
0001
0000
0000
0100
0000
0000
0010
0000
0000
,  // measure 35
1000
0000
0000
0100
0000
0000
0020
0000
0000
0000
0031
0000
1000
0000
0100
0000
,  // measure 36
1000
0001
0010
1000
0010
0001
0010
0100
,  // measure 37
1000
0001
0100
0001
1000
0000
0001
1000
,  // measure 38
0001
1000
0000
0100
0000
1000
0000
0100
0000
0000
0000
0000
0010
0000
0001
0000
,  // measure 39
1000
0010
0000
0100
0000
0010
0000
0100
0000
0000
0000
0000
0001
0000
0101
0000
,  // measure 40
0000
0110
0000
0110
0000
1100
0000
0012
,  // measure 41
0000
1000
0010
1003
,  // measure 42
0001
0000
0100
0000
0010
0000
0100
0001
0000
0000
0010
0000
0000
0100
0000
0000
,  // measure 43
1000
0000
0000
0001
0000
0000
0200
0000
0000
0000
0310
0000
1000
0000
0100
0000
,  // measure 44
1000
0001
0010
0100
0010
0001
1000
0010
,  // measure 45
0200
0000
0000
0302
0000
0000
1003
0100
,  // measure 46
0000
0010
0001
0100
0000
0100
0010
1000
,  // measure 47
0000
1000
0001
0010
0000
0010
0100
1000
,  // measure 48
0001
0100
0001
0100
0010
1000
0010
1000
,  // measure 49
0001
0100
1000
0100
0001
1000
0001
0001
,  // measure 50
1000
0000
0100
0000
0010
0000
0001
1000
0000
0000
0100
0000
0010
0000
0001
1000
,  // measure 51
0000
0000
0100
0000
0010
0000
0001
1000
0000
0000
0000
0000
1100
0000
0000
1002
,  // measure 52
0000
0000
1003
0010
1000
0001
0010
0001
,  // measure 53
1000
0100
0001
0100
1000
0001
0100
0100
,  // measure 54
0001
0000
0010
0000
0100
0000
1000
0001
0000
0000
0010
0000
0100
0000
1000
0001
,  // measure 55
0000
0000
0010
0000
0100
0000
1000
0001
0000
0000
0000
0000
0101
0000
0000
2001
,  // measure 56
0000
0000
3001
0100
0001
1000
0100
1000
,  // measure 57
0001
0200
0000
0000
0301
0000
1000
0100
0000
0000
0000
0000
0000
0000
0000
0000
;

//---------------dance-single - ----------------
#NOTES:
     dance-single:
     :
     Challenge:
     12:
     0.599,0.601,0.324,0.153,0.494: // measure 1
0001
0000
1000
0000
0100
0000
1000
0000
0001
0000
0100
0000
0010
0000
1000
0100
,  // measure 2
0000
0000
0100
0000
1000
0000
0010
0100
0000
0000
0100
0000
0001
0000
0010
0100
,  // measure 3
0000
0000
0100
0000
0010
0000
0001
1000
0000
0000
1000
0000
0010
0000
0100
0001
,  // measure 4
0000
0000
0000
0000
1000
0001
0000
1000
0100
0000
0100
0000
0010
0001
0010
0000
,  // measure 5
0001
1000
0100
1000
0010
0001
0010
2010
,  // measure 6
0000
0000
3001
0100
1000
0100
0001
0010
,  // measure 7
0210
0000
1300
0010
0100
0101
0000
1001
,  // measure 8
0000
1100
0000
1100
0000
0011
0000
0011
,  // measure 9
1001
1000
0010
1000
0001
0010
0001
2001
,  // measure 10
0000
0000
3001
0010
0100
0010
0001
1000
,  // measure 11
1010
0000
0000
0000
0100
0000
0001
0000
0010
0000
0001
0000
1000
0010
1000
0010
,  // measure 12
1000
0000
0000
1000
0001
0000
0000
0010
0001
0000
0000
0010
0100
0000
0000
1000
,  // measure 13
0002
0000
0000
1003
0010
0100
0010
2010
,  // measure 14
0000
3001
1000
0100
1000
0001
0100
0001
,  // measure 15
2001
0000
0000
3001
1000
0100
1000
1001
,  // measure 16
0000
0000
0101
0000
0000
0000
0101
0000
0000
0000
1010
0000
0000
0000
0010
1000
,  // measure 17
0000
0001
0010
0000
0011
0000
0100
1000
0000
0001
0100
0000
0101
0000
0010
1000
,  // measure 18
0000
0001
0010
0000
0011
0000
0000
0000
0000
0000
0000
0000
0000
0000
0100
0010
,  // measure 19
0000
0100
0001
0000
0101
0000
0100
0010
0000
1000
0100
0000
1100
0000
0010
0100
,  // measure 20
0000
0001
0100
0000
0101
0000
0000
0000
0001
1000
0001
1000
0001
0000
0000
0000
,  // measure 21
1000
0000
0010
0000
1000
0001
0000
1000
0100
0000
0010
0000
0001
0000
0100
0001
,  // measure 22
0000
0000
0001
0000
1000
0000
0100
0010
0000
0000
0010
0000
0100
0000
1000
0001
,  // measure 23
0000
0000
0001
0000
0100
0000
0010
0100
0000
0000
0100
0000
0001
0000
1000
0100
,  // measure 24
0000
0000
0000
0000
1001
0000
0000
0000
1100
0000
0000
0110
0000
0000
0011
0000
,  // measure 25
0001
0100
0000
0010
0100
0000
0001
0100
0000
0010
0100
0000
0001
0000
0000
0000
,  // measure 26
1000
0100
0000
0010
0100
0000
1000
0100
0000
0010
0100
0000
1000
0000
0000
0000
,  // measure 27
0010
0100
0000
0001
0100
0000
0010
0100
0000
0001
0100
0000
0010
0000
0000
0000
,  // measure 28
1000
0001
0000
0010
0001
0000
1000
0001
0000
0010
0001
0000
1000
0000
0001
1000
,  // measure 29
0001
0000
0010
0000
0100
0000
1000
0001
0000
0100
0001
0000
0100
0000
0000
0000
,  // measure 30
0001
0000
1000
0000
0100
0000
0010
0100
0000
1000
0001
0000
0100
0000
0000
0000
,  // measure 31
0001
0000
1000
0000
0010
0000
0100
0001
0000
0100
0010
0000
1000
0000
0100
0000
,  // measure 32
0020
0000
0000
0000
,  // measure 33
0130
0000
0000
0000
0000
0000
0000
0000
0000
0000
0000
0000
1000
0001
1000
0001
,  // measure 34
1000
0000
0100
0000
0010
0100
0010
0100
0000
0000
1000
0000
0000
0001
0000
0000
,  // measure 35
0200
0000
0301
2000
0000
3100
0010
0001
,  // measure 36
1000
0100
0001
0100
1000
0001
0100
0001
,  // measure 37
2000
0000
0000
0000
3100
0000
0020
0000
0000
0000
0130
0000
1000
0001
1000
0001
,  // measure 38
1000
0010
0000
0100
0000
0010
0000
2000
0000
0000
3000
0000
0001
0000
1000
0000
,  // measure 39
0010
0100
0000
0001
0000
0010
0000
0200
0000
0000
0300
0000
1000
0000
0001
0000
,  // measure 40
1000
0100
0001
1000
0010
0001
1000
0002
,  // measure 41
0000
0000
0000
0000
1000
0000
0000
0000
1000
0000
0000
0000
1003
0100
1000
0100
,  // measure 42
1000
0000
0001
0000
0100
0001
0100
0001
0000
0000
1000
0000
0000
0100
0000
0000
,  // measure 43
2000
0000
3010
0200
0000
0301
1000
0010
,  // measure 44
0110
0000
0100
0000
0001
0000
0010
0000
0100
0000
1100
0000
0000
1001
0000
0000
,  // measure 45
0011
0000
0001
0000
1000
0000
0020
0000
0000
0000
0000
0000
1030
0001
1000
0001
,  // measure 46
1000
0000
0001
0000
0010
0000
0100
1000
0000
0001
0100
0000
0001
0000
1001
0000
,  // measure 47
0000
1000
0001
0011
0000
0100
1000
0001
,  // measure 48
1001
1000
0010
0100
0001
1000
0010
0100
,  // measure 49
0001
0000
0010
0000
1000
0000
0010
0000
0001
0000
0100
0000
0010
0100
0010
0100
,  // measure 50
0010
1000
0010
1000
0010
0000
0100
0001
0000
1000
0100
0000
0000
0010
0001
0010
,  // measure 51
0001
0000
0100
0010
0000
1000
0000
0100
0000
0000
0000
0000
1100
0000
0000
1001
,  // measure 52
0000
0000
0001
0000
1000
0100
1000
0000
0001
0000
0100
0000
0010
0000
0100
0000
,  // measure 53
0001
0000
1000
0010
1000
0000
0010
0000
0100
0001
0000
1000
0100
0010
0100
0010
,  // measure 54
0001
1000
0001
1000
0001
0000
0010
0100
0000
1000
0001
0000
0000
0100
0001
0100
,  // measure 55
0001
0000
1000
0100
0000
0010
0000
0100
0000
0000
0000
0000
1010
0000
0000
1001
,  // measure 56
0000
0000
0001
1000
0001
0000
1000
0000
0010
0100
0010
0000
1000
0000
0001
0000
,  // measure 57
0001
0200
0000
0000
0310
0000
1000
0100
0000
0000
0000
0000
0000
0000
0000
0000
;

//---------------dance-single - ----------------
#NOTES:
     dance-single:
     :
     Beginner:
     1:
     0.068,0.096,0.068,0.000,0.000:
1000
0000
0000
0000
,
0001
0000
0000
0000
,
1000
0000
0000
0000
,
0001
0000
0000
0000
,
0100
0000
0000
0000
,
0100
0000
0000
0000
,
0100
0000
0000
0000
,
0000
0000
0000
0000
,
0010
0000
0000
0000
,
0010
0000
0000
0000
,
0010
0000
0000
0000
,
0000
0000
0000
0000
,
1001
0000
0000
0000
,
1000
0000
0000
0000
,
1000
0000
0000
0000
,
0000
0000
0000
0000
,
1001
0000
0000
0000
,
0000
0000
0000
0000
,
0110
0000
0000
0000
,
0000
0000
0000
0000
,
1001
0000
0000
0000
,
0001
0000
0000
0000
,
1000
0000
0000
0000
,
1000
0000
0000
0000
,
0010
0000
0000
0000
,
0100
0000
0000
0000
,
0001
0000
0000
0000
,
0100
0000
0000
0000
,
0010
0000
0000
0000
,
1000
0000
0000
0000
,
0010
0000
0000
0000
,
1000
0000
0000
0000
,
0000
0000
0000
0000
,
1001
0000
0000
0000
,
0001
0000
0000
0000
,
0010
0000
0000
0000
,
0001
0000
0000
0000
,
0100
0000
0000
0000
,
0100
0000
0000
0000
,
0100
0000
0000
0000
,
0000
0000
0000
0000
,
1001
0000
0000
0000
,
1000
0000
0000
0000
,
0100
0000
0000
0000
,
1000
0000
0000
0000
,
0001
0000
0000
0000
,
0001
0000
0000
0000
,
1000
0000
0000
0000
,
0010
0000
0000
0000
,
0100
0000
0000
0000
,
0000
0000
0000
0000
,
0110
0000
0000
0000
,
0000
0000
0000
0000
,
0010
0000
0000
0000
,
0000
0000
0000
0000
,
0110
0000
0000
0000
,
1000
0000
0001
0000
;
