#TITLE:Spiral2005;
#SUBTITLE:;
#ARTIST:猫叉Master+;
#TITLETRANSLIT:;
#SUBTITLETRANSLIT:;
#ARTISTTRANSLIT:Nekomata Master+;
#CREDIT:DigiMindAxel;
#BANNER:Spiral2005.png;
#BACKGROUND:Spiral2005-bg.png;
#LYRICSPATH:;
#CDTITLE:DigiMindAxel original simfile.png;
#MUSIC:Spiral2005.ogg;
#METERTYPE:DDR X;
#OFFSET:-8.771;
#SAMPLESTART:29.317;
#SAMPLELENGTH:12.000;
#SELECTABLE:YES;
#BPMS:0.000=140.000;
#STOPS:;
#BGCHANGES:;

//---------------dance-single - ----------------
#NOTES:
     dance-single:
     :
     Easy:
     5:
     0.261,0.238,0.020,0.137,0.000:
1000
0001
0100
0000
,
0001
1000
0100
0000
,
1000
0001
1000
0001
,
1000
1000
1001
0000
,
0002
0000
0103
0000
,
0020
0000
0130
0000
,
0002
0000
1003
0000
,
0200
0000
1300
0010
,
0200
0000
0301
0000
,
2000
0000
3100
0000
,
0020
0000
0130
0000
,
1000
0001
1000
0001
,
1000
0001
0010
0100
,
2000
0000
3001
0100
,
0001
0000
1000
0000
,
0100
1000
0100
1000
,
0001
0000
0100
0000
,
0010
1000
0100
0010
,
0002
0000
1003
0000
,
0001
1000
0001
1000
,
0001
0010
0100
0000
,
0010
0100
1000
0000
,
0001
0100
0010
0000
,
0100
0010
1000
0000
,
0001
0010
0100
0000
,
0010
0100
1000
0000
,
0002
0000
0000
0000
,
1003
0100
0010
0001
,
1000
0100
1000
0010
,
0100
0000
0001
0010
,
0100
1000
1000
1000
,
0001
0100
0010
0000
,
0100
0000
0001
0000
,
1000
0100
0010
0001
,
2000
0000
3001
0000
,
1000
0001
1000
0001
,
2000
0000
0000
3000
,
0001
0100
0001
1000
,
0001
0100
0001
1000
,
0100
0010
0100
1000
,
0100
0010
0100
1000
,
0001
0100
0001
1000
,
0100
1000
0001
0100
,
0001
1000
0100
1000
,
0010
0100
0001
0000
,
1000
0010
0100
0010
,
1000
0001
0010
0001
,
1000
0100
1000
0001
,
1000
0100
0010
0100
,
1000
0001
0100
0010
,
1000
0001
0100
0010
,
1000
1000
0001
0001
,
0010
0100
1000
0000
,
2002
0000
0000
0000
,
3003
0000
0000
0000
;

//---------------dance-single - ----------------
#NOTES:
     dance-single:
     :
     Medium:
     9:
     0.479,0.477,0.490,0.314,0.000: // measure 1
1001
0000
1100
0000
1000
0100
1000
0000
,  // measure 2
1001
0000
0011
0000
0001
0010
0001
0000
,  // measure 3
1001
0000
0110
0000
0010
0100
0010
0000
,  // measure 4
1000
0100
0010
0000
0001
0010
0100
0000
,  // measure 5
2001
0000
3100
0000
0010
0001
0010
0000
,  // measure 6
0200
0000
1300
0000
0010
0100
0010
0000
,  // measure 7
2000
0000
3001
0000
1000
0010
1000
0000
,  // measure 8
0020
0000
0130
0000
0001
0010
0001
0000
,  // measure 9
0020
0000
0130
0000
1000
0010
1000
0000
,  // measure 10
0200
0000
0310
0000
0001
0100
0001
0000
,  // measure 11
0020
0000
0130
0000
1000
0001
1000
0000
,  // measure 12
0100
1000
0010
0000
0010
0000
0110
0000
,  // measure 13
1001
2000
3020
0032
,  // measure 14
0023
0000
0000
1030
0010
0100
0001
1000
,  // measure 15
0000
1001
0110
1001
,  // measure 16
0101
0000
0100
0000
0010
1000
0001
0000
,  // measure 17
1001
0000
1000
0000
0001
0010
0100
0000
,  // measure 18
2000
3020
0032
0023
,  // measure 19
2030
0000
3001
0000
,  // measure 20
1000
0100
0010
0000
0001
0010
0100
0000
,  // measure 21
1100
1001
0011
0011
,  // measure 22
1100
1001
0011
0011
,  // measure 23
1010
1001
0101
0101
,  // measure 24
1010
1001
0101
0101
,  // measure 25
1001
0000
1000
0001
0100
0001
1000
0000
,  // measure 26
0001
0000
0010
0100
1000
0100
0010
0000
,  // measure 27
0002
1000
1000
1003
,  // measure 28
1001
0110
1001
0110
,  // measure 29
1001
0002
0203
2300
,  // measure 30
3200
0000
0000
0301
0010
0100
1000
0001
,  // measure 31
0000
0101
1001
1100
,  // measure 32
1001
0001
1000
0010
,  // measure 33
0101
0000
0001
0000
1001
0000
1000
0010
,  // measure 34
0200
0302
0023
0230
,  // measure 35
2300
0000
0000
0000
3001
0100
0001
0000
,  // measure 36
1000
0100
0010
0000
0100
0010
0001
0000
,  // measure 37
0200
0000
0000
0300
,  // measure 38
1001
0000
0001
1000
0010
0000
1000
0001
,  // measure 39
0010
0000
0001
0010
0100
0000
0010
0001
,  // measure 40
1000
0000
0010
0100
0001
0000
0100
0001
,  // measure 41
1000
0000
0100
0010
0001
0000
0010
0001
,  // measure 42
1000
0000
0001
1000
0010
0000
0100
0001
,  // measure 43
1000
0000
0100
0010
0001
0000
1000
0100
,  // measure 44
0010
0000
0100
1000
0001
0000
0100
0001
,  // measure 45
1000
0000
0001
0010
0100
0000
2000
0000
,  // measure 46
3001
0000
1000
0001
0100
0000
0001
1000
,  // measure 47
0100
0000
1000
0100
0010
0000
0100
0010
,  // measure 48
0001
0000
1000
0100
0001
0000
0100
1000
,  // measure 49
0100
0000
1000
0010
0001
0000
0010
1000
,  // measure 50
0010
0000
1000
0100
0001
0000
0100
1000
,  // measure 51
0100
0000
1000
0010
0001
0000
0010
1000
,  // measure 52
0010
0110
0110
0110
,  // measure 53
1001
0000
1100
0000
0022
0000
0000
0033
,  // measure 54
2002
0000
0000
0000
,  // measure 55
3003
0000
0000
0000
;

//---------------dance-single - ----------------
#NOTES:
     dance-single:
     :
     Hard:
     11:
     0.537,0.477,0.206,0.363,0.216: // measure 1
1001
0000
0000
1001
0000
0000
0000
0000
1000
0000
0010
0000
0100
0000
0000
0000
,  // measure 2
0001
0001
0001
0000
0010
0100
1000
0000
,  // measure 3
1001
0000
0000
1001
0000
0000
0000
0000
1000
0000
0001
0000
0100
0000
0000
0000
,  // measure 4
0001
0000
0100
0000
1000
0000
0100
0000
0001
0000
0000
1000
0001
0000
0010
0000
,  // measure 5
0100
0000
1000
0000
0200
0010
0310
0000
,  // measure 6
0001
2000
0100
0000
3100
0010
0001
0000
,  // measure 7
0100
0000
0010
0000
0200
0001
0301
0000
,  // measure 8
1000
0200
1000
0000
1300
0010
0100
0000
,  // measure 9
1001
0000
0001
0000
0200
0010
0310
0000
,  // measure 10
1000
0002
0100
0000
0103
0001
1000
0000
,  // measure 11
0100
0000
0010
0000
0200
1000
1300
0000
,  // measure 12
1001
0000
1001
0000
1001
0001
1000
0100
,  // measure 13
1100
1002
0203
2300
,  // measure 14
3200
0000
0000
0000
0000
0000
0301
1000
0001
0000
0010
0000
0100
0000
1000
0001
,  // measure 15
0000
0010
0010
0100
0100
0010
0010
0100
,  // measure 16
1000
0001
0100
0001
1000
0000
1001
0000
,  // measure 17
0011
0000
0010
0000
0100
1000
0001
0000
,  // measure 18
2001
3200
0302
0203
,  // measure 19
2300
0000
0000
0000
3010
0100
0001
1000
,  // measure 20
0100
0001
0100
1000
0100
0001
0100
0000
,  // measure 21
1000
1000
0010
0010
0100
0001
0010
0100
,  // measure 22
0000
1000
0010
0010
0100
0001
0010
0100
,  // measure 23
0000
1000
0001
0001
1000
0010
0100
0001
,  // measure 24
0000
1000
0001
0001
1000
0010
0100
0001
,  // measure 25
1000
0100
0100
0010
0010
0100
1000
0001
,  // measure 26
0000
0010
0010
0100
0100
1000
0001
0010
,  // measure 27
0200
1000
0010
1300
,  // measure 28
0010
0001
0100
0010
1000
0100
0001
0100
,  // measure 29
1000
1002
0023
2030
,  // measure 30
3002
0000
0000
0000
0000
0000
1003
0001
1000
0000
0010
0000
0100
0000
0001
0010
,  // measure 31
0000
0100
0100
0010
0010
0100
0100
1000
,  // measure 32
0010
0100
0001
0100
0010
0000
1010
0000
,  // measure 33
1001
0000
0100
0000
0010
0001
1000
0000
,  // measure 34
2001
3020
0032
0023
,  // measure 35
2030
0000
0000
0000
3001
1000
0010
0000
,  // measure 36
1000
0001
1000
0010
0001
0010
1000
0100
,  // measure 37
0010
0010
0010
0010
,  // measure 38
1001
0000
1000
0000
0000
0001
0000
0000
0010
0000
0100
0000
0000
1000
0000
0000
,  // measure 39
0010
0000
0100
0000
0000
0001
0000
0000
1000
0000
0010
0000
0000
1000
0000
0000
,  // measure 40
0001
0000
0010
0000
0000
0001
0000
0000
1000
0000
0100
0000
0000
1000
0000
0000
,  // measure 41
0010
0000
0100
0000
0000
0001
0000
0000
1000
0000
0100
0000
0000
0010
0000
0000
,  // measure 42
1001
0000
0001
0000
0000
0100
0000
0000
0001
0000
1000
0000
0000
0010
0000
0000
,  // measure 43
0100
0000
0001
0000
0000
0100
0000
0000
0001
0000
1000
0000
0000
0100
0000
0000
,  // measure 44
1000
0000
0100
0000
0000
0010
0000
0000
0001
0000
0100
0000
0000
0010
0000
0000
,  // measure 45
1000
0000
0001
0000
0000
0010
0000
0000
0001
0000
0000
0000
0200
0000
0000
0000
,  // measure 46
0320
0000
0000
1000
0000
0000
1030
0000
0002
0000
0000
0010
0000
0000
0013
0000
,  // measure 47
0200
0000
0000
1000
0000
0000
1300
0000
0020
0000
0000
0100
0000
0000
0130
0000
,  // measure 48
0002
0000
0000
0100
0000
0000
0103
0000
0020
0000
0000
0100
0000
0000
0130
0000
,  // measure 49
0002
0000
0000
1000
0000
0000
1003
0000
0200
0000
0000
1000
0000
0000
1300
0000
,  // measure 50
1001
0000
0000
0001
0000
0100
0001
0000
1000
0000
0000
0100
0000
1000
0100
0000
,  // measure 51
0010
0000
0000
0001
0000
0100
0001
0000
0100
0000
0000
0010
0000
1000
0010
0000
,  // measure 52
1000
0000
0000
0100
0000
0010
0100
0000
1000
0000
0000
0010
0000
0100
0010
0000
,  // measure 53
0100
0000
0000
0001
0000
0000
0010
0000
0000
0100
0000
0000
1000
0000
0001
0000
0100
0000
0001
0000
0000
1000
0000
0000
,  // measure 54
2200
0000
0000
0000
,  // measure 55
3300
0000
0000
0000
;

//---------------dance-single - ----------------
#NOTES:
     dance-single:
     :
     Challenge:
     13:
     0.698,0.662,0.275,0.216,0.613: // measure 1
1100
0000
0000
0100
1000
0000
0001
0000
0100
0000
0000
0001
1000
0000
0000
0000
,  // measure 2
0100
0000
0010
0001
0000
0001
0000
1000
0001
0000
0010
0000
0100
0000
0000
0000
,  // measure 3
1001
0000
0000
0001
1000
0000
0100
0000
0010
0000
0000
0001
0100
0000
0001
0000
,  // measure 4
1000
0000
1000
0000
0001
0000
0001
0000
0010
0100
0010
0100
0010
0000
0001
0000
,  // measure 5
1001
1000
0010
0001
0010
1000
0100
0010
,  // measure 6
0000
0000
0002
0000
0100
0000
0000
0000
1003
0000
0000
1001
0000
0000
0000
0000
,  // measure 7
1000
0001
0010
1000
0010
0001
0100
0010
,  // measure 8
0000
0000
2000
0000
0100
0000
0000
0000
3001
0000
0000
1001
0000
0000
0000
0000
,  // measure 9
1001
0001
0100
1000
0100
0001
0010
0100
,  // measure 10
0000
0000
2000
0000
0000
0000
0010
0000
3010
0000
0000
1010
0000
0000
0000
0000
,  // measure 11
1000
0001
0010
1000
0010
0001
1000
0010
,  // measure 12
0110
0000
0110
0000
0110
0110
1001
0000
,  // measure 13
1001
0000
0000
0000
0001
0000
0000
0001
0100
0000
0000
0100
0010
0000
0000
0010
,  // measure 14
2000
0000
0010
0000
3000
0000
1000
0100
0010
0000
0100
0000
1000
0000
0010
0100
,  // measure 15
0000
0000
1001
0000
1000
0000
1001
0000
0001
0000
1001
0000
1000
0010
1000
0010
,  // measure 16
1000
0000
0100
0000
0001
0000
0100
0000
2000
0000
0000
3010
0100
0000
0001
0000
,  // measure 17
1001
0000
1000
0000
0020
0100
0130
0001
,  // measure 18
0100
0000
0000
0100
0010
0000
0000
0010
1000
0000
0000
1000
0001
0000
0000
0001
,  // measure 19
0100
0010
1000
0010
0001
0010
1000
0001
,  // measure 20
1001
0000
0000
0000
0011
0000
0000
0000
1100
0000
0000
0000
1001
0000
1000
0010
,  // measure 21
0100
0000
0010
0000
1000
0000
0100
0000
0010
0000
0001
0200
0000
0000
0310
0000
,  // measure 22
0000
0000
0100
0000
0001
0000
0010
0000
0100
0000
1000
0020
0000
0000
0130
0000
,  // measure 23
0000
0000
0010
0000
1000
0000
0100
0000
0010
0000
0001
2000
0000
0000
3010
0000
,  // measure 24
0000
0000
0100
0000
0001
0000
0010
0000
0100
0000
1000
0002
0000
0000
0103
0000
,  // measure 25
0010
0000
1000
0000
0100
0000
0001
0000
0100
0000
1000
0002
0000
0000
0013
0000
,  // measure 26
0000
0000
0001
0000
0010
0000
1000
0000
0010
0000
0001
0200
0000
0000
0310
0000
,  // measure 27
1000
0000
0100
0000
1000
0000
0001
0000
1000
0000
0100
0000
1000
0000
0001
1000
,  // measure 28
0001
0000
0010
0001
0010
0000
0100
0010
0100
0000
1000
0001
1000
0000
0001
0100
,  // measure 29
0001
0000
0000
0000
1000
0000
0000
1000
0010
0000
0000
0010
0100
0000
0000
0100
,  // measure 30
0002
0000
0100
0000
0003
0000
0001
0010
0100
0000
1000
0000
0001
0000
0100
0001
,  // measure 31
0000
1001
0001
1001
1000
1001
0001
1000
,  // measure 32
1010
0000
0010
0000
0100
0000
0001
0000
0020
0000
0000
0100
0000
0000
0130
1000
,  // measure 33
0001
0000
1000
0000
0200
0010
0310
0001
,  // measure 34
1000
0000
0000
1000
0001
0000
0000
0001
0100
0000
0000
0100
0010
0000
0000
0010
,  // measure 35
1000
0000
0001
0000
0100
0000
1000
0000
0100
0000
0001
0000
1000
0000
0001
1000
,  // measure 36
0001
0010
0100
1000
0001
0010
0100
1000
,  // measure 37
0002
0003
0002
0003
0002
0003
0002
0003
,  // measure 38
1001
0000
1000
0010
0000
1000
0010
0000
0100
0000
0001
0100
0000
0001
0100
0000
,  // measure 39
0010
0000
1000
0100
0000
1000
0100
0000
0010
0000
0001
0010
0000
0001
0010
0000
,  // measure 40
0100
0000
1000
0001
0000
1000
0001
0000
0100
0000
0010
0100
0000
0010
0100
0000
,  // measure 41
0001
0000
1000
0100
0000
1000
0100
0000
0010
0000
0100
1000
0000
0100
1000
0000
,  // measure 42
0001
0000
0100
0001
0000
1000
0100
0000
0010
0000
0001
0100
0000
0001
1000
0100
,  // measure 43
1000
0000
0001
0100
0000
0001
1000
0000
0100
0000
0010
0001
0000
1000
0001
0010
,  // measure 44
0001
0000
0100
0010
0000
1000
0100
0000
0010
0000
0001
0100
0000
0001
1000
0100
,  // measure 45
1000
0000
0010
0100
0000
0010
0100
0000
0001
0000
0000
0000
2001
0000
0000
0000
,  // measure 46
3001
0000
1000
0100
0000
0100
0010
0000
0100
0000
1000
0010
0000
0010
0100
0001
,  // measure 47
0010
0000
0100
1000
0000
1000
0001
0000
0010
0000
0100
0010
0000
0010
0001
0100
,  // measure 48
0010
0000
0100
0001
0000
0001
1000
0000
0100
0000
0010
0100
0000
0100
1000
0010
,  // measure 49
0100
0000
0001
1000
0000
1000
0100
0000
0010
0000
0001
0100
0000
0100
0010
1000
,  // measure 50
0100
0000
0010
0001
0000
0001
1000
0100
0010
0000
0100
1000
0000
1000
0001
0100
,  // measure 51
0010
0000
0100
0001
0000
0001
1000
0100
0010
0000
0100
1000
0000
1000
0010
0100
,  // measure 52
0001
0000
0010
0100
0000
0100
1000
0010
0100
0000
0001
1000
0000
1000
0100
0010
,  // measure 53
0001
0000
0000
0100
0000
0000
0001
0000
0000
0100
0000
0000
0001
0000
0000
1000
0000
0000
0001
0000
0000
1000
0000
0000
0100
0000
0000
0000
0100
0000
0000
0000
0010
0000
0000
0000
0010
0000
0000
0000
0000
0000
0100
0000
0000
0000
0000
0000
,  // measure 54
2002
0000
0000
0000
,  // measure 55
3003
0000
0000
0000
;

//---------------dance-single - ----------------
#NOTES:
     dance-single:
     :
     Beginner:
     2:
     0.095,0.156,0.078,0.000,0.000:
1001
0000
0000
0000
,
1000
0000
0000
0000
,
0001
0000
1000
0000
,
0001
0000
0000
0000
,
0100
0000
0000
0000
,
0010
0000
0000
0000
,
0100
0000
0000
0000
,
0010
0000
0000
0000
,
1000
0000
0000
0000
,
0001
0000
0000
0000
,
1000
0000
0000
0000
,
0001
0000
0000
0000
,
1001
0000
0000
0000
,
0000
0000
0000
0000
,
1000
0000
0000
0000
,
0010
0000
0000
0000
,
0100
0000
0000
0000
,
0001
0000
0000
0000
,
1000
0000
0000
0000
,
0001
0000
0000
0000
,
1001
0000
0000
0000
,
1000
0000
0000
0000
,
1000
0000
0000
0000
,
1000
0000
0000
0000
,
1001
0000
0000
0000
,
0001
0000
0000
0000
,
0001
0000
0000
0000
,
0100
0000
0000
0000
,
0010
0000
0000
0000
,
0000
0000
1000
0000
,
0000
0000
0000
0000
,
0001
0000
0000
0000
,
1000
0000
0000
0000
,
0100
0000
0000
0000
,
0010
0000
0000
0000
,
0100
0000
0000
0000
,
0000
0000
0000
0000
,
1001
0000
0000
0000
,
0001
0000
0000
0000
,
0100
0000
0000
0000
,
0010
0000
0000
0000
,
1000
0000
0000
0000
,
0001
0000
0000
0000
,
1000
0000
0000
0000
,
0010
0000
0000
0000
,
0100
0000
0100
0000
,
0001
0000
0001
0000
,
0100
0000
0100
0000
,
0001
0000
0001
0000
,
1000
0000
1000
0000
,
0100
0000
0100
0000
,
1000
0000
1000
0000
,
1001
0000
1001
0000
,
0110
0000
0000
0000
;
