#TITLE:SpaceLand☆TOYBOX;
#SUBTITLE:;
#ARTIST:OSTER project;
#TITLETRANSLIT:;
#SUBTITLETRANSLIT:;
#ARTISTTRANSLIT:;
#CREDIT:DigiMindAxel;
#BANNER:SpaceLand TOYBOX.png;
#BACKGROUND:SpaceLand TOYBOX-bg.png;
#LYRICSPATH:;
#CDTITLE:beatmania IIDX.png;
#MUSIC:SpaceLand TOYBOX.ogg;
#METERTYPE:DDR X;
#OFFSET:-4.056;
#SAMPLESTART:50.084;
#SAMPLELENGTH:12.000;
#SELECTABLE:YES;
#BPMS:0.000=172.000,56.000=86.000,72.000=172.000;
#STOPS:;
#BGCHANGES:;

//---------------dance-single - ----------------
#NOTES:
     dance-single:
     :
     Easy:
     6:
     0.247,0.298,0.164,0.246,0.000:
1001
0000
1000
0000
,
0002
0000
0000
0000
,
1003
0000
0010
0000
,
0100
0010
0100
0010
,
1000
0000
0100
0000
,
0010
0001
0010
0001
,
0100
0000
0010
0000
,
1000
0001
1000
0001
,
0010
0000
0100
0000
,
1000
0010
0100
0000
,
1001
0000
1001
0000
,
1001
0000
1001
0000
,
0110
0000
0110
0000
,
0110
0000
0110
0000
,
0020
0000
2030
0000
,
3020
0000
2030
0000
,
3002
0000
0023
0000
,
0032
0000
0023
0000
,
0130
0000
1000
0000
,
0100
0000
1000
0000
,
0010
0000
0100
0000
,
0010
0000
0100
0000
,
0001
0000
0010
0000
,
0001
0000
0010
0000
,
0200
0000
0000
0300
,
1000
0000
0001
0000
,
0100
0001
0100
0001
,
1000
0000
0100
0000
,
0020
0000
0000
0000
,
0031
0000
0100
0010
,
0100
0000
0001
0000
,
1000
0100
1000
0000
,
0010
0100
0010
0100
,
0001
0000
0010
0000
,
0100
1000
0100
1000
,
1001
0000
1001
0000
,
1001
0000
0000
0000
,
0100
0000
0010
0000
,
0001
0100
0010
0100
,
0001
0000
0010
0000
,
0100
1000
0100
0010
,
0000
1001
0000
0000
,
1000
0000
0010
0000
,
0200
0000
0302
0000
,
0203
0000
0302
0000
,
2003
0000
3200
0000
,
0320
0000
0032
0000
,
2003
0000
3001
0000
,
0000
1001
1000
0000
,
0100
0000
1000
0000
,
0001
0000
0100
0001
,
0100
0001
1000
0000
,
0100
0000
0010
0000
,
0001
0000
0110
0000
,
0110
0000
0110
0000
,
0000
0000
2000
0000
,
0000
0000
0000
0000
,
0000
0000
3001
0000
,
0100
0000
0010
0100
,
0001
0010
0100
0000
,
1000
0000
0001
0000
,
0100
0000
0020
0000
,
2030
0000
3020
0000
,
0230
0000
0302
0000
,
0023
0000
0130
0000
,
0000
0000
0000
1001
0000
0000
0000
0000
;

//---------------dance-single - ----------------
#NOTES:
     dance-single:
     :
     Medium:
     9:
     0.483,0.461,0.173,0.519,0.000: // measure 1
2000
3200
0320
0032
,  // measure 2
2003
0000
0000
0000
0001
0001
3001
0000
,  // measure 3
1000
0010
0100
0001
,  // measure 4
1000
0100
1000
0000
0001
1000
0001
0000
,  // measure 5
0010
0100
1000
0010
,  // measure 6
0100
0001
0100
0000
0001
1000
0001
0000
,  // measure 7
0010
0100
1000
0001
,  // measure 8
0100
0010
0100
0000
0001
0100
0001
0000
,  // measure 9
1000
0100
0010
0100
,  // measure 10
1000
0001
1000
0001
0100
0000
0100
0000
,  // measure 11
0002
0013
0200
0310
,  // measure 12
0002
0000
0103
0000
0010
0010
0010
0000
,  // measure 13
2000
3100
0020
0130
,  // measure 14
2000
3010
0110
0110
,  // measure 15
1002
0013
0200
1300
,  // measure 16
0020
0130
0002
0103
,  // measure 17
0120
1030
0002
1003
,  // measure 18
0200
0310
0002
0013
,  // measure 19
0100
1000
0100
1000
,  // measure 20
0020
0000
0130
0002
0000
0013
0200
0000
,  // measure 21
0310
0001
1000
0001
,  // measure 22
1000
0010
1000
0000
0001
0010
0001
0000
,  // measure 23
1001
1000
0001
1000
,  // measure 24
0001
0010
0100
1000
,  // measure 25
2002
0000
0000
3003
,  // measure 26
1001
0000
1000
0000
0100
1000
0000
0010
,  // measure 27
0000
0100
0000
0010
0000
0100
0001
0000
,  // measure 28
0010
0000
0100
1000
0000
0001
0000
0100
,  // measure 29
0002
0000
0000
0003
,  // measure 30
1000
0000
0001
0100
0000
0001
1000
0000
,  // measure 31
0100
0000
0010
0001
0000
0100
0000
0001
,  // measure 32
1000
0000
0100
1000
0000
0010
0100
0010
,  // measure 33
2000
3200
0320
0230
,  // measure 34
1300
0000
0001
0010
0000
0001
1000
0000
,  // measure 35
0100
0000
0010
0001
0000
0100
0010
0000
,  // measure 36
1000
1000
0000
0000
0001
0001
0000
2002
,  // measure 37
0000
0000
0000
3003
,  // measure 38
0001
0100
0001
0000
1000
0100
0010
0000
,  // measure 39
0001
0000
1000
0010
0100
0010
0100
0010
,  // measure 40
2000
0000
3002
0000
,  // measure 41
0203
0000
0000
0000
0310
0100
0001
0000
,  // measure 42
1000
0000
1001
0000
0001
1000
0010
2000
,  // measure 43
0000
0001
0001
3001
,  // measure 44
0020
0031
0200
0310
,  // measure 45
2000
0000
3100
0000
0010
0010
0010
0000
,  // measure 46
0002
0103
0020
1030
,  // measure 47
0200
0310
0002
1003
,  // measure 48
0110
0110
2002
0000
,  // measure 49
3003
0000
1001
0000
0001
0000
0100
0001
,  // measure 50
0100
0001
1000
0000
0100
0000
0010
0000
,  // measure 51
0100
1000
0100
0000
2000
0000
3020
0000
,  // measure 52
0032
0000
0023
0000
1030
0001
1000
0000
,  // measure 53
0001
0010
0001
0000
0100
0010
0000
1000
,  // measure 54
0100
0000
0010
0000
0001
0001
0000
0000
,  // measure 55
0100
0100
0000
1002
0000
0000
0100
0000
,  // measure 56
0100
0000
0103
0000
0010
0100
0010
0100
,  // measure 57
0010
0100
0010
0100
0010
0100
0010
0100
,  // measure 58
0010
0110
1001
1000
,  // measure 59
0100
1000
0001
0000
0010
0100
1000
0001
,  // measure 60
1000
0001
0100
0001
0100
0000
1001
0000
,  // measure 61
0001
1000
0010
2000
0000
0000
0001
0000
,  // measure 62
0001
3001
0020
0031
,  // measure 63
0200
0310
2000
3100
,  // measure 64
0010
0010
0010
0000
0001
0100
0010
0000
,  // measure 65
0100
0010
1000
0000
2002
0000
0000
0000
,  // measure 66
0000
3003
0000
2002
0000
0000
0000
0000
,  // measure 67
0000
0000
0000
0000
,  // measure 68
0000
0000
3003
0000
;

//---------------dance-single - ----------------
#NOTES:
     dance-single:
     :
     Hard:
     12:
     0.613,0.584,0.319,0.401,0.100:
1000
0010
1000
0001
0010
0001
1000
0010
,
0200
0000
0000
0000
0010
0010
0310
0000
,
1000
0001
0010
0000
0001
0010
0100
1000
,
0001
0000
0010
0001
0000
0100
0000
0010
0000
2000
0000
0000
3001
0000
0000
0000
,
1000
1000
0001
0001
0100
0100
0010
0010
,
1000
0100
0010
0100
1000
1000
0001
0001
,
1000
0001
0100
0000
0001
0010
0100
1000
,
0001
0000
0100
0001
0000
0010
0000
0100
0000
2000
0000
0000
3010
0000
0000
0000
,
1000
1000
0001
0001
1000
0010
0001
0010
,
1000
0001
0100
0001
2000
0000
3001
0000
,
0201
0310
0201
0310
,
0201
0000
0310
0000
1000
1000
1000
0000
,
1200
0310
1200
0310
,
1200
0000
0000
0310
0000
0000
0001
0010
0001
0010
0001
0100
,
0020
1030
0002
0013
,
0200
0000
0310
0000
0002
0000
1000
1003
,
0001
0100
0101
0000
0001
0100
0010
0100
,
0001
1000
1001
0000
0001
0020
0100
0130
,
1001
0000
0001
0100
0001
0100
0010
0000
,
2000
3200
0010
0320
,
0032
1000
2003
0010
,
3020
0100
0230
0001
,
0301
1000
0001
0000
1000
0100
1000
0000
,
0001
0010
0001
0000
1000
0001
1000
0000
,
1002
0000
0000
1003
,
1001
0000
0001
0100
0001
1000
0000
0100
,
0010
0100
0000
1000
0010
1000
0001
0000
,
1000
0100
1000
0001
0000
0100
0010
0100
,
0002
0000
0000
0000
,
1003
0010
0100
0010
1000
0010
0100
0001
,
0010
0000
0000
0000
1000
0000
0010
0000
0000
0000
0001
0000
0000
0000
0100
0010
,
0200
0000
0301
0010
0100
0010
0001
0100
,
0010
0101
0110
1010
,
1001
0000
1000
0001
1000
0010
0100
0001
,
0010
0000
1000
0010
0000
0001
1000
0000
,
1010
0010
0000
0000
0110
0100
0000
1001
,
0000
1000
0100
0010
0001
1000
0100
0010
,
0001
0100
0010
0100
0001
0100
0010
0100
,
0001
1000
0100
1000
0001
1000
0100
1000
,
0002
0000
0000
0000
0103
0000
0010
0100
0020
0000
0000
0000
0130
0000
0001
1000
,
0002
0000
0000
0000
1003
0010
0100
0001
,
1000
0000
1001
0000
0001
0010
0100
2000
,
0000
0000
3001
0100
0001
0100
0010
1000
,
0020
1030
0120
1030
,
0010
0010
1000
1000
0001
0001
0001
0000
,
0201
0310
0201
0310
,
0120
1030
0120
1030
,
0001
1000
0001
1000
0010
0100
0002
0000
0000
0000
0000
0000
,
0000
0000
1003
0000
0001
1000
0010
1000
,
0001
1000
0010
1000
0001
0010
1000
0010
,
0001
0100
0010
1000
0001
0000
0101
0000
,
0110
0000
1010
0000
1000
0010
0100
0001
,
0010
1000
0010
0001
1000
0010
0000
0001
,
0010
1000
0001
0000
0011
0010
0000
0000
,
0110
0100
0000
1001
0000
0001
0010
0100
,
1000
0001
0010
0100
1000
0001
1000
0001
,
1000
0001
1000
0001
1000
0001
1000
0001
,
1000
0000
1001
0000
1000
0010
0100
0010
,
1000
0100
0010
0001
0001
0100
0100
0010
,
0010
1000
1000
0100
0010
0000
1001
0000
,
0001
0100
0010
2000
0000
0000
3001
0100
,
0010
0100
0001
1000
0200
0000
0310
0000
,
1200
0000
0310
0000
1000
1000
0010
0010
,
0100
0000
0100
0000
0100
0000
0000
0000
0001
0000
0100
0001
0000
0100
0000
0020
,
0000
1000
1000
1030
0220
0000
0000
0000
,
0000
0330
0000
2002
0000
0000
0000
0000
,
0000
0000
0000
0000
,
0000
0000
3003
0000
;

//---------------dance-single - ----------------
#NOTES:
     dance-single:
     :
     Challenge:
     15:
     0.800,0.769,0.228,0.091,0.683:
0001
0100
0001
0000
1000
0100
1000
0000
0010
0000
0010
0000
0100
0000
0010
0100
,
0002
0000
0000
0000
0000
0000
0000
1003
0100
0000
0100
0000
0100
0000
0000
0000
,
1000
0010
1000
0010
1000
0010
1000
0000
0001
0010
0001
0000
0010
0100
0010
0000
,
0001
0000
1000
0001
0000
0100
0000
0010
0000
0100
0001
0000
1001
0000
0000
0000
,
1000
0000
0100
0000
0010
0100
0000
1000
0001
0000
0100
0000
0010
0100
0010
0000
,
1000
0001
1000
0001
1000
0001
1000
0000
0010
0000
0010
0000
0100
0000
0100
0000
,
0001
1000
0001
1000
0001
1000
0001
0000
0100
0000
0010
0000
1000
0000
0001
0010
,
0001
0000
1000
0010
0000
0100
0000
0010
0000
0100
0001
0000
1001
0000
0000
0000
,
1000
0000
1000
0000
0010
0100
0000
0100
0001
0000
0010
0000
0100
0000
1000
0000
,
0001
0100
0001
0100
0001
0100
0001
0000
0010
0000
0100
0000
1000
0000
0000
0000
,
0001
0100
1000
0100
0001
0010
1000
0010
,
0001
0100
1000
0100
0001
1000
1001
0000
,
0001
0010
0100
0010
0001
0010
0100
1000
0001
1000
0100
1000
,
0001
0100
0010
0100
0001
0100
0010
1000
0100
0001
0100
1000
,
0001
0100
0101
0000
0010
1000
1100
0000
,
0010
0001
1001
0000
0001
1000
0100
0010
,
0101
0000
0001
0100
0010
0000
0100
0000
0001
1000
0000
0000
0000
0001
0000
0001
,
1000
0100
0010
0100
1000
0000
0001
0000
0100
0001
0000
0100
0001
1000
1001
0000
,
0001
0000
0100
0000
0001
0000
1000
0000
0100
1000
0100
0000
0010
0000
0001
0000
,
1000
0100
0001
0100
1000
0010
0001
0010
,
1000
0000
0100
0000
0010
0000
0100
0000
1000
0010
1000
0000
0010
0000
0100
0000
,
0001
1000
0100
0001
1000
0010
0001
1000
,
0010
0100
0010
1000
0100
0001
0100
1000
,
0100
0010
0100
1000
0010
0001
0010
1000
,
2002
0000
3003
1001
,
1000
0000
0010
0000
1000
0100
0010
0100
1000
0000
0001
0000
0100
0000
0001
1000
,
0000
0100
0010
0100
0010
0001
0100
0000
0010
0100
0010
0000
1000
0100
1000
0000
,
0001
0000
0100
0000
0001
0100
0001
0100
0000
0001
1000
0000
0100
0000
0010
0000
,
0100
0000
0000
1000
0100
0001
0100
1000
0100
0010
0001
0100
,
0001
0010
0100
0010
0001
1000
0010
0100
,
0001
0000
1000
0000
0010
0000
0001
0000
0010
0000
1000
0000
0100
0000
0010
0100
,
1000
0001
0100
0001
1000
0001
0010
0100
,
1000
0000
0000
0010
1000
0000
0000
0100
0010
0000
0000
0001
0100
0000
0000
0001
,
1000
0010
0100
0010
1000
0001
0010
0100
,
0010
0001
0100
1000
0100
0001
0010
0100
,
1100
0000
1100
0000
0000
0000
0000
0000
0010
0001
1000
0000
0000
0000
1001
0000
,
0000
0000
0001
0010
0001
0000
0010
0100
0010
0000
0100
1000
0100
1000
0100
1000
,
0001
0100
0010
0100
0001
1000
0100
0010
,
0001
1000
0010
0001
0010
0100
0001
1000
,
0100
0000
0000
0000
0010
0000
0100
1000
0200
0000
0000
0000
0310
0000
0001
0100
,
0002
0000
1003
0000
0001
0010
0100
0010
,
0001
1000
1010
0000
0100
0101
0001
1000
,
0000
0000
0100
0010
0100
0000
0010
0001
0010
0000
0001
1000
0001
1000
0001
1000
,
0001
0100
1000
0100
0001
0010
1000
0010
,
0001
0001
0100
0100
0010
0010
1010
0000
,
1000
0100
0010
0100
1000
0100
0010
0001
0100
0010
0100
0001
,
1000
0001
0010
0001
1000
0001
0010
0100
0010
0001
0100
0010
,
1000
0100
0001
0100
1000
0100
0020
0000
0000
0000
0000
0000
,
0030
0000
0000
0000
1001
0000
0000
0000
1000
0000
0010
0100
0010
0000
1000
0010
,
1000
0000
0001
0010
0001
0000
0010
0000
0100
0000
1000
0000
1000
0000
0001
0100
,
0001
0000
0010
0100
1000
0100
0010
0000
0001
1000
0000
0001
1000
0000
0010
0000
,
1000
0000
0100
0000
0001
0000
0100
0000
1000
0001
1000
0000
0001
0100
0001
0000
,
0010
0000
0100
0000
0010
0000
0001
0000
1000
0010
1000
0000
0001
0000
0010
0001
,
0010
0100
1000
0000
1010
1010
0000
0000
,
0100
0001
1000
0000
0000
0000
1001
0000
0000
0000
1000
0100
1000
0000
0100
0010
,
0100
0000
0010
0001
0010
0001
0010
0001
1000
0000
0001
0000
1000
0000
0001
0000
,
1000
0000
0001
0000
1000
0000
0001
0000
1000
0001
1000
0000
0001
0000
1000
0001
,
1000
0000
0010
0000
0110
0000
0000
0000
0100
0000
0010
0000
0001
0000
1000
0010
,
0100
0000
0010
0000
1000
0000
0001
0010
0001
0000
0010
0100
0010
0000
0100
1000
,
0100
0000
1000
0001
1000
0000
0010
0000
0100
0000
0000
0000
1001
0000
0000
0000
,
1000
0000
0010
0000
0010
0000
0110
0000
0000
0000
0100
1000
0100
0000
0010
0100
,
0010
0000
0001
0010
0001
0010
0001
0010
0001
0000
0010
0000
1000
0000
0010
0000
,
0001
0100
1000
0100
0001
0001
0100
0100
,
0010
0000
0010
0000
1000
0000
0000
0000
0100
0000
0010
0001
0000
0001
0000
0010
,
0000
0100
1000
0010
1000
0010
1000
0000
2002
0000
0000
0000
0000
0000
0000
0000
,
0000
3003
0000
0220
0000
0000
0000
0000
,
0000
0000
0000
0000
,
0000
0000
0330
0000
;

//---------------dance-single - ----------------
#NOTES:
     dance-single:
     :
     Beginner:
     3:
     0.121,0.149,0.055,0.000,0.000:
1000
0000
0001
0000
,
1000
0000
0000
0000
,
0100
0000
1000
0000
,
0100
0000
0000
0000
,
1000
0000
1000
0000
,
1000
0000
0001
0000
,
1000
0000
0100
0000
,
1000
0000
0000
0000
,
0001
0000
0001
0000
,
0001
0000
0100
0000
,
0010
0000
0000
0000
,
0010
0000
0000
0000
,
0100
0000
0000
0000
,
0100
0000
0000
0000
,
1001
0000
0000
0000
,
0000
0000
0000
0000
,
0001
0000
1000
0000
,
0100
0000
1000
0000
,
0001
0000
0000
0000
,
0100
0000
0000
0000
,
0010
0000
0000
0000
,
0100
0000
0000
0000
,
0010
0000
0000
0000
,
1000
0000
0000
0000
,
0001
0000
0000
0000
,
1001
0000
0000
0000
,
1000
0000
0000
0000
,
0001
0000
0000
0000
,
0100
0000
0000
0000
,
0110
0000
0000
0000
,
0010
0000
0000
0000
,
1000
0000
0000
0000
,
0001
0000
0001
0000
,
0001
0000
0000
0000
,
1000
0000
0000
0000
,
0100
0000
0100
0000
,
0100
0000
0000
0000
,
1000
0000
0000
0000
,
0001
0000
0000
0000
,
0100
0000
0000
0000
,
0010
0000
0000
0000
,
0100
0000
0000
0000
,
0001
0000
0000
0000
,
1001
0000
0000
0000
,
1000
0000
0000
0000
,
0001
0000
0000
0000
,
0001
0000
0000
0000
,
1000
0000
0100
0000
,
0000
0000
1000
0000
,
0001
0000
1000
0000
,
0001
0000
1000
0000
,
0001
0000
1000
0000
,
0100
0000
1000
0000
,
0100
0000
0010
0000
,
0010
0000
0010
0000
,
0000
0000
1001
0000
,
0000
0000
0000
0000
,
0000
0000
0001
0000
,
0100
0000
0001
0000
,
0100
0000
0001
0000
,
1000
0000
0001
0000
,
0000
0000
1000
0000
,
1000
0000
0001
0000
,
0000
0000
1000
0000
,
1000
0000
0001
0000
,
0000
0000
0000
1001
0000
0000
0000
0000
;
