#TITLE:Snow Patrol;
#SUBTITLE:(Part 1);
#ARTIST:Alpinestars;
#TITLETRANSLIT:;
#SUBTITLETRANSLIT:;
#ARTISTTRANSLIT:;
#CREDIT:DigiMindAxel;
#BANNER:Snow Patrol (Part 1).png;
#BACKGROUND:Snow Patrol (Part 1)-bg.png;
#LYRICSPATH:Snow Patrol (Part 1).lrc;
#CDTITLE:DigiMindAxel original simfile.png;
#MUSIC:Snow Patrol (Part 1).ogg;
#METERTYPE:DDR X;
#OFFSET:-8.704;
#SAMPLESTART:24.349;
#SAMPLELENGTH:12.000;
#SELECTABLE:YES;
#BPMS:0.000=120.750;
#STOPS:;
#BGCHANGES:;

//---------------dance-single - ----------------
#NOTES:
     dance-single:
     :
     Easy:
     3:
     0.176,0.203,0.019,0.207,0.000:
2000
0000
0000
0000
,
3002
0000
0000
0000
,
2003
0000
0000
0000
,
3002
0000
0000
0000
,
2003
0000
0000
0000
,
3002
0000
0000
0000
,
2003
0000
0000
0000
,
3002
0000
0000
0000
,
1003
0000
0010
0000
,
1000
0000
0001
0000
,
1000
0000
0010
0000
,
1000
0000
0001
0000
,
0010
0000
0100
0000
,
0010
0000
0001
0000
,
1000
0000
0001
0000
,
0100
0000
0001
0000
,
0020
0000
0230
0000
,
2300
0000
3200
0000
,
0320
0000
0230
0000
,
2300
0000
3002
0000
,
0203
0000
0320
0000
,
0230
0000
0302
0000
,
2003
0000
0000
0000
,
3002
0000
0000
0000
,
1003
0000
0100
0000
,
1000
0000
0100
0000
,
0010
0000
0001
0000
,
0010
0000
0001
0000
,
0100
0100
0000
0010
,
0100
0100
0000
0010
,
1000
1000
0000
0010
,
1000
1000
0000
0000
,
1001
0001
1000
0000
,
0001
0100
0001
0000
,
1000
0010
1000
0000
,
0001
1000
0001
0000
,
1000
0100
1000
0000
,
0001
0010
0001
0000
,
0100
0010
0100
0000
,
0010
0100
0010
0000
,
1000
0100
0010
0000
,
0001
0010
0100
0000
,
1000
0100
0010
0000
,
0001
0010
0100
0000
,
1000
0001
0100
0000
,
0001
1000
0010
0000
,
1000
0001
0100
0000
,
0001
1000
0010
1000
,
1001
0000
0000
0000
;

//---------------dance-single - ----------------
#NOTES:
     dance-single:
     :
     Medium:
     7:
     0.322,0.316,0.019,0.179,0.000:
1000
0001
1000
0001
,
1000
0100
1000
0100
,
0010
0001
0010
0001
,
0100
0010
0100
0010
,
1000
0001
1000
0001
,
0100
0001
0100
0001
,
1000
0010
1000
0010
,
1000
0000
0001
0001
1000
0000
1001
0000
,
0001
0100
0001
0000
0010
0000
0100
1000
,
0100
0010
0001
0100
,
0010
0100
0010
0000
1000
0000
0001
0100
,
0001
0010
0100
1000
,
0010
0100
0010
0000
1000
0000
0001
0100
,
0001
0010
0100
1000
,
0001
0010
0001
0000
0100
0000
0010
0000
,
1000
0001
1000
0000
0100
1000
0100
0000
,
0000
0010
0000
0010
0000
0010
0001
0000
,
0000
0100
0000
0100
0000
0100
0010
0000
,
0000
1000
0000
1000
0000
1000
0100
0000
,
0000
0010
0000
0010
0000
0010
0001
0000
,
0000
0010
0000
0010
0000
0010
0100
0000
,
0000
1000
0000
1000
0000
1000
0010
0000
,
0000
0100
0000
0100
0000
0100
0001
0000
,
0000
0010
0000
0020
0000
0000
0100
0000
,
0230
1000
1000
1000
,
1000
1000
1000
1300
,
0020
0100
0100
0100
,
0100
0100
0100
0130
,
0001
0000
0100
0001
0000
0000
1000
0000
,
0100
0000
0010
0100
0000
0000
1000
0000
,
0001
0000
0100
0001
0000
0000
0010
0000
,
0100
0000
1000
0001
0000
1000
0001
0000
,
0020
0000
0100
0000
0100
0000
0130
1000
,
0002
0000
0010
0000
0010
0000
0013
0100
,
2000
0000
0001
0000
0001
0000
3001
0100
,
0020
0000
0100
0000
0100
0000
0130
0001
,
0020
0000
0100
0000
0100
0000
0130
1000
,
0002
0000
0010
0000
0010
0000
0013
0100
,
2000
0000
0010
0000
0010
0000
3010
0100
,
0002
0000
0100
0000
0100
0000
0103
0010
,
2000
0000
0001
0000
0100
0000
3001
0010
,
0200
0000
1000
0000
0010
0000
1300
0001
,
0020
0000
0100
0000
1000
0000
0130
0001
,
2000
0000
0100
0000
0010
0000
3100
0010
,
0002
0000
0100
0000
0010
0000
0103
0001
,
0020
0000
0100
0000
1000
0000
0130
0001
,
2000
0000
0001
0000
0100
0000
3001
0010
,
0200
0000
1000
0000
0010
0000
1300
0001
,
1001
0000
0000
0000
;

//---------------dance-single - ----------------
#NOTES:
     dance-single:
     :
     Hard:
     10:
     0.469,0.496,0.075,0.169,0.118: // measure 1
1000
0010
1000
0010
,  // measure 2
0001
0010
0001
0010
,  // measure 3
1000
0001
1000
0001
,  // measure 4
0100
0010
0100
0001
,  // measure 5
1000
0100
1000
0100
,  // measure 6
0001
0100
0001
0100
,  // measure 7
1000
0001
1000
0001
,  // measure 8
0010
0000
0000
0000
0110
0000
0100
0000
0000
0000
1010
0000
1000
0000
0001
0100
,  // measure 9
0001
0010
0100
2000
0000
3001
0200
0000
,  // measure 10
0301
1000
0100
0020
0000
0031
0200
0000
,  // measure 11
0310
1000
0100
0020
0000
0130
2000
0000
,  // measure 12
3010
0100
0001
0020
0000
0130
0020
0000
,  // measure 13
0031
0010
0100
2000
0000
3001
0200
0000
,  // measure 14
0310
1000
0100
0020
0000
0031
0200
0000
,  // measure 15
0301
0100
0001
2000
0000
3100
0020
0000
,  // measure 16
0031
0000
0100
0001
0100
0001
0100
0000
0010
1000
0010
1000
0010
0000
1000
0001
,  // measure 17
1000
0100
0001
0100
1000
0100
0010
0000
,  // measure 18
0001
0010
1000
0010
0001
0010
0100
0000
,  // measure 19
1000
0010
0001
0010
1000
0100
0010
0000
,  // measure 20
0100
1000
0010
0001
0010
1000
0100
0000
,  // measure 21
1000
0001
0010
1000
0010
0001
0100
0000
,  // measure 22
0010
1000
0100
0001
0100
1000
0001
0000
,  // measure 23
1001
0000
0100
0000
0100
0100
0100
0000
,  // measure 24
0010
0000
0010
0000
0010
0010
0010
0000
,  // measure 25
1000
0000
0001
0010
0100
1000
0010
0100
,  // measure 26
0001
0001
0001
0001
,  // measure 27
0001
0000
1000
0100
0010
0001
0100
0010
,  // measure 28
1000
1000
1000
1000
,  // measure 29
0010
0000
0100
0001
0100
0001
0000
1000
0000
1000
0000
1000
0001
0000
0010
0000
,  // measure 30
0000
0000
0001
1000
0001
1000
0000
0010
0000
0010
0000
0010
0100
0000
0001
0000
,  // measure 31
0000
0000
0100
0001
0100
0001
0000
1000
0000
1000
0000
1000
0010
0000
0100
0000
,  // measure 32
0000
0000
0001
0000
0101
0000
0110
0000
0000
0000
1010
0000
1000
0000
0001
0010
,  // measure 33
0001
0100
0010
0200
0000
0301
1000
0100
,  // measure 34
0010
1000
0010
0100
1000
0001
0100
0001
,  // measure 35
1000
0100
0010
0200
0000
1300
0001
0010
,  // measure 36
0100
0001
0100
0010
0001
1000
0010
1000
,  // measure 37
0001
0100
0010
2000
0000
3001
1000
0010
,  // measure 38
0100
1000
0100
0010
1000
0001
0010
0001
,  // measure 39
1000
0001
0010
0200
0000
0310
0001
0100
,  // measure 40
0010
0000
1000
0000
1100
0000
0100
0000
0000
0000
1001
0000
0001
0000
1000
0010
,  // measure 41
1000
0100
0001
0100
1000
0001
1000
0010
,  // measure 42
0001
0010
1000
0100
0010
0001
0100
0000
,  // measure 43
0001
0010
1000
0010
0001
1000
0001
0100
,  // measure 44
1000
0100
0001
0010
0100
0010
0001
0000
,  // measure 45
1000
0010
0001
0010
0100
0001
1000
0010
,  // measure 46
1000
0100
0001
0100
0010
0001
1000
0000
,  // measure 47
0001
0100
1000
0100
0010
1000
0001
0100
,  // measure 48
0001
0000
0010
0000
1000
0000
0010
0000
0100
0000
1000
0000
0001
0100
0001
0100
,  // measure 49
0001
0000
0000
0000
;

//---------------dance-double - ----------------
#NOTES:
     dance-double:
     :
     Easy:
     3:
     0.177,0.203,0.028,0.132,0.000:
10000000
00000000
10000000
00000000
,
00010000
00000000
00010000
00000000
,
10000000
00000000
10000000
00000000
,
01000000
00000000
01000000
00000000
,
10000000
00000000
10000000
00000000
,
00100000
00000000
00100000
00000000
,
01000000
00000000
01000000
00000000
,
00001000
00000000
00001000
00000000
,
00011000
00000000
00010000
00000000
,
00000100
00000000
00010000
00000000
,
00000010
00000000
00000100
00000000
,
00000010
00000000
00001000
00000000
,
00000001
00000000
00001000
00000000
,
00000001
00000000
00000010
00000000
,
00000001
00000000
00000010
00000000
,
00000100
00000000
00010000
00000000
,
00002000
00000000
00023000
00000000
,
00030020
00000000
00020030
00000000
,
00032000
00000000
00203000
00000000
,
02300000
00000000
23000000
00000000
,
32000000
00000000
03200000
00000000
,
00320000
00000000
00032000
00000000
,
00003020
00000000
00000000
00000000
,
00000230
00000000
00000000
00000000
,
00000310
00000000
00000010
00000000
,
00000010
00000000
00000010
00000000
,
00000001
00000000
00000001
00000000
,
00000001
00000000
00000001
00000000
,
00000010
00000100
00000000
00001000
,
00010000
00100000
00000000
01000000
,
10000000
00100000
00000000
01000000
,
00010000
00100000
00000000
00000000
,
00011000
00001000
00010000
00000000
,
00000010
00010000
00000010
00000000
,
00000100
00000010
00000100
00000000
,
00000001
00000010
00000001
00000000
,
00000010
00000100
00000010
00000000
,
00001000
00010000
00001000
00000000
,
01000000
00100000
01000000
00000000
,
00100000
01000000
00100000
00000000
,
10000000
01000000
00100000
00000000
,
00001000
00010000
00000010
00000000
,
00000100
00000001
00000010
00000000
,
00000100
00001000
00010000
00000000
,
01000000
00100000
10000000
00000000
,
00100000
10000000
00001000
00000000
,
00010000
00000010
00000100
00000000
,
00000001
00000010
00000100
00010000
,
00011000
00000000
00000000
00000000
;

//---------------dance-double - ----------------
#NOTES:
     dance-double:
     :
     Medium:
     7:
     0.320,0.316,0.028,0.103,0.000:
10000000
00100000
10000000
00100000
,
01000000
00001000
01000000
00001000
,
00010000
00001000
00010000
00001000
,
00000100
00000010
00000100
00000010
,
00000001
00000100
00000001
00000100
,
00000001
00010000
00000001
00010000
,
00001000
00100000
00001000
00100000
,
01000000
00000000
10000000
10000000
00010000
00000000
10010000
00000000
,
00100000
00010000
00100000
00000000
01000000
00000000
10000000
00100000
,
10000000
01000000
00100000
00001000
,
00010000
00000010
00010000
00000000
00000100
00000000
00000010
00000001
,
00000010
00000100
00010000
00001000
,
01000000
00010000
01000000
00000000
00100000
00000000
10000000
01000000
,
10000000
01000000
00100000
00010000
,
00001000
01000000
00001000
00000000
00010000
00000000
00000010
00000000
,
00000100
00000010
00000100
00000000
00000001
00001000
00000001
00000000
,
00000000
00000010
00000000
00000010
00000000
00000010
00000100
00000000
,
00000000
00010000
00000000
00010000
00000000
00010000
00001000
00000000
,
00000000
01000000
00000000
01000000
00000000
01000000
00010000
00000000
,
00000000
10000000
00000000
10000000
00000000
10000000
01000000
00000000
,
00000000
00100000
00000000
00100000
00000000
00100000
00001000
00000000
,
00000000
00010000
00000000
00010000
00000000
00010000
00000010
00000000
,
00000000
00000100
00000000
00000100
00000000
00000100
00000010
00000000
,
00000000
00001000
00000000
00002000
00000000
00000000
00000001
00000000
,
00003002
00000010
00000010
00000010
,
00000010
00000010
00000010
00000013
,
00000200
00010000
00010000
00010000
,
00010000
00010000
00010000
00010300
,
00001000
00000000
00100000
01000000
00000000
00000000
10000000
00000000
,
01000000
00000000
00100000
00010000
00000000
00000000
00001000
00000000
,
00000010
00000000
00000100
00000001
00000000
00000000
00000010
00000000
,
00000100
00000000
00010000
00010000
00000000
00001000
00001000
00000000
,
01000000
00010000
01000000
00010000
00000000
00100000
00000000
01000000
,
10000000
00000000
01000000
10000000
00000000
01000000
10000000
00000000
,
00100000
01000000
00100000
01000000
00000000
00001000
00000000
00010000
,
00000010
00000000
00010000
00000010
00000000
00010000
00000010
00000000
,
00001000
00000001
00001000
00000001
00000000
00000010
00000000
00000100
,
00010000
00000000
00000100
00010000
00000000
00000100
00010000
00000000
,
00001000
01000000
00001000
01000000
00000000
00100000
00000000
10000000
,
01000000
00000000
10000000
01000000
00000000
10000000
01000000
10000000
,
00020000
00000000
01000000
00000000
01030000
00000000
00100000
10000000
,
00002000
00000000
00010000
00000000
00013000
00000000
00000100
00000010
,
00000002
00000000
00000010
00000000
00000013
00000000
00000100
00010000
,
02001000
00000000
00100000
00000000
03100000
00000000
10000000
01000000
,
00200000
00000000
00001000
00000000
00301000
00000000
00010000
00000010
,
00000200
00000000
00000001
00000000
00000301
00000000
00010000
00001000
,
02000000
00000000
00100000
00000000
03100000
00000000
10000000
01000000
,
00200000
00000000
00001000
00000000
00301000
00000000
00010000
00000010
,
00000110
00000000
00000000
00000000
;

//---------------dance-double - ----------------
#NOTES:
     dance-double:
     :
     Hard:
     10:
     0.471,0.474,0.075,0.188,0.118:
20000000
00100000
00100000
30100000
,
02000000
00001000
00001000
03001000
,
00020000
00000100
00000100
00030100
,
00000020
00000001
00000001
00000031
,
00000200
00000010
00000010
00000310
,
00020000
00000100
00000100
00030100
,
00002000
00010000
00010000
00013000
,
00100000
00000000
00000000
00000000
01100000
00000000
01000000
00000000
00000000
00000000
10100000
00000000
10000000
00000000
00010000
00100000
,
00010000
10000000
01000000
00200000
00000000
00301000
00010000
00000000
,
00000100
00000010
00000001
00000200
00000000
00000310
00010000
00000000
,
00001000
01000000
00100000
00002000
00000000
00103000
01000000
00000000
,
00001000
01000000
00100000
20000000
00000000
31000000
00100000
00000000
,
01000000
10000000
00100000
02000000
00000000
03010000
00001000
00000000
,
00000100
00000010
00000001
00020000
00000000
00030010
00000100
00000000
,
00000001
00000010
00000100
00020000
00000000
00031000
01000000
00000000
,
00100000
00000000
01000000
00100000
01000000
00100000
01000000
00000000
00010000
10000000
00010000
10000000
00010000
00000000
10000000
00010000
,
10000000
01000000
00010000
01000000
10000000
01000000
00100000
00000000
,
00001000
00100000
10000000
00100000
00001000
00010000
00000100
00000000
,
00010000
00000010
00000001
00000010
00010000
00000100
00000010
00000000
,
00000001
00000100
00001000
00000100
00000001
00000010
00000100
00000000
,
00010000
00001000
00100000
10000000
00100000
00001000
01000000
00000000
,
00100000
10000000
01000000
00010000
01000000
10000000
00001000
00000000
,
00020000
00000010
00000000
00000010
00000000
00000010
00030010
00000000
,
00000200
00000001
00000000
00000001
00000000
00000001
00000301
00000000
,
00001000
00000000
00000001
00000010
00000100
00001000
00010000
00100000
,
01000000
01000000
01000000
01000000
,
01000000
00000000
10000000
00100000
01000000
00001000
00010000
00000010
,
00000100
00000100
00000100
00000100
,
00000001
00000000
00000100
00000001
00000100
00000001
00000000
00010000
00000000
00010000
00000000
00010000
00001000
00000000
00100000
00000000
,
00000000
00000000
01000000
10000000
01000000
10000000
00000000
00100000
00000000
00100000
00000000
00100000
01000000
00000000
00001000
00000000
,
00000000
00000000
00010000
00000100
00010000
00000100
00000000
00000010
00000000
00000010
00000000
00000010
00000100
00000000
00010000
00000000
,
00000000
00000000
00001000
00000000
01001000
00000000
01100000
00000000
00000000
00000000
10100000
00000000
10000000
00000000
00010000
00100000
,
00010000
01000000
00100000
02000000
00000000
03001000
10000000
01000000
,
00001000
01000000
10000000
00100000
01000000
00001000
00010000
00000010
,
00000001
00000010
00010000
00000200
00000000
00000310
00000001
00000100
,
00001000
00000100
00000001
00000010
00000100
00010000
00001000
00100000
,
10000000
00100000
00001000
00200000
00000000
01300000
10000000
00100000
,
00010000
00100000
10000000
01000000
00100000
00001000
00010000
00000010
,
00000001
00000010
00010000
00000200
00000000
00000310
00000001
00010000
,
00000010
00000000
00010000
00000000
00011000
00000000
01001000
00000000
00000000
00000000
01100000
00000000
00100000
00000000
10000000
00010000
,
10000000
01000000
00001000
00000100
00000001
00001000
00000001
00000010
,
00000100
00000010
00000001
00010000
00000100
00010000
00000001
00000000
,
00001000
00000100
00000001
00000100
00010000
00001000
00100000
01000000
,
10000000
01000000
00010000
10000000
00100000
10000000
00010000
00000000
,
10000000
01000000
00001000
00000100
00000001
00000010
00000100
00000010
,
00000001
00010000
00000100
00010000
00001000
00100000
01000000
00000000
,
10000000
01000000
00001000
00000100
00000001
00001000
00000010
00010000
,
00001000
00000000
00100000
00000000
10000000
00000000
00100000
00000000
00001000
00000000
10000000
00000000
01000000
10000000
01000000
10000000
,
01000000
00000000
00000000
00000000
;

//---------------dance-single - ----------------
#NOTES:
     dance-single:
     :
     Beginner:
     1:
     0.054,0.090,0.019,0.000,0.000:
1000
0000
0000
0000
,
0000
0000
0000
0000
,
0100
0000
0000
0000
,
0000
0000
0000
0000
,
0010
0000
0000
0000
,
0000
0000
0000
0000
,
0001
0000
0000
0000
,
0000
0000
0000
0000
,
0100
0000
0000
0000
,
0000
0000
0000
0000
,
0010
0000
0000
0000
,
0000
0000
0000
0000
,
1000
0000
0000
0000
,
0000
0000
0000
0000
,
0001
0000
0000
0000
,
0000
0000
0000
0000
,
0010
0000
0000
0000
,
0100
0000
0000
0000
,
1000
0000
0000
0000
,
0001
0000
0000
0000
,
0010
0000
0000
0000
,
0100
0000
0000
0000
,
1000
0000
0000
0000
,
0000
0000
0000
0000
,
0001
0000
0000
0000
,
0000
0000
0000
0000
,
0001
0000
0000
0000
,
0000
0000
0000
0000
,
1000
0000
0000
0000
,
1000
0000
0000
0000
,
0100
0000
0000
0000
,
0010
0000
0000
0000
,
1001
0000
0000
0000
,
0001
0000
0000
0000
,
0100
0000
0000
0000
,
0001
0000
0000
0000
,
1000
0000
0000
0000
,
0100
0000
0000
0000
,
1000
0000
0000
0000
,
0010
0000
0000
0000
,
0100
0000
0000
0000
,
0001
0000
0000
0000
,
0010
0000
0000
0000
,
0100
0000
0000
0000
,
1000
0000
0000
0000
,
0001
0000
0000
0000
,
1000
0000
0000
0000
,
0010
0000
0000
0000
,
0110
0000
0000
0000
;
