#TITLE:Snatcher;
#SUBTITLE:~Dual Vacuum Mix~;
#ARTIST:FinalOffset;
#TITLETRANSLIT:;
#SUBTITLETRANSLIT:~Dual Vacuum Mix~;
#ARTISTTRANSLIT:;
#CREDIT:DigiMindAxel;
#BANNER:Snatcher ~Dual Vacuum Mix~.png;
#BACKGROUND:Snatcher ~Dual Vacuum Mix~-bg.png;
#LYRICSPATH:;
#CDTITLE:beatmania.png;
#MUSIC:Snatcher ~Dual Vacuum Mix~.ogg;
#METERTYPE:DDR X;
#OFFSET:-5.129;
#SAMPLESTART:23.231;
#SAMPLELENGTH:12.000;
#SELECTABLE:YES;
#BPMS:0.000=105.800;
#STOPS:;
#BGCHANGES:;

//---------------dance-single - ----------------
#NOTES:
     dance-single:
     :
     Easy:
     4:
     0.184,0.212,0.084,0.084,0.000:
1001
0000
1000
1001
,
0010
0000
0010
0110
,
1000
0000
1000
1001
,
0010
0000
0010
0000
,
0100
0001
0100
1001
,
0100
1000
0100
1001
,
0010
0001
0010
1001
,
0200
0000
0000
0000
,
0310
0000
0000
0001
,
0100
0000
0000
0001
,
1000
0000
0000
0100
,
0020
0000
0000
0030
,
0001
0100
0001
0000
,
1000
0001
1000
0000
,
0100
1000
0100
0000
,
2000
0000
3002
0000
,
1003
0000
0010
0000
,
0100
0000
0001
0000
,
0100
0010
0100
0010
,
0200
0000
0000
0000
,
0301
1000
0001
0000
,
1000
0001
1000
0000
,
0010
1000
0010
1000
,
0200
0000
0000
0300
,
0010
0100
0010
0100
,
1000
0001
1000
0001
,
0010
0100
0010
0100
,
1000
1000
1000
0000
,
0001
0100
0001
1000
,
0001
0100
0001
1000
,
0100
0010
0100
1000
,
0010
0010
0020
0000
,
0130
0000
0000
0000
;

//---------------dance-single - ----------------
#NOTES:
     dance-single:
     :
     Medium:
     8:
     0.357,0.346,0.192,0.108,0.036:
1000
1000
0000
0001
0001
0000
0110
0000
,
1000
1000
0000
0001
0001
0000
0110
0000
,
1000
1000
0000
0010
0010
0000
1001
0000
,
0200
0000
0000
0010
0000
0000
0310
0000
,
1000
1000
0001
0010
0100
0000
1010
0000
,
0100
0100
0001
0010
0100
0000
1001
0000
,
0001
0001
0010
0100
1000
0000
0101
0000
,
0100
0000
0000
0100
0000
0000
0100
0000
0000
0100
0000
0000
0010
0000
0100
0000
,
0001
0001
0010
0100
1000
0000
0110
0000
,
0010
0002
0000
0100
0000
0103
1001
0000
,
1000
1000
0001
0100
0010
0000
1100
0000
,
1001
0000
0000
1001
0000
0001
0001
0001
,
1000
0100
0010
0000
0001
0010
0100
0000
,
1000
0100
0010
0000
0001
0010
0100
0000
,
1000
0010
0100
0000
0010
0100
0001
0000
,
2000
0000
0000
0001
0000
0000
3001
0000
,
1000
0001
1000
0001
0100
0000
0001
0000
,
1000
0010
0100
0001
0010
0000
0001
0000
,
0020
0230
2300
3002
,
0203
0000
0000
0310
,
1000
0100
0010
0100
1000
0000
0001
0000
,
1000
0010
0100
0001
0010
0000
0100
0000
,
1000
0001
0010
0001
0100
0010
1000
0100
,
0020
0000
0000
0100
0000
0000
0130
0000
,
1001
0001
1000
0100
0010
0001
0101
0000
,
0010
1000
0100
0010
0100
1000
1001
0000
,
0001
0001
0100
0010
1000
0001
0011
0000
,
1000
0000
0000
1000
0000
0000
1000
0000
0000
1000
0000
0000
0010
0000
0100
0000
,
0001
0010
0100
0010
0001
0100
0010
1000
,
0001
0010
0001
1000
0010
0100
0110
0000
,
0100
0010
0001
0010
0100
1000
0010
0100
,
0001
0000
0000
0001
0000
0000
1000
0000
0000
1000
0000
0000
0001
0000
1000
0000
,
0001
0000
0000
0000
;

//---------------dance-single - ----------------
#NOTES:
     dance-single:
     :
     Hard:
     12:
     0.603,0.596,0.301,0.168,0.607:
1000
0010
1000
0010
1000
0000
0001
0010
0001
0010
0001
0000
1001
0000
0000
0000
,
0010
0100
0010
0100
0010
0000
1000
0100
1000
0100
1000
0000
1001
0000
0000
0000
,
0001
0100
0001
0100
0001
0000
0010
0100
0010
0100
0010
0000
1001
0000
0000
0000
,
0101
0100
0000
1010
0010
0000
1001
0000
,
0010
1000
0010
1000
0001
0000
0010
0100
0010
0100
1000
0000
1001
0000
0001
0000
,
0100
0001
0100
0001
1000
0000
0100
0010
0100
0010
0001
0000
1001
0000
1000
0000
,
0100
1000
0100
1000
0010
0000
0100
0001
0100
0001
1000
0000
1001
0000
0001
0000
,
0100
0001
0000
0100
0001
0000
0010
0100
0000
0010
0100
0000
1000
0000
1000
0000
,
0010
1000
0010
0100
0001
0000
0100
0000
1000
0000
0100
0000
0101
0000
0010
0100
,
1000
0002
0000
0100
0000
0103
0110
0010
,
0100
0001
0100
0010
1000
0000
0100
0000
0001
0000
0100
0000
1100
0000
0010
0000
,
0110
0000
0000
0101
0000
1001
1001
1001
,
0100
0010
0100
1000
0001
0000
0200
0000
0000
0301
0010
0100
1000
0000
1000
0000
,
0010
0100
0010
0001
0100
0000
0020
0000
0000
1030
0100
0010
0001
0000
0001
0000
,
1000
0010
1000
0001
0010
0000
0200
0000
0000
1300
0001
0010
0100
0000
0100
0000
,
1020
0000
0000
0200
0000
0330
1001
0000
,
0200
0000
0000
0000
0301
1000
0000
0200
0000
0000
0000
0000
1300
0000
0001
0000
,
0020
0000
0000
0000
0130
1000
0000
0002
0000
0000
0000
0000
0103
0000
0010
0000
,
2000
0000
3020
0000
0032
0000
0013
1000
,
0002
0000
0000
0000
0000
0003
1000
0010
,
0110
0000
0100
0000
0001
1000
0000
0100
1000
0000
0000
0000
0100
0000
0010
0000
,
0001
0000
0100
0000
0001
1000
0000
0100
0010
0000
0000
0000
0001
0000
0100
0000
,
0010
0010
1000
1000
0100
0100
0010
0010
,
0001
0100
0001
0100
0001
0000
1000
0100
1000
0100
1000
0000
1001
0000
0000
0000
,
0100
0010
0100
0010
0001
0100
0001
0100
1000
0100
1000
0100
0001
0000
0001
0000
,
0100
0001
0100
0001
0010
1000
0010
1000
0010
0001
0010
0001
0100
0000
0100
0000
,
0010
1000
0010
1000
0100
0001
0100
0001
0100
1000
0100
1000
0001
0000
0001
0000
,
0010
0001
0000
0010
0001
0000
0010
0100
0000
0010
0100
0000
1000
0000
1000
0000
,
0001
0100
0010
0100
0001
0010
0100
0010
0001
1000
0010
1000
1001
0000
0001
0000
,
0100
0001
0100
0001
0010
0100
0010
0100
1000
0010
1000
0010
0110
0000
0100
0000
,
0001
0010
0100
0010
0001
1000
0010
1000
0100
0010
0001
0100
0101
0000
0001
0000
,
0100
0001
0000
0100
0010
0000
1000
0100
0000
1000
0001
0000
0110
0000
0010
0000
,
0100
0000
0000
0000
;

//---------------dance-double - ----------------
#NOTES:
     dance-double:
     :
     Easy:
     4:
     0.203,0.192,0.084,0.120,0.000:
10010000
00000000
01000000
01100000
,
00100000
00000000
00001000
00011000
,
00010000
00000000
00000100
00000110
,
00000010
00000000
00000010
00000000
,
00000100
00000001
00000100
00000001
,
00000010
00000100
00000010
00000100
,
00010000
00001000
00010000
00001000
,
02000000
00000000
00000000
00000000
,
03100000
10000000
01000000
00011000
,
00010000
00000000
00000000
00011000
,
00001000
00010000
00000010
00000100
,
00000002
00000000
00000000
00000003
,
00000100
00000010
00000100
00000010
,
00010000
00001000
00010000
00001000
,
00100000
01000000
00100000
01000000
,
20000000
00000000
30020000
00000000
,
20030000
00000000
32000000
00000000
,
03200000
00000000
00302000
00000000
,
00013000
00000100
00000010
00000001
,
00000200
00000000
00000000
00000300
,
00000001
00000100
00000001
00000000
,
00010000
00000100
00010000
00000000
,
00001000
00100000
00001000
00100000
,
02000000
00000000
00000000
03000000
,
10000000
01000000
00100000
01000000
,
10000000
00100000
01000000
00100000
,
10000000
01000000
00100000
00001000
,
00010000
00010000
00010000
00000000
,
00000100
00000010
00000001
00000100
,
00000010
00010000
00001000
00100000
,
01000000
00100000
00001000
01000000
,
00100000
00100000
00100000
01100000
,
00010000
00000000
00000000
00000000
;

//---------------dance-double - ----------------
#NOTES:
     dance-double:
     :
     Medium:
     8:
     0.386,0.385,0.228,0.120,0.078:
10000000
10000000
00000000
00100000
00100000
00000000
10010000
00000000
,
01000000
01000000
00000000
00100000
00100000
00000000
00011000
00000000
,
00000010
00000010
00000000
00000100
00000100
00000000
00001001
00000000
,
00000020
00000000
00000000
00000100
00000000
00000000
00000130
00000000
,
00000001
00000001
00000010
00000100
00010000
00000000
00011000
00000000
,
00100000
00100000
01000000
10000000
00010000
00000000
10010000
00000000
,
00100000
00100000
00001000
00010000
00000100
00000000
00000110
00000000
,
00000002
00000000
00000000
00001000
00000000
00000000
00001000
00000000
00000000
00001000
00000000
00000000
00001003
00000000
00000001
00000000
,
00010000
00001000
00010000
00000000
00001000
00000000
00100000
00000000
01000000
00000000
10000000
00000000
10100000
00000000
00000000
00000000
,
01000000
00200000
00000000
00010000
00000000
00310000
00011000
00000000
,
00001000
00010000
00001000
00000000
00010000
00000000
00000010
00000000
00000100
00000000
00000001
00000000
00001001
00000000
00000000
00000000
,
00000110
00000000
00000000
00000110
00000000
00000100
00000100
00000100
,
00000001
00001000
00000001
00000000
00000010
00000000
00000100
00000000
00010000
00000000
00001000
00000000
00100000
00000000
00000000
00000000
,
01000000
10000000
01000000
00000000
10000000
00000000
00100000
00000000
01000000
00000000
00001000
00000000
00010000
00000000
00000000
00000000
,
00000100
00000010
00000100
00000000
00001000
00000000
00000001
00000000
00000010
00000000
00000100
00000000
00000010
00000000
00000000
00000000
,
00000002
00000000
00000000
00001000
00000000
00000000
00001003
00000000
,
00000010
00000000
00000100
00000010
00001000
00000000
00010000
00000000
,
00100000
00000000
01000000
10000000
00010000
00000000
00100000
00000000
,
02000000
00000000
23000000
00000000
32000000
00000000
03100000
00001000
,
00200000
00000000
00000000
00301000
,
00010000
00000010
00000100
00000010
00010000
00000000
00000100
00000000
,
00000010
00000001
00000100
00000010
00001000
00000000
00000100
00000000
,
00010000
00001000
00100000
01000000
10000000
01000000
00100000
00001000
,
00020000
00000000
00000000
00001000
00000000
00000000
00031000
00000000
,
00010001
00000001
00000010
00000100
00001000
00010000
00011000
00001000
,
01000000
00100000
10000000
00100000
01000000
00001000
00011000
00010000
,
00000100
00000010
00000001
00000010
00000100
00010000
00011000
00001000
,
02000000
00000000
00000000
00100000
00000000
00000000
00100000
00000000
00000000
00100000
00000000
00000000
03100000
00000000
01000000
00000000
,
00100000
10000000
00100000
00000000
10000000
00000000
01000000
00000000
00100000
00000000
01000000
00000000
11000000
00000000
10000000
00000000
,
00010000
01000000
00001000
00010000
00000100
00000010
00001001
00000000
,
00000001
00001000
00000001
00000000
00000010
00000000
00000100
00000000
00000010
00000000
00000001
00000000
00000110
00000000
00000100
00000000
,
00000010
00000000
00000000
00010000
00000000
00000000
00001000
00000000
00000000
01000000
00000000
00000000
01100000
00000000
00000000
00000000
,
00100000
00000000
00000000
00000000
;

//---------------dance-double - ----------------
#NOTES:
     dance-double:
     :
     Hard:
     12:
     0.603,0.596,0.301,0.168,0.607:
10000000
01000000
10000000
01000000
10000000
00000000
00001000
01000000
00001000
01000000
00001000
00000000
00011000
00000000
00000000
00000000
,
00010000
00000100
00010000
00000100
00010000
00000000
00000010
00000100
00000010
00000100
00000010
00000000
00001001
00000000
00000000
00000000
,
00000001
00000010
00000001
00000010
00000001
00000000
00000100
00000010
00000100
00000010
00000100
00000000
00001001
00000000
00000000
00000000
,
00000110
00000010
00000000
00011000
00001000
00000000
01100000
00000000
,
10000000
01000000
10000000
01000000
00100000
00000000
00001000
00010000
00001000
00010000
00000010
00000000
00000110
00000000
00000100
00000000
,
00000001
00000010
00000001
00000010
00000100
00000000
00010000
00001000
00010000
00001000
00100000
00000000
01100000
00000000
01000000
00000000
,
10000000
00100000
10000000
00100000
01000000
00000000
00001000
00100000
00001000
00100000
00010000
00000000
00010010
00000000
00000010
00000000
,
00000100
00000001
00000000
00000100
00000001
00000000
00000010
00000100
00000000
00000010
00000100
00000000
00010000
00000000
00010000
00000000
,
00001000
01000000
00100000
01000000
00001000
00000000
00100000
00000000
01000000
00000000
10000000
00000000
01100000
00000000
00001000
00010000
,
00000010
00000200
00000000
00000001
00000000
00000301
00001001
00001000
,
00000100
00000010
00000001
00000010
00000100
00000000
00010000
00000000
00001000
00000000
01000000
00000000
01100000
00000000
10000000
00000000
,
10010000
00000000
00000000
01001000
00000000
00011000
00011000
00011000
,
00010000
00000010
00000100
00000010
00010000
00000000
00000002
00000000
00000000
00000013
00000100
00001000
00010000
00000000
01000000
00000000
,
00100000
10000000
01000000
00100000
01000000
00000000
20000000
00000000
00000000
31000000
00100000
00001000
00010000
00000000
00000100
00000000
,
00000010
00000001
00000100
00000001
00000010
00000000
00000200
00000000
00000000
00001300
00000010
00010000
00001000
00000000
00100000
00000000
,
21000000
00000000
00000000
00020000
00000000
30030000
01100000
00000000
,
20000000
00000000
00000000
00000000
30100000
01000000
00000000
02000000
00000000
00000000
00000000
00000000
03010000
00000000
00001000
00000000
,
00000020
00000000
00000000
00000000
00000130
00000001
00000000
00000002
00000000
00000000
00000000
00000000
00001003
00000000
00000001
00000000
,
00002000
00000000
00003200
00000000
00000302
00000000
00000103
00001000
,
00020000
00000000
00000000
00000000
00000000
00030000
01000000
00100000
,
01100000
00000000
01000000
00000000
00010000
10000000
00000000
01000000
10000000
00000000
00000000
00000000
01000000
00000000
00100000
00000000
,
00001000
00000000
00010000
00000000
00000100
00000010
00000000
00000001
00000010
00000000
00000000
00000000
00000100
00000000
00000010
00000000
,
00000001
00000001
00000100
00000100
00010000
00010000
01000000
01000000
,
10000000
00010000
10000000
00010000
10000000
00000000
01000000
00010000
01000000
00010000
01000000
00000000
10010000
00000000
00000000
00000000
,
00010000
10000000
00010000
10000000
01000000
00100000
01000000
00100000
00001000
00010000
00001000
00010000
00000100
00000000
00000100
00000000
,
00000010
00000001
00000010
00000001
00010000
00000010
00010000
00000010
00001000
00010000
00001000
00010000
00100000
00000000
00100000
00000000
,
10000000
01000000
10000000
01000000
00100000
00001000
00100000
00001000
00010000
00000010
00010000
00000010
00000100
00000000
00000100
00000000
,
00000001
00000010
00000000
00000001
00000010
00000000
00000100
00010000
00000000
00000100
00010000
00000000
00001000
00000000
00001000
00000000
,
00100000
01000000
10000000
01000000
00100000
00001000
00010000
00001000
00100000
01000000
10000000
01000000
01100000
00000000
00100000
00000000
,
00001000
00010000
00000010
00010000
00001000
00010000
00000010
00010000
00000100
00000010
00000001
00000100
00000110
00000000
00000010
00000000
,
00001000
00000001
00000010
00000100
00000010
00000001
00010000
00000100
00010000
00001000
00100000
01000000
01100000
00000000
00100000
00000000
,
10000000
00100000
00000000
01000000
00001000
00000000
00010000
00000100
00000000
00000010
00000100
00000000
00000011
00000000
00000001
00000000
,
00010000
00000000
00000000
00000000
;

//---------------dance-single - ----------------
#NOTES:
     dance-single:
     :
     Beginner:
     1:
     0.081,0.115,0.060,0.000,0.000: // measure 1
1000
0000
0000
0000
,  // measure 2
0001
0000
0000
0000
,  // measure 3
1000
0000
0000
0000
,  // measure 4
0001
0000
0000
0000
,  // measure 5
0010
0000
0000
0000
,  // measure 6
0100
0000
0000
0000
,  // measure 7
0010
0000
0000
0000
,  // measure 8
0100
0000
0000
0000
,  // measure 9
1001
0000
0000
0000
,  // measure 10
0001
0000
0000
0000
,  // measure 11
1001
0000
0000
0000
,  // measure 12
0100
0000
0000
0000
,  // measure 13
0110
0000
0010
0000
,  // measure 14
0010
0000
0100
0000
,  // measure 15
0100
0000
0001
0000
,  // measure 16
0001
0000
0000
0000
,  // measure 17
1000
0000
0000
0000
,  // measure 18
0100
0000
0000
0000
,  // measure 19
0010
0000
0000
0000
,  // measure 20
0001
0000
0000
0000
,  // measure 21
1001
0000
0000
0000
,  // measure 22
0001
0000
0000
0000
,  // measure 23
0100
0000
0000
0000
,  // measure 24
0110
0000
0000
0000
,  // measure 25
0010
0000
1000
0000
,  // measure 26
0010
0000
1000
0000
,  // measure 27
0010
0000
1000
0000
,  // measure 28
0001
0000
0000
0000
,  // measure 29
0010
0000
0001
0000
,  // measure 30
0010
0000
0001
0000
,  // measure 31
0100
0000
0010
0000
,  // measure 32
0100
0000
0000
0000
,  // measure 33
0001
0000
0000
0000
;
