#TITLE:Snakeman mix;
#SUBTITLE:;
#ARTIST:Shinji Hosoe;
#TITLETRANSLIT:;
#SUBTITLETRANSLIT:;
#ARTISTTRANSLIT:;
#CREDIT:DigiMindAxel;
#BANNER:Snakeman mix.png;
#BACKGROUND:Snakeman mix-bg.png;
#LYRICSPATH:;
#CDTITLE:DigiMindAxel original simfile.png;
#MUSIC:Snakeman mix.ogg;
#METERTYPE:DDR X;
#OFFSET:-6.205;
#SAMPLESTART:23.154;
#SAMPLELENGTH:12.000;
#SELECTABLE:YES;
#DISPLAYBPM:170.000;
#BPMS:0.000=170.000,40.000=85.000,42.000=170.000;
#STOPS:184.000=0.353
;
#BGCHANGES:;

//---------------dance-single - ----------------
#NOTES:
     dance-single:
     :
     Easy:
     6:
     0.281,0.285,0.100,0.240,0.000: // measure 1
1000
0001
1000
0000
,  // measure 2
0100
1000
0100
0000
,  // measure 3
1000
0001
1000
0000
,  // measure 4
0000
0002
0000
0000
0000
0000
0000
0000
,  // measure 5
1003
0001
1000
0000
,  // measure 6
0010
0100
0010
0000
,  // measure 7
0100
0001
0100
0000
,  // measure 8
0000
0002
0000
0000
0000
0000
0000
0000
,  // measure 9
2003
0000
3002
0000
,  // measure 10
2000
0000
0000
0000
,  // measure 11
3003
0000
0002
0000
,  // measure 12
0000
0003
1001
0001
,  // measure 13
0000
0010
0200
0000
,  // measure 14
1300
0000
0001
0100
,  // measure 15
0001
0000
0010
0100
,  // measure 16
1000
0000
0001
1000
,  // measure 17
0000
0010
0200
0000
,  // measure 18
0301
0000
1000
0100
,  // measure 19
0010
0000
0100
1000
,  // measure 20
0001
0000
1001
0000
,  // measure 21
0000
0000
0000
0000
,  // measure 22
0000
0000
1001
0000
,  // measure 23
0000
0000
0000
0000
,  // measure 24
0001
0001
1001
1000
,  // measure 25
0010
1000
0001
1000
,  // measure 26
0001
0000
0100
0001
,  // measure 27
1000
0100
0020
0000
,  // measure 28
0000
0000
0031
0001
,  // measure 29
1000
0100
0020
0000
,  // measure 30
0032
0000
1003
1000
,  // measure 31
0001
0010
0200
0000
,  // measure 32
2300
0000
3010
0010
,  // measure 33
0100
0001
2002
0000
,  // measure 34
0000
3003
0001
1000
,  // measure 35
0001
0100
0020
0000
,  // measure 36
0230
0000
0301
0010
,  // measure 37
0100
1000
0001
0001
,  // measure 38
0001
0001
1000
1000
,  // measure 39
1000
1000
0001
0001
,  // measure 40
0001
0000
0001
0000
0000
0200
0000
0000
,  // measure 41
0000
0000
0310
0010
,  // measure 42
0010
0010
0100
0100
,  // measure 43
0100
0100
0010
0010
,  // measure 44
0010
0000
0010
0000
0000
0200
0000
0000
,  // measure 45
0000
0000
0302
0000
,  // measure 46
2003
0000
0002
0000
,  // measure 47
3003
1000
0100
0010
,  // measure 48
0000
0001
0010
0100
,  // measure 49
0000
0010
0001
0100
,  // measure 50
0000
0010
1000
0100
,  // measure 51
0000
0010
0001
1000
,  // measure 52
0000
0100
1000
0001
,  // measure 53
0000
0010
0100
1000
,  // measure 54
0000
0100
0010
0001
,  // measure 55
0000
1001
0000
0000
,  // measure 56
0000
0100
0100
0100
,  // measure 57
0100
1001
0000
0000
,  // measure 58
0000
0010
0010
0010
,  // measure 59
0010
1001
0000
0000
,  // measure 60
0000
0100
0100
0100
,  // measure 61
0100
1001
0000
0000
,  // measure 62
0000
0010
0010
0010
,  // measure 63
0010
0220
0000
0000
,  // measure 64
0000
0330
0000
0000
;

//---------------dance-single - ----------------
#NOTES:
     dance-single:
     :
     Hard:
     13:
     0.653,0.664,0.270,0.310,0.265: // measure 1
0001
1000
0000
1000
0001
0000
0100
0001
,  // measure 2
0000
1000
0000
1000
0001
0000
0100
0001
,  // measure 3
0000
1000
0000
1000
0001
0000
0100
0001
,  // measure 4
0000
1000
0000
1000
0000
1000
0000
1000
,  // measure 5
0000
1000
0100
0010
0100
0000
1000
0001
,  // measure 6
0000
1000
0100
0010
0100
0000
1000
0001
,  // measure 7
0000
1000
0100
0010
0100
0000
1000
0001
,  // measure 8
0000
0100
0000
0100
0000
0100
0000
0100
,  // measure 9
0001
0001
1000
1000
0001
0001
1000
1000
,  // measure 10
0001
1000
0001
1000
0001
1000
0001
1000
0002
0000
0000
0000
0000
0000
0003
0000
,  // measure 11
1001
0000
0100
0100
,  // measure 12
0100
0000
0000
0000
0100
0000
0000
0000
1001
0000
0000
0001
0100
0000
0001
0000
,  // measure 13
0000
0010
0100
1000
0002
0010
0000
0203
,  // measure 14
0010
0000
0000
0000
0310
0000
0000
0000
1000
0000
0000
0010
0100
0000
0010
0000
,  // measure 15
0000
0000
1000
0000
0001
0000
0010
0000
0100
0000
0000
1000
0010
0000
1000
0000
,  // measure 16
0000
0000
0100
0000
0010
0000
0001
0000
0100
0000
0000
0001
1000
0000
0001
0000
,  // measure 17
0000
0100
0010
1000
0200
0010
0000
0320
,  // measure 18
0001
0000
0000
0000
0031
0000
0000
0000
1000
0000
0000
0001
0100
0000
0001
0000
,  // measure 19
0000
0000
0010
0000
0100
0000
1000
0000
0010
0000
0000
0100
0001
0000
1000
0000
,  // measure 20
0000
0000
0100
0000
0010
0000
0001
0000
1000
0000
1000
0000
0001
0100
0000
0001
,  // measure 21
0000
0200
0000
0000
0300
0000
0001
1000
0001
0000
1000
0000
0100
1000
0000
0100
,  // measure 22
0000
2000
0000
0000
3000
0000
1001
0000
0001
0000
1000
0000
0001
0100
0000
0001
,  // measure 23
0000
0200
0000
0000
0310
0000
1000
0000
0100
0000
0010
0000
0001
1000
0000
0002
,  // measure 24
0000
0000
0000
0000
0000
0000
0003
0000
1000
0000
0001
0000
1000
0010
0000
2000
,  // measure 25
0000
0000
0000
0000
3100
0000
0010
0000
0001
0000
1000
0000
0001
0100
0000
0001
,  // measure 26
0000
2000
0000
0000
3100
0000
0010
0000
0001
0000
1000
0000
0010
0100
0000
0010
,  // measure 27
0000
2000
0000
0000
3001
0000
0100
0000
0001
0000
1000
0000
0001
0010
0000
0001
,  // measure 28
0000
0000
0000
0000
1000
0001
1000
0001
1000
0000
0000
0001
1000
0000
0001
0000
,  // measure 29
1000
0000
0100
0000
0001
0000
0100
0000
1000
0000
0000
0010
1000
0000
0001
0000
,  // measure 30
0010
0000
0100
0000
0110
0000
0000
0000
0001
0000
0000
1000
0001
0000
1000
0000
,  // measure 31
0001
0100
1000
0100
0002
1000
1003
0001
,  // measure 32
0100
0000
0010
0000
0110
0000
0000
0000
1001
0000
0000
1000
0001
0000
1000
0000
,  // measure 33
0001
0000
0010
0000
0100
0000
1000
0000
1010
0000
0000
0000
1010
0000
0000
1001
,  // measure 34
0000
0000
0000
0000
1000
0001
1000
0001
1000
0000
0000
0001
1000
0000
0001
0000
,  // measure 35
1000
0010
0001
0010
2000
0001
3001
0010
,  // measure 36
0200
0000
1000
0000
1300
0001
1000
0001
1000
0000
0000
0001
0100
0000
0000
0100
,  // measure 37
0010
0000
0000
0010
1000
0000
0000
0000
0001
0000
0020
0000
0000
0000
0100
0000
,  // measure 38
0100
0000
0001
0031
0000
0200
0000
0001
,  // measure 39
0001
0000
0010
0310
0000
2000
0000
0001
,  // measure 40
0001
0000
0100
3100
0000
1100
0000
1100
,  // measure 41
0000
1001
0000
1001
0000
0200
0000
0001
,  // measure 42
0001
0000
0010
0310
0000
2000
0000
0100
,  // measure 43
0100
0000
0010
3010
0000
0200
0000
0001
,  // measure 44
0001
0000
0010
0310
0000
1010
0000
1010
,  // measure 45
0000
1001
0000
1001
1000
1000
0001
0001
,  // measure 46
1000
0000
1000
0000
0001
0000
0001
0000
1000
0001
1000
0001
1000
0001
1000
0001
,  // measure 47
1000
0000
0000
0000
0001
0000
1000
0100
0010
0000
0100
0000
1000
0000
0010
0000
,  // measure 48
0000
0010
1000
0010
0001
0010
1000
0010
,  // measure 49
0000
0100
0001
0100
1000
0100
0001
0100
,  // measure 50
0000
0100
0000
1001
0000
1001
0000
1001
,  // measure 51
0000
0000
1001
0000
1000
0000
0001
0100
0010
0000
0100
0000
0001
0000
0010
0000
,  // measure 52
0000
0010
0001
0010
1000
0010
0001
0010
,  // measure 53
0000
0100
1000
0100
0001
0100
1000
0100
,  // measure 54
0000
0100
0000
1001
0000
1001
0000
1001
,  // measure 55
0000
1001
0210
0000
0001
0002
0000
0000
,  // measure 56
0303
0000
1000
1000
0100
0100
0010
0010
,  // measure 57
0001
0001
2000
0000
0100
0200
0000
0000
,  // measure 58
3300
0000
1000
1000
0010
0010
0100
0100
,  // measure 59
0001
0001
0200
0000
0010
0020
0000
0000
,  // measure 60
0330
0000
1000
1000
0001
0001
0010
0010
,  // measure 61
0100
0100
2000
0000
0010
0020
0000
0000
,  // measure 62
3030
0000
1000
1000
0001
0001
0100
0100
,  // measure 63
0010
0010
2002
0000
0000
0000
0000
0000
,  // measure 64
0000
3003
0000
0000
;

//---------------dance-single - ----------------
#NOTES:
     dance-single:
     :
     Medium:
     8:
     0.451,0.506,0.320,0.230,0.005: // measure 1
1000
0010
0100
0010
,  // measure 2
1000
0001
0010
0100
,  // measure 3
0010
0001
0010
0100
,  // measure 4
1000
0001
0000
0001
0000
0001
0000
0001
,  // measure 5
1000
0001
0100
0001
,  // measure 6
1000
0100
0010
0100
,  // measure 7
1000
0100
0010
0001
,  // measure 8
1000
0001
0000
0001
0000
0001
0000
0001
,  // measure 9
0100
0100
0100
0100
,  // measure 10
0220
0000
0000
0000
,  // measure 11
0330
0000
1000
1000
,  // measure 12
1000
0000
1000
0000
1001
0000
0001
0100
,  // measure 13
0000
0001
1000
0100
2000
0000
0000
0002
,  // measure 14
0000
0000
3003
0000
0001
0000
0100
0010
,  // measure 15
0000
0100
0001
0000
0010
0000
0100
1000
,  // measure 16
0000
0001
0100
0000
0001
0000
1000
0001
,  // measure 17
0000
1000
0001
0100
0002
0000
0000
2000
,  // measure 18
0000
0000
3003
0000
1000
0000
0100
1000
,  // measure 19
0000
0010
0100
0000
0001
0000
0010
0001
,  // measure 20
0000
0100
0010
0000
2001
0000
0000
0000
,  // measure 21
0000
3000
0002
0000
,  // measure 22
0000
0000
0003
0010
0200
0000
0000
0000
,  // measure 23
0000
0300
2000
0000
,  // measure 24
0001
0000
3001
0000
1001
0000
1000
0010
,  // measure 25
1000
0000
0100
0000
0010
0001
1000
0000
,  // measure 26
0010
0100
0010
0000
0100
0000
0001
0010
,  // measure 27
0100
0000
1000
0000
0001
0001
0100
0000
,  // measure 28
0000
0000
0110
1001
,  // measure 29
0100
0010
0001
0010
0200
0000
1300
0000
,  // measure 30
0020
0001
0031
0000
0110
0000
1001
0000
,  // measure 31
1000
0010
0100
0010
2000
0000
3001
0000
,  // measure 32
0200
0001
0301
0000
0110
0000
1001
0000
,  // measure 33
0010
0000
0100
0000
1000
0000
0100
0000
0010
0000
0000
0000
0010
0000
0000
0020
,  // measure 34
0000
0000
0000
0000
0031
1000
0100
0000
,  // measure 35
0010
0001
0010
0001
0100
0100
0100
0000
,  // measure 36
0010
0010
0010
0000
1001
0000
1001
0000
,  // measure 37
0110
0000
0110
0000
0000
0010
0000
0010
,  // measure 38
0001
0000
0010
0001
0000
0100
0000
0100
,  // measure 39
0010
0000
0100
0010
0000
1000
0000
1000
,  // measure 40
0100
0000
1000
0100
0000
0010
0000
0010
,  // measure 41
0000
0010
0000
0010
0000
0001
0000
0001
,  // measure 42
0100
0000
0001
0100
0000
0010
0000
0010
,  // measure 43
1000
0000
0010
1000
0000
0100
0000
0100
,  // measure 44
0010
0000
0100
0010
0000
0001
0000
0001
,  // measure 45
0000
0001
0000
0001
0100
0000
0100
0000
,  // measure 46
0100
0100
0220
0000
,  // measure 47
0330
0000
0001
0000
0010
0100
1000
0001
,  // measure 48
0000
0100
0000
0001
0000
0100
0000
1000
,  // measure 49
0000
0100
0000
1000
0000
0100
0000
0001
,  // measure 50
0000
1000
0000
0001
0000
0001
0000
0001
,  // measure 51
0000
0001
1000
0000
0100
0010
0001
1000
,  // measure 52
0000
0010
0000
1000
0000
0010
0000
0001
,  // measure 53
0000
0010
0000
0001
0000
0010
0000
1000
,  // measure 54
0000
0001
0000
1000
0000
1000
0000
1000
,  // measure 55
0000
1000
0020
0000
0100
0130
0000
0000
,  // measure 56
0000
0101
0101
0101
,  // measure 57
0101
0000
0200
0000
0010
0310
0000
0000
,  // measure 58
0000
1100
1100
1100
,  // measure 59
1100
0000
2000
0000
0001
3001
0000
0000
,  // measure 60
0000
0110
0110
0110
,  // measure 61
0110
0000
0200
0000
0001
0301
0000
0000
,  // measure 62
0000
1001
1001
1001
,  // measure 63
1001
0220
0000
0000
,  // measure 64
0000
0330
0000
0000
;

//---------------dance-single - ----------------
#NOTES:
     dance-single:
     :
     Beginner:
     2:
     0.107,0.187,0.140,0.000,0.000:
1000
0000
0000
0000
,
1000
0000
0000
0000
,
0100
0000
0000
0000
,
0100
0000
0000
0000
,
1000
0000
0000
0000
,
1000
0000
0000
0000
,
0010
0000
0000
0000
,
0010
0000
0000
0000
,
0110
0000
0000
0000
,
0110
0000
0000
0000
,
1001
0000
0000
0000
,
0000
0000
1001
0000
,
0000
0000
0001
0000
,
0000
0000
0100
0000
,
0000
0000
0001
0000
,
0000
0000
1000
0000
,
0000
0000
0001
0000
,
0000
0000
1000
0000
,
0000
0000
0100
0000
,
0000
0000
1001
0000
,
0000
0000
0000
0000
,
0000
0000
1001
0000
,
0000
0000
0000
0000
,
0000
0000
0010
0000
,
0000
0000
0100
0000
,
0000
0000
0010
0000
,
0000
0000
0100
0000
,
0000
0000
0001
0000
,
0000
0000
0100
0000
,
0000
0000
0001
0000
,
0000
0000
1000
0000
,
0000
0000
0100
0000
,
0000
0000
0010
0000
,
0000
0000
1001
0000
,
0000
0000
1000
0000
,
0000
0000
0100
0000
,
0000
0000
1000
0000
,
0000
0000
0010
0000
,
0000
0000
0100
0000
,
0000
0000
0001
0000
,
0000
0000
1000
0000
,
0000
0000
0010
0000
,
0000
0000
0100
0000
,
0000
0000
0001
0000
,
0000
0000
1001
0000
,
0000
0000
1001
0000
,
0000
0001
0000
0000
,
0000
0010
0000
0000
,
0000
0100
0000
0000
,
0000
1000
0000
0000
,
0000
0001
0000
0000
,
0000
0010
0000
0000
,
0000
0100
0000
0000
,
0000
1000
0000
0000
,
0000
1001
0000
0000
,
0000
0010
0000
0000
,
0000
0110
0000
0000
,
0000
0100
0000
0000
,
0000
0110
0000
0000
,
0000
1000
0000
0000
,
0000
1001
0000
0000
,
0000
0001
0000
0000
,
0000
1001
0000
0000
;
