#TITLE:SigSig;
#SUBTITLE:(DJ YOSHITAKA風アレンジ);
#ARTIST:sky_delta;
#TITLETRANSLIT:;
#SUBTITLETRANSLIT:(DJ YOSHITAKA-FUU ARRANGE);
#ARTISTTRANSLIT:;
#CREDIT:DigiMindAxel;
#BANNER:SigSig (DJ YOSHITAKA-FUU ARRANGE).png;
#BACKGROUND:SigSig (DJ YOSHITAKA-FUU ARRANGE)-bg.png;
#LYRICSPATH:;
#CDTITLE:BEMANI game remix.png;
#MUSIC:SigSig (DJ YOSHITAKA-FUU ARRANGE).ogg;
#METERTYPE:DDR X;
#OFFSET:-11.720;
#SAMPLESTART:11.720;
#SAMPLELENGTH:12.000;
#SELECTABLE:YES;
#BPMS:0.000=189.000,64.000=94.500,80.000=189.000;
#STOPS:;
#BGCHANGES:;

//---------------dance-single - ----------------
#NOTES:
     dance-single:
     :
     Easy:
     6:
     0.287,0.292,0.130,0.093,0.000:
1000
0000
0001
0000
1000
0000
0000
0002
,
0000
0100
0000
0103
0000
0000
0000
0000
,
0001
0000
1000
0000
0001
0000
0000
2000
,
0000
0100
0000
3100
0000
0000
0000
0000
,
1000
0010
1000
0000
,
0001
0010
0100
1000
,
1001
0001
0100
0001
,
1000
0100
0010
0000
,
0001
0000
0001
0000
0001
0000
0000
1001
,
0000
1000
0000
1000
0000
1000
0000
0000
,
0010
0100
0010
1000
,
0100
0010
0001
0000
,
1000
0001
1000
0001
,
1000
0100
0010
0000
,
0001
0100
0001
0100
,
0010
0010
0010
0000
,
0110
0000
0100
0000
,
0010
0000
0100
0000
,
0010
0000
0100
0000
,
0010
0000
0100
0000
,
1001
0000
0001
0000
,
1000
0000
1000
0000
,
0001
0000
0001
0000
,
1000
0000
1000
0000
,
0100
0000
0100
0000
,
0010
0000
0010
0000
,
0001
0000
0001
0000
,
0100
0000
0100
0000
,
0110
0000
0010
0000
,
0100
0010
0100
0000
,
1001
0000
0001
0000
,
1000
0001
1000
0000
,
0110
0000
0100
0000
,
0010
0000
0100
0000
,
0010
1000
0010
1000
,
0001
0000
0000
0000
,
1001
0000
0100
0000
0010
0000
0000
0002
,
0000
1000
0000
1003
0000
0000
0000
0000
,
0001
0000
0010
0000
0100
0000
0000
2000
,
0000
0001
0000
3001
0000
0000
0000
0000
,
1000
0000
0010
0000
0100
0000
0000
0001
,
0000
0001
0000
0001
0000
1000
0000
0000
,
1001
0010
0100
1000
,
0010
0000
0000
0110
0000
0000
0000
0000
,
0100
0000
0001
0000
1000
0000
0000
0001
,
0000
0001
0000
1001
0000
0000
0000
0000
,
0010
0000
0100
0000
1000
0000
0000
0010
,
0000
0010
0000
0110
0000
0000
0000
0000
,
1000
0000
0100
0000
0010
0000
0000
0001
,
0000
0001
0000
1000
0000
1000
0000
0000
,
0001
0100
0010
0100
,
0001
0000
0000
1001
0000
0000
0000
0000
,
0100
0001
0100
0001
,
1000
0000
0000
0000
,
0010
0100
0010
0100
,
0001
0010
0100
0000
,
1000
0100
1000
0001
,
1000
0001
1000
0000
,
0010
0100
0001
0100
,
0010
0010
0010
0000
,
0200
0000
0000
0000
,
0320
0000
0000
0000
,
0230
0000
0000
0000
,
0320
0000
0000
0000
,
1030
0001
1000
0001
,
1000
0100
1000
0100
,
1000
0001
0010
0100
,
1000
1000
1000
0000
,
2002
0000
0000
0000
,
0000
0000
0000
0000
,
3003
0000
0000
0000
;

//---------------dance-single - ----------------
#NOTES:
     dance-single:
     :
     Medium:
     10:
     0.459,0.583,0.259,0.231,0.000:
0001
0000
0010
0100
1000
0010
0000
0100
,
0000
0100
0000
0110
0000
0000
0000
0000
,
1000
0000
0001
0100
0010
0100
0000
0001
,
0000
0001
0000
1001
0000
0000
0000
0000
,
0001
0000
1000
0100
0010
0001
0000
0100
,
0000
0100
0000
0001
0000
0001
0000
1000
,
0001
0000
1000
0100
1000
0100
0010
0000
,
0001
0100
0000
0020
0000
0000
0000
0000
,
1030
0100
1000
0000
0100
0010
0001
0100
,
0000
0110
0000
0100
0000
0110
0000
0000
,
0010
0001
0010
0000
0001
0010
0100
1000
,
0000
1000
0000
0001
0000
0001
0000
0000
,
0200
0000
0301
1000
0001
0000
1000
0001
,
1000
0010
0000
0010
0000
0100
0000
0000
,
1001
0000
0001
0000
0010
0100
1000
0000
,
1010
0110
1010
0000
,
1002
2003
3002
2003
,
3200
0320
0230
0320
,
0032
2003
3002
2003
,
3200
2300
3020
0230
,
0301
0001
1000
1000
,
0001
0001
1000
1000
,
0001
0001
1000
1000
,
0100
0100
1000
1000
,
0010
0010
0100
0100
,
0001
0001
0100
0100
,
0010
0010
1000
1000
,
0001
0010
0100
0000
,
1000
0010
0001
0010
,
1000
0100
0010
0001
,
1000
0100
0010
0001
,
0010
1000
0010
0001
,
1000
0001
1000
0000
0001
0100
0001
0000
,
1000
0100
1000
0000
0001
1000
0001
0000
,
1000
0100
1000
0100
0010
0001
0100
0001
,
0010
0010
0010
0000
,
1001
0000
0001
1000
0010
0100
0000
0001
,
0000
0001
0000
0101
0000
0000
0000
0000
,
0100
0000
0010
0001
1000
0100
0000
0010
,
0000
0010
0000
0110
0000
0000
0000
0000
,
0100
0000
1000
0001
0100
0001
0000
1000
,
0000
1000
0000
0001
0000
0001
0000
0100
,
0010
0000
1000
0100
0010
0001
1000
0000
,
0001
0100
0000
0101
0000
0000
0000
0000
,
1001
0000
1000
0010
0100
0001
0000
1000
,
0000
1000
0000
1100
0000
0000
0000
0000
,
1001
0000
0001
0100
0010
1000
0000
0100
,
0000
0100
0000
0110
0000
0000
0000
0000
,
0011
0000
0001
1000
0010
0100
0000
0010
,
0000
0010
0000
0100
0000
0100
0000
0001
,
1000
0000
0100
1000
0010
0100
0010
0000
,
1000
0001
0000
1001
0000
0000
0000
0000
,
0010
0001
0010
0000
0100
0010
0100
1000
,
0000
1000
0000
0001
0000
1001
0000
0000
,
1000
0000
0001
0100
0010
1000
0100
2000
,
0000
0001
0001
3001
,
1000
0000
0100
1000
0100
0000
0010
0100
,
0010
0001
0000
0001
0000
1000
0000
0000
,
1001
0000
0100
0000
0010
0001
1000
0000
,
1010
0110
1010
0000
,
2000
0000
0000
0000
,
3200
0000
0000
0000
,
0320
0000
0000
0000
,
0032
0000
0000
0000
,
1003
0010
1000
0000
0100
0010
0100
0000
,
0110
0000
0010
0000
0001
0100
0001
0000
,
1000
0001
1000
0001
1000
0100
1000
0100
,
0010
0101
0110
0000
,
2002
0000
0000
0000
,
0000
0000
0000
0000
,
3003
0000
0000
0000
;

//---------------dance-single - ----------------
#NOTES:
     dance-single:
     :
     Hard:
     13:
     0.657,0.777,0.546,0.250,0.167:
1000
0000
1000
0001
0010
0100
0000
1100
,
0000
1100
0000
1002
0000
0100
0103
0000
,
0001
0000
0001
1000
0100
0010
0000
0101
,
0000
0101
0000
2001
0000
0100
3100
0000
,
0010
0000
0010
0001
1000
0010
0000
0100
,
0001
0010
0100
0010
0100
1000
0000
0001
,
1001
0000
0000
0000
1000
0000
0010
0000
0100
0000
0010
1000
0010
0000
0100
0000
,
0001
0010
0000
0120
0000
0000
0000
0000
,
0130
0000
0100
0000
0100
0000
1000
0000
0010
0000
0010
0000
0010
0100
0001
0000
,
0000
0101
0000
0110
0000
0101
0000
0001
,
1000
0000
0100
0000
0010
0000
0100
0000
1000
0000
0001
0100
0001
0000
2000
0000
,
0000
0010
0000
0010
0000
3010
0000
1000
,
0001
0010
0100
2000
0000
3001
0100
0001
,
1000
0100
0000
1100
0000
1000
0001
0100
,
0110
0000
1010
0000
1001
0001
0100
0001
,
0101
1001
2200
3300
,
1001
0001
1000
1000
0010
0100
0001
0100
,
0001
1000
0001
0001
0010
0100
1000
0010
,
0100
0001
1000
1000
0100
0010
0001
1000
,
0001
0100
0001
0001
0010
0100
1000
0001
,
0100
0000
0001
0000
0000
0001
0000
0000
0001
0000
0000
0100
0000
0000
0010
0000
,
0000
0000
1000
0000
0000
1000
0000
0000
1000
0000
0000
0010
0000
0000
0100
0000
,
0000
0000
0001
0000
0000
0001
0000
0000
0001
0000
0000
0010
0000
0000
0100
0000
,
0000
0000
0010
0000
0000
0010
0000
0000
0010
0000
0000
0001
0000
0000
0100
0000
,
0000
0000
0010
0000
0000
0010
0000
0000
0010
0000
0000
1000
0000
0000
0100
0000
,
0000
0000
1000
0000
0000
1000
0000
0000
1000
0000
0000
0001
0000
0000
0100
0000
,
0000
0000
0001
0000
0000
0001
0000
0000
0001
0000
0000
0010
0000
0000
0100
0000
,
2000
3020
0200
0330
,
1001
0000
0001
0100
0010
1000
0100
0000
,
0100
0000
0010
0001
1000
0100
0110
0000
,
0101
0000
0001
1000
0100
0010
0001
0000
,
0001
0000
0100
0010
1000
0001
1001
0000
,
0100
1000
0100
1000
0010
0001
0010
0000
,
1000
0000
0000
1000
0000
0000
0010
0000
0100
0000
0000
0100
0000
0000
0001
0000
,
1000
0000
0100
1000
0100
0000
1000
0001
1000
0000
0001
0100
0001
0000
0010
0000
,
0200
2300
0002
3003
,
1001
0000
0010
0100
1000
0001
0000
0101
,
0000
0000
0110
0000
0000
0000
0102
0000
0000
0000
1003
0001
1000
0000
0000
0000
,
0110
0000
0100
1000
0010
0100
0000
0110
,
0000
0000
1001
0000
0000
0000
0210
0000
0000
0000
0301
0100
0001
0000
0000
0000
,
0110
0000
0100
0001
0010
0100
0000
1000
,
0010
0100
0010
1000
0001
0010
0000
0001
,
1001
0000
0000
0000
1000
0000
0010
0000
0100
0000
0001
0100
0001
0000
1000
0000
,
0100
0020
0000
0002
0000
0000
0033
0000
,
1001
0000
1000
0001
0010
0100
0000
1100
,
0000
0000
1001
0000
0000
0000
2100
0000
0000
0000
3010
0100
0010
0000
0000
0000
,
1001
0000
0001
0100
1000
0100
0000
0101
,
0000
0000
1001
0000
0000
0000
0102
0000
0000
0000
1003
0100
1000
0000
0000
0000
,
1010
0000
0010
0100
1000
0001
0000
0100
,
0001
0010
0100
1000
0001
0100
0000
0010
,
0110
0000
0000
0000
0100
0000
0001
0000
1000
0000
0100
1000
0100
0000
0010
0000
,
0001
0200
0000
0002
0000
0000
0303
0000
,
0100
0000
0100
0000
0100
0000
0001
0000
0010
0000
0010
0000
0010
0100
1000
0000
,
0000
1100
0000
0110
0000
2100
0000
3001
,
0100
0000
1000
0000
0100
0000
0001
0000
1000
0000
0100
1000
0010
0000
0200
0000
,
0000
0001
0000
0001
0000
0301
0000
1000
,
0001
0100
0010
2000
0000
3100
0010
0001
,
0010
0100
0000
1010
0000
1001
0010
0100
,
1100
0000
1001
0000
1100
1000
0010
0100
,
0101
0110
2020
3030
,
1001
0000
0000
0001
0100
0000
0001
0010
,
0100
0000
0000
1000
0010
0000
1000
0100
,
0010
0000
0000
0001
1000
0000
0100
0000
,
0010
0000
0010
0000
0010
0001
0010
0100
,
1000
0010
1000
0010
0100
0001
0011
0000
,
1001
0001
0100
0001
0100
0010
1010
0000
,
1001
0000
0001
0000
0010
0001
0010
0001
0010
0000
0100
0000
1000
0010
1000
0010
,
1000
0000
0001
0000
0010
0000
0100
0000
1000
0000
0001
0000
0100
0001
0100
0001
,
0200
0000
0000
0000
,
0000
0000
0000
0000
,
0300
0000
0000
0000
;

//---------------dance-double - ----------------
#NOTES:
     dance-double:
     :
     Easy:
     6:
     0.287,0.292,0.130,0.093,0.000:
10000000
00000000
01000000
00000000
10000000
00000000
00000000
00200000
,
00000000
01000000
00000000
01300000
00000000
00000000
00000000
00000000
,
00001000
00000000
00010000
00000000
00001000
00000000
00000000
02000000
,
00000000
00100000
00000000
03100000
00000000
00000000
00000000
00000000
,
10000000
00100000
10000000
00000000
,
00001000
01000000
00001000
00010000
,
00000100
00000010
00000001
00000010
,
00000100
00001000
00000001
00000000
,
00000100
00000000
00000100
00000000
00000100
00000000
00000000
00000110
,
00000000
00000010
00000000
00000010
00000000
00000010
00000000
00000000
,
00010000
00001000
01000000
00100000
,
01000000
00001000
00100000
00000000
,
01000000
10000000
01000000
10000000
,
01000000
00100000
00001000
00000000
,
00010000
00000010
00010000
00000010
,
00000100
00000100
00000100
00000000
,
00001001
00000000
00000010
00000000
,
00000100
00000000
00001000
00000000
,
00000100
00000000
00000010
00000000
,
00000001
00000000
00010000
00000000
,
00011000
00000000
00001000
00000000
,
01000000
00000000
01000000
00000000
,
00100000
00000000
00100000
00000000
,
10000000
00000000
10000000
00000000
,
00100000
00000000
00100000
00000000
,
10000000
00000000
10000000
00000000
,
00001000
00000000
00001000
00000000
,
00010000
00000000
00010000
00000000
,
00011000
00000000
00010000
00000000
,
00000100
00000010
00000100
00000000
,
00001001
00000000
00000001
00000000
,
00001000
00000001
00001000
00000000
,
00000110
00000000
00000010
00000000
,
00000100
00000000
00000010
00000000
,
00010000
00001000
00010000
00001000
,
00100000
00000000
00000000
00000000
,
01100000
00000000
00010000
00000000
10000000
00000000
00000000
00200000
,
00000000
01000000
00000000
01300000
00000000
00000000
00000000
00000000
,
00010000
00000000
01000000
00000000
00001000
00000000
00000000
00020000
,
00000000
00001000
00000000
00031000
00000000
00000000
00000000
00000000
,
00010000
00000000
00000010
00000000
00000100
00000000
00000000
00000001
,
00000000
00000001
00000000
00000001
00000000
00000010
00000000
00000000
,
00001001
00000010
00000100
00010000
,
00001000
00000000
00000000
00011000
00000000
00000000
00000000
00000000
,
00100000
00000000
01000000
00000000
10000000
00000000
00000000
00100000
,
00000000
00100000
00000000
01100000
00000000
00000000
00000000
00000000
,
10000000
00000000
01000000
00000000
00100000
00000000
00000000
00010000
,
00000000
00010000
00000000
00011000
00000000
00000000
00000000
00000000
,
00000100
00000000
00000010
00000000
00000001
00000000
00000000
00000100
,
00000000
00000100
00000000
00000010
00000000
00000010
00000000
00000000
,
00001000
00010000
01000000
00100000
,
01000000
00000000
00000000
01100000
00000000
00000000
00000000
00000000
,
00010000
00100000
00010000
00100000
,
00001000
00000000
00000000
00000000
,
00010000
00000010
00010000
00000010
,
00000100
00000001
00000010
00000000
,
00000001
00000010
00000001
00000010
,
00000100
00010000
00001000
00000000
,
01000000
00010000
00100000
00010000
,
01000000
01000000
01000000
00000000
,
10020000
00000000
00000000
00000000
,
20030000
00000000
00000000
00000000
,
30020000
00000000
00000000
00000000
,
20030000
00000000
00000000
00000000
,
31000000
00100000
01000000
00100000
,
00001000
00010000
00001000
00010000
,
00000100
00000010
00000001
00000010
,
00000100
00000100
00000100
00000000
,
00002002
00000000
00000000
00000000
,
00000000
00000000
00000000
00000000
,
00003003
00000000
00000000
00000000
;

//---------------dance-double - ----------------
#NOTES:
     dance-double:
     :
     Medium:
     10:
     0.460,0.583,0.259,0.278,0.000:
10000000
00000000
10000000
00100000
01000000
00100000
00000000
10000000
,
00000000
10000000
00000000
10010000
00000000
00000000
00000000
00000000
,
00001000
00000000
00001000
00010000
00000010
00000100
00000000
00000001
,
00000000
00000001
00000000
00001001
00000000
00000000
00000000
00000000
,
00000010
00000000
00000100
00010000
00001000
00100000
00000000
01000000
,
00000000
01000000
00000000
00100000
00000000
00100000
00000000
00010000
,
10000000
00000000
01000000
00100000
01000000
00100000
00001000
00000000
,
00010000
00000010
00000000
00000200
00000000
00000000
00000000
00000000
,
00000301
00000000
00000010
00000000
00000100
00000000
00010000
00001000
,
00000000
00011000
00000000
00010000
00000000
00011000
00000000
20000000
,
00000000
30100000
01000000
00100000
01000000
00010000
00000000
01000000
,
00000000
01000000
00000000
00001000
00000000
00001000
00000000
00000000
,
00020000
00000000
00030010
00000200
00000000
00000300
00000001
00001000
,
00000001
00010000
00000000
00010000
00000000
00001000
00000000
00000000
,
01100000
00000000
10000000
00000000
01000000
00100000
00010000
00000000
,
00011000
00010010
00000110
00000000
,
00000201
00000302
00000023
00000032
,
00000203
00000320
00020030
00032000
,
00203000
02300000
03200000
00302000
,
00203000
02300000
23000000
30020000
,
10030000
10000000
01000000
01000000
,
00100000
00100000
00001000
00001000
,
00010000
00010000
00000010
00000010
,
00000100
00000100
00000001
00000001
,
00000010
00000010
00000100
00000100
,
00001000
00001000
00010000
00010000
,
01000000
01000000
00100000
00100000
,
10000000
01000000
00100000
00000000
,
00001000
00000000
01000000
00100000
01000000
00000000
00001000
00000000
,
00010000
00000100
00000010
00000001
,
00010000
00000000
00000100
00000010
00000100
00000000
00010000
00000000
,
00001000
01000000
00100000
10000000
,
01000000
00100000
01000000
00000000
10000000
01000000
10000000
00000000
,
00001000
00100000
00001000
00000000
00010000
00001000
00010000
00000000
,
00000100
00000010
00000100
00000010
00000001
00000100
00000010
00001000
,
00000100
00000100
00000100
00000000
,
00011000
00000000
00001000
00100000
01000000
10000000
00000000
00100000
,
00000000
00100000
00000000
01100000
00000000
00000000
00000000
00000000
,
10000000
00000000
10000000
00100000
01000000
00010000
00000000
10000000
,
00000000
10000000
00000000
10010000
00000000
00000000
00000000
00000000
,
00001000
00000000
00001000
00010000
00000010
00000100
00000000
00000001
,
00000000
00000001
00000000
00001000
00000000
00001000
00000000
00000110
,
00000000
00000010
00000100
00010000
00001000
00010000
00001000
00000000
,
01000000
00100000
00000000
02000000
00000000
00000000
03000000
00000000
,
01100000
00000000
01000000
10000000
00010000
00100000
00000000
01000000
,
00000000
01000000
00000000
01100000
00000000
00000000
00000000
00000000
,
00011000
00000000
00001000
00010000
00000010
00000100
00000000
00000001
,
00000000
00000001
00000000
00001001
00000000
00000000
00000000
00000000
,
00000110
00000000
00000100
00000010
00000001
00001000
00000000
00000100
,
00000000
00000100
00000000
00010000
00000000
00010000
00000000
00001000
,
01000000
00000000
00100000
01000000
00100000
10000000
01000000
00000000
,
00100000
00001000
00000000
00020000
00000000
00000000
00030000
00000000
,
00000100
00000000
00000010
00000000
00000001
00000000
00000100
00000010
,
00000000
00010000
00000000
00010000
00000000
00011000
00000000
01000000
,
00000000
01000000
00100000
10000000
01000000
00000000
00100000
02000000
,
00000000
00100000
00100000
03100000
,
00001000
00000000
00010000
00000200
00000000
00000000
00001300
00000010
,
00001000
00000001
00000000
00000001
00000000
00000010
00000000
00000000
,
00011000
00000000
00001000
00000000
01000000
00100000
10000000
00000000
,
11000000
01001000
00011000
00000000
,
00002000
00000000
00000000
00000000
,
00003200
00000000
00000000
00000000
,
00000320
00000000
00000000
00000000
,
00000032
00000000
00000000
00000000
,
00001003
00000100
00001000
00000000
00000010
00010000
00000010
00000000
,
00011000
00000000
00011000
00000000
00100000
00010000
00100000
00000000
,
01000000
00100000
01000000
00100000
01000000
10000000
01000000
10000000
,
00100000
01100000
01001000
00000000
,
00022000
00000000
00000000
00000000
,
00000000
00000000
00000000
00000000
,
00033000
00000000
00000000
00000000
;

//---------------dance-double - ----------------
#NOTES:
     dance-double:
     :
     Hard:
     13:
     0.661,0.777,0.555,0.268,0.167:
10000000
00000000
10000000
01000000
10000000
00100000
00000000
01100000
,
00000000
01100000
00000000
01002000
00000000
00010000
00013000
00000000
,
00000100
00000000
00000100
00000010
00000001
00000100
00000000
00000110
,
00000000
00000110
00000000
00020010
00000000
00001000
00031000
00000000
,
00100000
00000000
00100000
01000000
10000000
00100000
00000000
01000000
,
00100000
01000000
00010000
00100000
01000000
10000000
00000000
00010000
,
01010000
00000000
00000000
00000000
01000000
00000000
00100000
00000000
00001000
00000000
00010000
00001000
00010000
00000000
00000100
00000000
,
00000010
00000001
00000000
00002001
00000000
00000000
00000000
00000000
,
00003100
00000000
00000100
00000000
00000100
00000000
00000010
00000000
00000001
00000000
00000001
00000000
00000001
00000100
00000010
00000000
,
00000000
00000110
00000000
00001010
00000000
00000110
00000000
00000010
,
00000100
00000000
00010000
00000000
00001000
00000000
00100000
00000000
01000000
00000000
10000000
00010000
10000000
00000000
00200000
00000000
,
00000000
10000000
00000000
10000000
00000000
10300000
00000000
00010000
,
00100000
10000000
00100000
00002000
00000000
00013000
00000100
00000010
,
00000001
00000100
00000000
00000101
00000000
00000001
00000010
00000100
,
00001100
00000000
00010100
00000000
00011000
00001000
00100000
01000000
,
11000000
01100000
02020000
03030000
,
10010000
01000000
00100000
00010000
10000000
01000000
00010000
01000000
,
10000000
00010000
01000000
00001000
00010000
00000010
00000001
00000010
,
00010000
00000100
00000010
00000001
00000010
00000100
00010000
00000010
,
00000001
00000010
00010000
00001000
00100000
01000000
00100000
00010000
,
01000000
00000000
00100000
00000000
00000000
00100000
00000000
00000000
00100000
00000000
00000000
10000000
00000000
00000000
01000000
00000000
,
00000000
00000000
00100000
00000000
00000000
00100000
00000000
00000000
00100000
00000000
00000000
00001000
00000000
00000000
00010000
00000000
,
00000000
00000000
00000010
00000000
00000000
00000010
00000000
00000000
00000010
00000000
00000000
00000100
00000000
00000000
00000001
00000000
,
00000000
00000000
00000010
00000000
00000000
00000010
00000000
00000000
00000010
00000000
00000000
00000100
00000000
00000000
00010000
00000000
,
00000000
00000000
00001000
00000000
00000000
00001000
00000000
00000000
00001000
00000000
00000000
01000000
00000000
00000000
00010000
00000000
,
00000000
00000000
01000000
00000000
00000000
01000000
00000000
00000000
01000000
00000000
00000000
00100000
00000000
00000000
10000000
00000000
,
00000000
00000000
01000000
00000000
00000000
01000000
00000000
00000000
01000000
00000000
00000000
00100000
00000000
00000000
00010000
00000000
,
00002000
00023000
00000020
00030030
,
00000110
00000000
00000100
00000010
00000001
00000010
00000100
00000000
,
00010000
00000000
00010000
00001000
00100000
01000000
10010000
00000000
,
01100000
00000000
00100000
10000000
01000000
10000000
00100000
00000000
,
01000000
00000000
01000000
00100000
00001000
00010000
00010010
00000000
,
00000010
00000100
00000010
00000100
00000001
00000010
00000100
00000000
,
00011000
00000000
00000000
00010000
00000000
00000000
00001000
00000000
00100000
00000000
00000000
00100000
00000000
00000000
01000000
00000000
,
10000000
00000000
00010000
01000000
00010000
00000000
01000000
00100000
01000000
00000000
00001000
00010000
00001000
00000000
00010000
00000000
,
00000020
00000230
00000002
00000303
,
00001001
00000000
00000001
00000010
00000100
00001000
00000000
00010100
,
00000000
00000000
00011000
00000000
00000000
00000000
00201000
00000000
00000000
00000000
01300000
00100000
01000000
00000000
00000000
00000000
,
10010000
00000000
10000000
01000000
00100000
00010000
00000000
00101000
,
00000000
00000000
00011000
00000000
00000000
00000000
00010020
00000000
00000000
00000000
00000130
00000010
00000100
00000000
00000000
00000000
,
00001001
00000000
00000001
00001000
00000100
00000010
00000000
00000100
,
00001000
00010000
01000000
00100000
01000000
00010000
10000000
01000000
,
11000000
00000000
00000000
00000000
01000000
00000000
10000000
00000000
00010000
00000000
00100000
00010000
00100000
00000000
01000000
00000000
,
10000000
00002000
00000000
00200000
00000000
00000000
00303000
00000000
,
00011000
00000000
00010000
00000100
00000010
00000001
00000000
00001001
,
00000000
00000000
00001010
00000000
00000000
00000000
00021000
00000000
00000000
00000000
00031000
00010000
00001000
00000000
00000000
00000000
,
01100000
00000000
00100000
01000000
10000000
00010000
00000000
01010000
,
00000000
00000000
01001000
00000000
00000000
00000000
00012000
00000000
00000000
00000000
00013000
00001000
00010000
00000000
00000000
00000000
,
00000110
00000000
00000010
00000100
00000001
00000010
00000000
00000100
,
00010000
00001000
00100000
01000000
00100000
00010000
10000000
00100000
,
10100000
00000000
00000000
00000000
01000000
00000000
00100000
00000000
01000000
00000000
10000000
00100000
10000000
00000000
01000000
00000000
,
00100000
00002000
00000000
00020000
00000000
00000000
00033000
00000000
,
00010000
00000000
00010000
00000000
00010000
00000000
00000010
00000000
00000100
00000000
00000100
00000000
00000100
00000001
00000010
00000000
,
00000000
00000011
00000000
00000110
00000000
00010100
00000000
00010000
,
00001000
00000000
00100000
00000000
01000000
00000000
00100000
00000000
00001000
00000000
00100000
01000000
10000000
00000000
00020000
00000000
,
00000000
00100000
00000000
00100000
00000000
00130000
00000000
00001000
,
00010000
00000100
00000010
00000002
00000000
00001003
00000100
00000010
,
00000100
00010000
00000000
00011000
00000000
01001000
00100000
01000000
,
10010000
00000000
01100000
00000000
01010000
01000000
00001000
00010000
,
00010010
00000110
00000022
00000033
,
00000210
00000000
00000000
00000010
00000010
00000000
00000001
00000000
,
00000302
00000000
00000000
00000100
00000100
00000000
00010000
00000000
,
00020003
00000000
00000000
00001000
00001000
00000000
00100000
00000000
,
00100000
00000000
00100000
00000000
00130000
01000000
10000000
00010000
,
01000000
00100000
01000000
00001000
00010000
00000100
00000110
00000000
,
00000011
00000010
00000100
00010000
00001000
01000000
01010000
00000000
,
01100000
00000000
00100000
00000000
10000000
00100000
10000000
00100000
10000000
00000000
00001000
00000000
00100000
00001000
00100000
00001000
,
00100000
00000000
00010000
00000000
00001000
00000000
00000010
00000000
00000100
00000000
00000001
00000000
00000010
00000100
00000010
00000100
,
00000020
00000000
00000000
00000000
,
00000000
00000000
00000000
00000000
,
00000030
00000000
00000000
00000000
;

//---------------dance-single - ----------------
#NOTES:
     dance-single:
     :
     Beginner:
     3:
     0.112,0.157,0.037,0.000,0.000: // measure 1
0001
0000
0000
0000
,  // measure 2
1000
0000
0000
0000
,  // measure 3
0001
0000
0000
0000
,  // measure 4
1000
0000
0000
0000
,  // measure 5
0100
0000
0000
0000
,  // measure 6
0010
0000
0000
0000
,  // measure 7
0100
0000
0000
0000
,  // measure 8
0010
0000
0000
0000
,  // measure 9
0001
0000
0000
0000
,  // measure 10
0001
0000
0000
0000
,  // measure 11
1000
0000
0000
0000
,  // measure 12
1000
0000
0000
0000
,  // measure 13
0100
0000
0000
0000
,  // measure 14
0010
0000
0000
0000
,  // measure 15
0001
0000
0100
0000
,  // measure 16
0001
0000
0000
0000
,  // measure 17
1001
0000
0000
0000
,  // measure 18
0000
0000
0000
0000
,  // measure 19
0100
0000
0000
0000
,  // measure 20
0000
0000
0000
0000
,  // measure 21
0010
0000
0000
0000
,  // measure 22
0001
0000
0000
0000
,  // measure 23
0010
0000
0000
0000
,  // measure 24
0001
0000
0000
0000
,  // measure 25
0100
0000
0000
0000
,  // measure 26
0010
0000
0000
0000
,  // measure 27
0100
0000
0000
0000
,  // measure 28
0010
0000
0000
0000
,  // measure 29
1000
0000
1000
0000
,  // measure 30
1000
0000
0000
0000
,  // measure 31
0001
0000
0001
0000
,  // measure 32
0001
0000
0000
0000
,  // measure 33
1000
0000
0001
0000
,  // measure 34
1000
0000
1000
0000
,  // measure 35
1000
0000
0000
0000
,  // measure 36
1001
0000
0000
0000
,  // measure 37
0001
0000
1000
0000
,  // measure 38
0001
0000
0000
0000
,  // measure 39
0010
0000
0001
0000
,  // measure 40
0010
0000
0000
0000
,  // measure 41
0100
0000
0010
0000
,  // measure 42
0100
0000
0000
0000
,  // measure 43
1000
0000
1000
0000
,  // measure 44
1000
0000
0000
0000
,  // measure 45
0001
0000
1000
0000
,  // measure 46
0001
0000
0000
0000
,  // measure 47
0100
0000
0001
0000
,  // measure 48
0100
0000
0000
0000
,  // measure 49
0010
0000
0100
0000
,  // measure 50
0010
0000
0000
0000
,  // measure 51
1000
0000
0100
0000
,  // measure 52
1000
0000
0000
0000
,  // measure 53
0001
0000
0001
0000
,  // measure 54
0001
0000
0000
0000
,  // measure 55
0100
0000
0001
0000
,  // measure 56
0100
0000
0000
0000
,  // measure 57
0001
0000
0000
0000
,  // measure 58
0010
0000
0000
0000
,  // measure 59
0100
0000
1000
0000
,  // measure 60
0100
0000
0000
0000
,  // measure 61
1001
0000
0000
0000
,  // measure 62
0000
0000
0000
0000
,  // measure 63
0000
0000
0000
0000
,  // measure 64
0000
0000
0000
0000
,  // measure 65
0010
0000
0000
0000
,  // measure 66
0100
0000
0000
0000
,  // measure 67
0010
0000
0100
0000
,  // measure 68
0001
0000
0000
0000
,  // measure 69
1001
0000
0000
0000
;
