#TITLE:She;
#SUBTITLE:;
#ARTIST:Stereoman;
#TITLETRANSLIT:;
#SUBTITLETRANSLIT:;
#ARTISTTRANSLIT:;
#CREDIT:DigiMindAxel;
#BANNER:She.png;
#BACKGROUND:She-bg.png;
#LYRICSPATH:;
#CDTITLE:DigiMindAxel original simfile.png;
#MUSIC:She.ogg;
#METERTYPE:DDR X;
#OFFSET:-8.760;
#SAMPLESTART:17.458;
#SAMPLELENGTH:12.000;
#SELECTABLE:YES;
#BPMS:0.000=110.000;
#STOPS:;
#BGCHANGES:;

//---------------dance-single - ----------------
#NOTES:
     dance-single:
     :
     Easy:
     3:
     0.181,0.209,0.008,0.426,0.000:
2000
0000
3020
0000
,
2030
0000
3002
0000
,
0023
0000
0230
0000
,
0320
0000
0230
0000
,
1300
0001
1000
0100
,
1000
0000
0001
0000
,
0100
0010
0100
0001
,
0100
0000
0010
0000
,
1000
0100
1000
0001
,
1000
0000
0100
0000
,
0010
0001
0100
0010
,
0100
0000
0001
0000
,
2002
0000
0000
0000
,
3003
0000
0000
0000
,
0020
0000
0000
0000
,
0030
0000
0000
0000
,
0200
0000
0000
0000
,
0300
0000
0000
0000
,
0002
0000
0000
0000
,
1003
1000
1000
0000
,
0002
0000
0000
0103
,
0020
0000
2030
3200
,
0320
0000
0032
0000
,
2003
0000
3020
0000
,
0230
0000
0302
0000
,
2003
0000
3200
0000
,
2300
0000
3002
0000
,
0203
0000
0320
0000
,
1030
0100
0010
0100
,
1000
0000
0001
0000
,
0100
0010
0100
0001
,
1000
0000
0100
0000
,
0010
0100
1000
0100
,
0010
0000
0001
0000
,
0100
0010
0100
0001
,
1000
0000
0010
0000
,
0200
0000
0302
0000
,
2003
0000
3200
0000
,
0320
0000
0230
0000
,
2300
0000
3002
0000
,
0203
0000
0320
0000
,
0230
0000
0302
0000
,
2003
0000
3200
0000
,
0320
0000
0230
0000
,
2300
0000
0000
0000
,
3002
0000
0000
0000
,
2003
0000
0000
0000
,
3002
0000
0000
0000
,
2003
0000
0000
0000
,
3002
0000
0000
0000
,
2003
0000
0000
0000
,
3002
0000
0000
0000
,
0003
0000
0000
0000
;

//---------------dance-single - ----------------
#NOTES:
     dance-single:
     :
     Medium:
     7:
     0.334,0.333,0.032,0.297,0.052:
0002
0000
0203
0000
,
0320
0000
0230
0000
,
0302
0000
2003
0000
,
3200
0000
0000
0000
0320
0000
0000
0030
,
1001
0000
1000
0000
0010
0010
0100
0000
,
0001
0000
0010
0000
0100
0100
0010
0000
,
0001
0000
0101
0000
0100
0100
0010
0000
,
2000
3020
0230
0302
,
1003
0000
0001
0010
0100
1000
0010
0000
,
1000
0000
0100
0010
0001
0010
0100
0000
,
1000
0000
0010
0000
0100
0000
0001
1000
,
0001
0010
0100
1000
0010
0000
0100
0100
,
0020
0000
0000
0000
,
2030
0000
3002
0000
,
0023
0000
0000
0000
,
0032
0000
0203
0000
,
0310
0010
0010
0010
,
0100
0100
0100
0100
,
0001
0001
1000
1000
,
0001
0010
0100
1000
0000
0000
1001
0000
,
2000
0000
0010
0000
0010
0000
3010
0100
,
0002
0000
0010
0000
0013
0100
1000
0010
,
0200
0000
0001
0000
0301
1000
0100
0010
,
0200
0000
1000
0000
1300
0010
0100
0001
,
0020
0001
0001
0032
,
0103
0010
0100
0000
0001
0010
0100
1000
,
0020
0000
1030
0001
0020
0000
0031
1000
,
0020
0000
1030
0001
0010
0100
1000
0000
,
0002
0000
0100
0000
0100
0000
0103
0010
,
2000
0000
0100
0000
3100
0010
0001
0010
,
0200
0000
1000
0000
1300
0010
0100
0001
,
0200
0000
0010
0000
0310
1000
0100
0010
,
0002
0000
1000
0000
1003
0001
0010
0100
,
0020
0000
0001
0000
0031
1000
0010
0100
,
0002
0000
0013
0100
2000
0000
3100
0010
,
0002
0000
0013
0100
2000
0000
0001
0000
,
3001
0000
0100
0000
0010
0000
0100
0001
,
0010
0100
1000
0100
0010
0001
0010
0000
,
0100
1000
0010
0100
,
0010
1000
0100
0010
0001
0010
0100
1000
,
0010
0000
0100
0000
0010
0000
1000
0001
,
0010
0100
1000
0100
0010
0001
1000
0010
,
0100
0000
0010
0000
1000
0000
0001
0010
,
0001
1000
0010
0100
0001
0100
0010
1000
,
0100
0000
0000
0000
0000
0100
0000
0100
0000
0000
0100
0000
0000
0000
0000
0000
,
0010
0000
0010
0000
0000
0000
0000
0001
0000
0000
0001
0000
0000
0000
0000
0000
,
0100
0000
0000
0000
0000
0100
0000
0100
0000
0000
0100
0000
0000
0000
0000
0000
,
0010
0000
0010
0000
0000
0000
0000
1000
0000
0000
1000
0000
0000
0000
0000
0000
,
0100
0000
0000
0000
0000
0100
0000
0100
0000
0000
0100
0000
0000
0000
0000
0000
,
0010
0000
0010
0000
0000
0000
0000
0001
0000
0000
0001
0000
0000
0000
0000
0000
,
1001
0000
0000
0000
0000
1000
0000
1000
0000
0000
1000
0000
0000
0000
0000
0010
,
0000
0000
0010
0000
0000
0000
0000
0100
0000
0000
0100
0000
0001
0000
0001
0000
;

//---------------dance-single - ----------------
#NOTES:
     dance-single:
     :
     Hard:
     11:
     0.494,0.542,0.217,0.273,0.546: // measure 1
2000
0000
0000
0000
0000
0000
0000
0000
0000
0000
0000
3020
0000
0000
0000
0000
0000
0000
0000
0000
0000
0000
0000
0000
,  // measure 2
0230
0000
0000
0000
0000
0000
0000
0000
0000
0000
0000
0000
0000
0000
0000
0000
0000
0000
0000
0000
0000
0300
0001
0000
0000
0000
0000
0000
0001
0000
0000
0000
0000
0000
0000
0000
1000
0000
0000
0000
0000
0000
1000
0000
0000
0000
0000
0000
,  // measure 3
0200
0000
0000
0000
0000
0000
0000
0000
0000
0000
0000
0320
0000
0000
0000
0000
0000
0000
0000
0000
0000
0000
0000
0000
,  // measure 4
0032
0000
0000
0000
0000
0000
0000
0000
0000
0000
0000
2003
0000
0000
0000
0000
0000
0000
3000
0000
0000
0000
0000
0000
,  // measure 5
1001
0000
0000
0000
0000
0000
0001
0000
0100
0000
0000
0010
0000
0000
0010
0000
0000
0000
1000
0000
0000
0100
0000
0000
,  // measure 6
0010
0000
0000
0100
0000
0000
1000
0000
0001
0000
0000
0100
0000
0000
0100
0000
0000
0000
0001
0000
0000
0001
0000
0000
,  // measure 7
1001
0000
0000
0000
0000
0000
1000
0000
0010
0000
0000
0100
0000
0000
0000
0100
0000
0000
0001
0000
0000
1000
0000
0000
,  // measure 8
0200
0010
0320
0001
0032
1000
2003
0010
,  // measure 9
3010
0000
0000
0100
0000
0000
0001
0000
1000
0000
0000
0100
0000
0000
0010
0000
0000
0000
0001
0000
0000
0001
0000
0000
,  // measure 10
0010
0000
0000
0100
0000
0000
1000
0000
0001
0000
0000
0100
0000
0000
0001
1000
0000
0000
0100
0000
0000
0100
0000
0000
,  // measure 11
1002
0000
0000
0000
0000
0000
1003
0000
0001
0000
0000
0010
0000
0000
0010
0000
0000
0000
0001
0000
0000
0010
0000
0000
,  // measure 12
1100
0000
0000
1000
0000
0000
0010
0000
0100
0000
0000
0001
0000
0000
0010
0000
0000
0000
0100
0000
0000
0100
0000
0000
,  // measure 13
1002
0000
1000
0000
1000
0000
1003
0001
,  // measure 14
0010
0000
0000
0100
0000
0000
1000
0000
0001
0000
0000
0010
0000
0000
0100
0000
0000
0000
1000
0000
0000
1000
0000
0000
,  // measure 15
0002
0000
1000
0000
1000
0000
1003
0001
,  // measure 16
0100
0000
0000
0010
0000
0000
1000
0000
0001
0000
0000
0100
0000
0000
0010
0000
0000
0000
1000
0000
0000
1000
0000
0000
,  // measure 17
0100
0000
0000
0010
0000
0000
0100
0000
1000
0000
0000
0010
0000
0000
0100
0000
0000
0000
0001
0000
0000
1000
0000
0000
,  // measure 18
0100
0000
0000
0010
0000
0000
0001
0000
1000
0000
0000
0010
0000
0000
1000
0000
0000
0000
0001
0000
0000
0001
0000
0000
,  // measure 19
0010
0000
0000
0100
0000
0000
0010
0000
0001
0000
0000
1000
0000
0000
0010
0000
0000
0000
1000
0000
0000
0100
0000
0000
,  // measure 20
0010
0000
0001
1000
0000
0001
1000
0000
0001
1000
0000
0010
0000
0000
0000
0000
0000
0000
0110
0000
0000
0110
0000
0000
,  // measure 21
1001
0000
0000
0000
0000
0000
0010
0000
0100
0000
0000
0002
0000
0000
0000
1003
0000
0000
0100
0000
1000
0000
0000
0020
,  // measure 22
0000
0000
0000
0100
0000
0000
0130
0000
0001
0000
0000
0000
1000
0000
0000
0100
0000
0000
0001
0000
0000
0100
0000
0000
,  // measure 23
1000
0000
0000
0010
0000
0000
1000
0000
0001
0000
0000
0010
0100
0000
0010
0100
0000
1000
0100
0000
1000
0100
0000
0000
,  // measure 24
0010
0000
0000
0001
0000
0000
1000
0000
0010
0000
0000
0100
0001
0000
0100
0001
0000
0010
0100
0000
0010
0100
0000
0000
,  // measure 25
1001
0000
0000
0000
0000
0000
1000
0000
0010
0000
0000
0100
0010
0000
0100
0010
0000
0000
2000
0000
0000
0000
0000
0000
,  // measure 26
3001
0000
0000
1000
0000
0000
0100
0000
0010
0000
0000
0001
0100
0000
0001
0100
0000
0000
0010
0000
0000
1000
0000
0000
,  // measure 27
0200
0000
0000
0000
0000
0000
0310
0000
0001
0010
0000
0200
0000
0000
0000
0000
0000
0000
0310
0000
0001
0100
0000
0020
,  // measure 28
0000
0000
0000
0000
0000
0000
1030
0000
0010
0100
0000
0002
0000
0000
0000
1003
0000
0000
0100
0000
0000
0100
0000
0000
,  // measure 29
1002
0000
0000
0000
0000
0000
0103
0000
0010
0000
0000
1000
0000
0000
0000
1000
0000
0000
0001
0000
0010
0000
0000
0200
,  // measure 30
0000
0000
0000
0010
0000
0000
0310
0000
0001
0000
0000
0000
1000
0000
0000
0010
0000
0000
0001
0000
0000
0010
0000
0000
,  // measure 31
1000
0000
0000
0100
0000
0000
0010
0000
0001
0000
0000
0100
0010
0000
1000
0010
0000
0100
0010
0000
1000
0010
0000
0000
,  // measure 32
0100
0000
0000
0001
0000
0000
0010
0000
0100
0000
0000
1000
0100
0000
1000
0001
0000
1000
0100
0000
1000
0001
0000
0000
,  // measure 33
1001
0000
0000
0000
0000
0000
0001
0000
1000
0000
0000
0100
0000
0000
0010
0100
0000
0000
2000
0000
0000
0000
0000
0000
,  // measure 34
3001
0000
0000
0100
0000
0000
0001
0000
1000
0000
0000
0100
1000
0000
0100
1000
0000
0000
0010
0000
0000
0100
0000
0000
,  // measure 35
0002
0000
0000
0000
0000
0000
1003
0000
0010
0100
0000
0020
0000
0000
0000
0000
0000
0000
0130
0000
0001
1000
0000
0200
,  // measure 36
0000
0000
0000
0000
0000
0000
0310
0000
0001
0100
0000
0020
0000
0000
0000
1030
0000
0000
0001
0000
0000
0001
0000
0000
,  // measure 37
0110
0000
0000
0000
0000
0000
0010
0000
1000
0000
0000
0002
0000
0000
0000
0103
0000
0000
0001
0000
0000
1000
0000
0000
,  // measure 38
0001
0000
0000
0001
0000
0000
0100
0000
0010
0000
0000
1000
0000
0000
0010
0000
0000
0000
0100
0000
0000
0100
0000
0000
,  // measure 39
0110
0000
0000
0000
0000
0000
0010
0000
0001
0000
0000
2000
0000
0000
0000
3100
0000
0000
1000
0000
0000
0010
0000
0000
,  // measure 40
1000
0000
0000
1000
0000
0000
0001
0000
0010
0000
0000
0100
0000
0000
0010
0000
0000
0000
0001
0000
0000
0001
0000
0000
,  // measure 41
0110
0000
0000
0000
0000
0000
0000
0000
1000
0000
0000
0010
0000
0000
0000
1010
0000
0000
0000
0000
0000
0000
0000
0000
,  // measure 42
1001
0000
0000
0001
0000
0000
0000
0000
0010
0000
0000
0100
0000
0000
0000
1100
0000
0000
0010
0000
0000
0010
0000
0000
,  // measure 43
1001
0000
0000
0000
0000
0000
0000
0000
0001
0000
0000
0010
0000
0000
0000
0011
0000
0000
0000
0000
0100
0000
0000
1000
,  // measure 44
0000
0000
0000
1100
0000
0000
0000
0000
0010
0000
0000
0100
0000
0000
0000
0110
0000
0000
0001
0000
0000
0001
0000
0000
,  // measure 45
1001
0000
0000
0000
0000
0000
0000
0000
1000
0000
0000
0020
0000
0000
0000
1030
0000
0000
0000
0000
0000
0000
0000
0000
,  // measure 46
1001
0000
0000
1000
0000
0000
0000
0000
0001
0000
0000
0020
0000
0000
0000
0031
0000
0000
0000
0000
0000
0000
0000
0000
,  // measure 47
1001
0000
0000
0000
0000
0000
0000
0000
1000
0000
0000
0020
0000
0000
0000
0130
0000
0000
0000
0000
0000
0000
0000
0000
,  // measure 48
1001
0000
0000
0001
0000
0000
0000
0000
0100
0000
0000
0020
0000
0000
0000
1030
0000
0000
0000
0000
0000
0000
0000
0000
,  // measure 49
1001
0000
0000
0000
0000
0000
0000
0000
0001
0000
0000
0001
0000
0000
0000
0001
0000
0000
0000
0000
0000
0000
0000
0000
,  // measure 50
0010
0000
0000
0100
0000
0000
0000
0000
1000
0000
0000
1000
0000
0000
0000
1000
0000
0000
0000
0000
0000
0000
0000
0000
,  // measure 51
1001
0000
0000
0000
0000
0000
0000
0000
0001
0000
0000
0001
0000
0000
0000
0001
0000
0000
0000
0000
0010
0000
0000
0100
,  // measure 52
0000
0000
0000
1000
0000
0000
0000
0000
0100
0000
0000
0010
0000
0000
0000
0001
0000
0000
0100
0000
0000
0100
0000
0000
;

//---------------dance-single - ----------------
#NOTES:
     dance-single:
     :
     Beginner:
     1:
     0.075,0.123,0.032,0.000,0.000:
1000
0000
0000
0000
,
0010
0000
0000
0000
,
0100
0000
0000
0000
,
0001
0000
0000
0000
,
1001
0000
0000
0000
,
1000
0000
0100
0000
,
1000
0000
0000
0000
,
0001
0000
0100
0000
,
0010
0000
0000
0000
,
0010
0000
0000
0000
,
1000
0000
0001
0000
,
1000
0000
0000
0000
,
0100
0000
0000
0000
,
0000
0000
0000
0000
,
0010
0000
0000
0000
,
0000
0000
0000
0000
,
0001
0000
0000
0000
,
1000
0000
0000
0000
,
0001
0000
1000
0000
,
0001
0000
0000
0000
,
0010
0000
0000
0000
,
0001
0000
0100
0000
,
0010
0000
0000
0000
,
0100
0000
0000
0000
,
0010
0000
0000
0000
,
1000
0000
0000
0000
,
0100
0000
0000
0000
,
1000
0000
0000
0000
,
1001
0000
0000
0000
,
0001
0000
0010
0000
,
0001
0000
0100
0000
,
0010
0000
1000
0000
,
1001
0000
0000
0000
,
0001
0000
0010
0000
,
0100
0000
0010
0000
,
0001
0000
0100
0000
,
0110
0000
0000
0000
,
0010
0000
0000
0000
,
1000
0000
0000
0000
,
0001
0000
0000
0000
,
1000
0000
0000
0000
,
0100
0000
0000
0000
,
0010
0000
0000
0000
,
0001
0000
0000
0000
,
0100
0000
0000
0000
,
0100
0000
0000
0000
,
0100
0000
0000
0000
,
0100
0000
0000
0000
,
0010
0000
0000
0000
,
0010
0000
0000
0000
,
0010
0000
0000
0000
,
0010
0000
0000
0000
;
