#TITLE:Share My Love;
#SUBTITLE:(FROM NONSTOP MEGAMIX);
#ARTIST:Julie Frost;
#TITLETRANSLIT:;
#SUBTITLETRANSLIT:;
#ARTISTTRANSLIT:;
#CREDIT:DigiMindAxel;
#BANNER:Share My Love (FROM NONSTOP MEGAMIX).png;
#BACKGROUND:Share My Love (FROM NONSTOP MEGAMIX)-bg.png;
#LYRICSPATH:Share My Love (FROM NONSTOP MEGAMIX).lrc;
#CDTITLE:Konami original REMIX.png;
#MUSIC:Share My Love (FROM NONSTOP MEGAMIX).ogg;
#METERTYPE:DDR X;
#OFFSET:-7.556;
#SAMPLESTART:45.207;
#SAMPLELENGTH:12.000;
#SELECTABLE:YES;
#BPMS:0.000=127.125;
#STOPS:;
#BGCHANGES:;

//---------------dance-single - ----------------
#NOTES:
     dance-single:
     :
     Easy:
     4:
     0.267,0.332,0.244,0.244,0.000:
1001
2000
0001
3001
,
0110
0002
1000
1003
,
0110
2000
0001
3001
,
2002
0000
0000
3003
,
0001
0000
0010
0000
,
0100
0000
0010
0000
,
0001
0000
0100
0000
,
0001
0000
1000
0000
,
0001
1000
0001
0010
,
0100
1000
0100
0010
,
0001
0100
0001
0100
,
0001
0001
1001
1001
,
2001
0000
3200
0000
,
0320
0000
0032
0000
,
1003
0000
0001
1000
,
0020
0000
0030
1001
,
1002
0000
0023
0000
,
0230
0000
2300
0000
,
3001
0000
1000
0001
,
0200
0000
0300
0000
,
1001
1000
0001
0000
,
0100
0010
1000
0010
,
1001
1000
0001
0000
,
0010
0100
1000
0010
,
1001
1000
0001
0000
,
0100
0010
1000
0010
,
1001
0001
1000
0000
,
0100
0010
0001
0100
,
1001
0001
1000
0000
,
0100
0010
0001
1000
,
1001
0001
1000
0000
,
0010
0100
0001
1000
,
1001
1000
0001
0000
,
0010
0100
1000
0001
,
1001
1000
0001
0000
,
2002
0000
0000
3003
,
0220
0000
0000
0000
,
0330
0000
0000
0000
;

//---------------dance-single - ----------------
#NOTES:
     dance-single:
     :
     Hard:
     9:
     0.485,0.427,0.667,0.026,0.186: // measure 1
1001
0100
1100
0101
,  // measure 2
1001
0010
0011
1010
,  // measure 3
1001
0100
1100
0101
,  // measure 4
0001
0000
0100
0010
0000
0100
0000
0010
0000
1000
0000
0001
1000
0000
0001
0000
,  // measure 5
1000
0100
0010
0000
0100
1000
0001
0001
,  // measure 6
0001
0010
0100
0000
0010
0001
1000
1000
,  // measure 7
1000
0010
0100
0000
0001
1000
0100
0100
,  // measure 8
0100
0010
0001
0000
0010
0001
1000
1000
,  // measure 9
1000
0010
0100
0010
1000
0000
0100
0000
,  // measure 10
0001
0100
1000
0001
0010
0000
0100
0000
,  // measure 11
0010
0001
0100
0001
0010
0000
1000
0000
,  // measure 12
0011
1001
1100
1001
,  // measure 13
0110
0011
0110
1100
,  // measure 14
0011
0000
0000
0000
0110
0000
0000
0000
1100
0000
0000
0000
1001
0000
0000
0001
,  // measure 15
0000
0101
0000
0000
0100
0001
0010
0100
,  // measure 16
1000
0000
0001
0000
0100
0000
0000
0000
1001
0000
0000
1000
0000
0000
0001
0000
,  // measure 17
1001
0101
0110
1010
,  // measure 18
0101
0000
0000
0000
0110
0000
0000
0000
1010
0000
0000
0000
1001
0000
0000
1000
,  // measure 19
0000
1100
0000
0000
1000
0001
0010
0100
,  // measure 20
1000
0000
0001
0100
0000
0001
0000
1000
0000
0000
0000
0000
0000
0000
0000
0000
,  // measure 21
1001
0000
0000
0000
1000
0000
0000
1100
0000
0000
0000
0000
0100
0000
0010
0000
,  // measure 22
0001
1000
0100
1000
0001
0010
0100
0010
,  // measure 23
0011
0000
0000
0000
0001
0000
0000
0101
0000
0000
0000
0000
0100
0000
0001
0000
,  // measure 24
1000
0000
0100
0000
0010
0000
0100
0000
1000
0000
0000
1001
0000
0000
0001
0000
,  // measure 25
1001
0000
0000
0000
0100
0000
0000
0101
0000
0000
0000
0000
0100
0000
0010
0000
,  // measure 26
1000
0100
0001
0100
1000
0100
0010
0000
,  // measure 27
1001
0000
0000
0000
1000
0000
0000
1100
0000
0000
0000
0000
0010
0000
0001
0000
,  // measure 28
1000
0000
0000
0100
0000
0000
0010
0000
0000
0100
0000
0000
1000
0000
0000
0000
0000
0000
0010
0000
0100
0000
0001
0000
,  // measure 29
1000
0000
0000
0000
1100
0000
0000
1100
0000
0000
0000
0000
0010
0000
0001
0000
,  // measure 30
1000
0010
0001
0010
1000
0100
0010
0000
,  // measure 31
0001
0000
0000
0000
0101
0000
0000
0101
0000
0000
0000
0000
0100
0000
0010
0000
,  // measure 32
1000
0000
0001
0000
0010
0000
1000
0000
0010
0001
0000
1000
0000
0000
0001
0000
,  // measure 33
0011
0000
0000
0000
1001
0000
0000
1001
0000
0000
0000
0000
0001
0000
0100
0000
,  // measure 34
0001
0010
1000
0010
0001
1000
0100
0000
,  // measure 35
1001
0000
0000
0000
1001
0000
0000
1001
0000
0000
0000
0000
1000
0000
0001
0000
,  // measure 36
1000
0000
0010
0100
0000
0010
0000
0100
0000
0001
0000
0010
0100
0000
0000
0000
,  // measure 37
2002
0000
0000
0000
,  // measure 38
3003
0000
0000
0000
;

//---------------dance-single - ----------------
#NOTES:
     dance-single:
     :
     Challenge:
     12:
     0.581,0.546,0.462,0.064,0.699: // measure 1
1000
0000
0001
0000
0200
0000
0000
0001
0000
0001
0000
0301
1000
0000
0100
0000
,  // measure 2
0010
0000
0100
0000
2000
0000
0000
0010
0000
0010
0000
3010
0100
0000
0001
0000
,  // measure 3
0010
0000
0100
0000
0020
0000
0000
0001
0000
0001
0000
0031
0100
0000
0010
0000
,  // measure 4
1000
0000
0001
1000
0000
1000
0000
0100
0000
0010
0000
0001
1000
0000
1000
0000
,  // measure 5
0001
0000
0100
0000
0000
0000
0100
0000
0000
0000
0100
0001
1000
0000
0010
0000
,  // measure 6
0000
0000
0010
0000
0000
0000
0010
0000
0000
0000
0010
1000
0001
0000
0100
0000
,  // measure 7
0000
0000
0100
0000
0000
0000
0100
0000
0000
0000
0100
0001
1000
0000
0001
0000
,  // measure 8
0000
0000
0001
0000
0000
0000
0001
0000
0000
0000
0001
0010
0100
0000
1000
0000
,  // measure 9
0001
0000
0100
0000
0001
1000
0000
0000
0100
0000
0000
0100
0010
0000
0001
0000
,  // measure 10
1000
0000
0010
0000
1000
0001
0000
0000
0010
0000
0000
0010
0100
0000
1000
0000
,  // measure 11
0001
0000
0010
0000
0100
0010
0000
0000
0001
0000
0000
0001
0100
0000
0010
0000
,  // measure 12
1010
0000
0000
0000
0110
0000
0000
0000
0100
0001
0000
0001
1000
0000
1000
0000
,  // measure 13
1001
0000
0000
0000
0001
0000
0000
0001
0100
0000
0000
0100
1000
0000
0000
1000
,  // measure 14
0100
0000
0000
0100
0001
0000
0000
0001
1000
0000
0000
1000
0001
0000
0010
0000
,  // measure 15
0100
0000
1000
0000
0001
0000
0000
0000
0100
0000
0000
0100
0001
0000
0010
0000
,  // measure 16
0100
0000
1000
0000
0010
0000
0000
0000
0100
0001
0000
0101
0000
0000
0110
0000
,  // measure 17
1010
0000
0000
0000
1000
0000
0000
1000
0001
0000
0000
0001
0010
0000
0000
0010
,  // measure 18
1000
0000
0000
1000
0010
0000
0000
0010
0001
0000
0000
0001
1000
0000
0100
0000
,  // measure 19
0010
0000
0001
0000
0100
0000
0000
0000
0010
0000
0000
0010
0100
0000
0001
0000
,  // measure 20
0010
0000
0100
1000
0000
0001
0000
1001
0000
0000
0000
0000
0000
0000
0000
0000
,  // measure 21
0101
0000
0000
0000
0110
0000
0000
0101
0000
0000
0001
1000
0001
0000
1000
0000
,  // measure 22
0100
0000
0010
0001
0000
1000
0000
0010
0000
1000
0000
0001
0010
0000
0000
0000
,  // measure 23
0110
0000
0000
0000
1100
0000
0000
0110
0000
0000
0001
1000
0001
0000
0010
0000
,  // measure 24
0100
0000
1000
0001
0000
0100
0000
0001
0000
1000
0000
1001
0000
0000
0101
0000
,  // measure 25
0110
0000
0000
0000
1010
0000
0000
0110
0000
0000
1000
0001
1000
0000
0100
0000
,  // measure 26
0010
0000
0001
1000
0000
0010
0000
1000
0000
0001
0000
0100
0010
0000
0000
0000
,  // measure 27
1010
0000
0000
0000
0110
0000
0000
1010
0000
0000
0001
1000
0001
0000
0010
0000
,  // measure 28
0100
0000
0000
0000
0000
0000
1000
0000
0000
0001
0000
0000
0000
0000
0000
0100
0000
0000
0000
0000
0000
0001
0000
0000
0000
0000
0000
1000
0000
0000
0000
0000
0000
0010
0000
0000
0100
0000
0000
0000
0010
0000
0000
0000
1000
0000
0000
0000
,  // measure 29
1010
0000
0000
0000
0110
0000
0000
1010
0000
0000
0010
0100
0010
0000
1000
0001
,  // measure 30
0010
0000
0100
1000
0000
0001
0000
1000
0000
0100
0000
1000
0001
0000
0010
0000
,  // measure 31
0011
0000
0000
0000
0110
0000
0000
0011
0000
0000
0010
0100
0010
0000
0001
1000
,  // measure 32
0010
0000
1000
0001
0000
0010
0000
0100
0000
0010
0000
1001
0000
0000
1001
0000
,  // measure 33
0101
0000
0000
0000
0110
0000
0000
0101
0000
0000
0001
1000
0001
0000
1000
0100
,  // measure 34
0010
0000
0100
1000
0000
0001
0000
1000
0000
0100
0000
1000
0001
0000
0001
0000
,  // measure 35
1001
0000
0000
0000
0110
0000
0000
1001
0000
0000
0001
0100
0001
0000
1000
0010
,  // measure 36
0100
0000
0000
0000
0000
0000
0001
0000
0000
1000
0000
0000
0000
0000
0000
1000
0000
0000
0000
0000
0000
0001
0000
0000
0000
0000
0000
0010
0000
0000
0000
0000
0000
0100
0000
0000
1000
0000
0000
0000
0001
0000
0000
0000
0100
0000
0000
0000
,  // measure 37
2002
0000
0000
0000
,  // measure 38
3003
0000
0000
0000
;

//---------------dance-single - ----------------
#NOTES:
     dance-single:
     :
     Medium:
     8:
     0.407,0.379,0.410,0.269,0.083:
1001
0010
0100
1000
,
1001
0010
0100
0002
,
2003
3200
0320
0032
,
1003
0000
0000
1001
0000
0000
0000
0001
0000
1000
0000
0001
0000
0000
0000
0000
,
1001
0000
1000
0000
0010
0100
0010
0000
,
1000
0000
0001
1000
0001
0000
0100
0001
,
1000
0000
0001
0100
0010
0000
0100
0000
,
0101
0000
1010
0000
1000
0001
0100
0000
,
0001
1000
0100
1000
0001
1000
0100
0000
,
1000
0001
0010
0001
1000
0001
0010
0000
,
0001
1000
0001
0010
0100
1000
0001
0000
,
0011
0110
1100
1001
,
1000
0020
0230
0302
,
0203
0000
0000
0000
0320
0000
0000
0000
0230
0000
0000
0000
0302
0000
0000
0013
,
0000
0100
0000
0000
1000
0000
1000
0100
,
0010
0000
0000
0000
0001
0000
0000
0000
0001
0000
0000
1000
0000
0000
0100
0000
,
0010
0002
2003
3200
,
2300
0000
0000
0000
3002
0000
0000
0000
2003
0000
0000
0000
3200
0000
0000
0310
,
0000
0001
0000
0000
1000
0000
1000
0001
,
0100
0000
0000
0100
0000
0000
0000
0110
0000
0000
0000
0000
0000
0000
0000
0000
,
1001
0100
1100
0000
,
0001
0100
0010
0000
1000
0001
0010
0000
,
0011
0010
0110
0000
,
0010
0100
1000
0000
0001
1000
0010
0000
,
1010
0010
0110
0000
,
0100
0010
0001
0000
0010
0001
1000
0000
,
1001
0001
0011
0010
,
0110
0000
0100
1000
0010
0000
1001
0000
,
0110
0010
1001
0000
,
0001
0100
0010
0000
1000
0001
0100
0000
,
0101
0100
1001
0000
,
0001
1000
0100
0000
1000
0100
0010
0000
,
1001
1000
1010
0000
,
0010
0100
0001
0100
0010
0000
0100
0000
,
0101
0100
1001
0000
,
1001
0000
0000
1001
0000
0000
0000
1000
0000
0001
0000
1000
0000
0000
0000
0000
,
2002
0000
0000
0000
,
3003
0000
0000
0000
;

//---------------dance-single - ----------------
#NOTES:
     dance-single:
     :
     Beginner:
     2:
     0.121,0.162,0.128,0.000,0.000:
0001
0000
0000
0000
,
0010
0000
0000
0000
,
0001
0000
0000
0000
,
0110
0000
0110
0000
,
1001
0000
1000
0000
,
1000
0000
1000
0000
,
0001
0000
0001
0000
,
0001
0000
0001
0000
,
0010
0000
0100
0000
,
0010
0000
0100
0000
,
1000
0000
0010
0000
,
0100
0000
0100
0000
,
1001
0000
0000
0000
,
0001
0000
0000
0000
,
0100
0000
0000
0000
,
0010
0000
0000
0000
,
1001
0000
0000
0000
,
1000
0000
0000
0000
,
0100
0000
0000
0000
,
0010
0000
0000
0000
,
1001
0000
1000
0000
,
1000
0000
0000
0000
,
1001
0000
0001
0000
,
0001
0000
0000
0000
,
0110
0000
0100
0000
,
0100
0000
0000
0000
,
0110
0000
0010
0000
,
0010
0000
0000
1000
,
0001
0000
0100
0000
,
0010
0000
0000
0000
,
0100
0000
0010
0000
,
1000
0000
0000
0000
,
0001
0000
0010
0000
,
0100
0000
0000
0000
,
0010
0000
0100
0000
,
1000
0000
0001
0000
,
1001
0000
0000
0000
;
