#TITLE:Seaside Labyrinth;
#SUBTITLE:;
#ARTIST:Dirty Androids;
#TITLETRANSLIT:;
#SUBTITLETRANSLIT:;
#ARTISTTRANSLIT:;
#CREDIT:DigiMindAxel;
#BANNER:Seaside Labyrinth.png;
#BACKGROUND:Seaside Labyrinth-bg.png;
#LYRICSPATH:;
#CDTITLE:beatmania IIDX.png;
#MUSIC:Seaside Labyrinth.ogg;
#METERTYPE:DDR X;
#OFFSET:-1.059;
#SAMPLESTART:87.038;
#SAMPLELENGTH:12.000;
#SELECTABLE:YES;
#BPMS:0.000=136.000;
#STOPS:;
#BGCHANGES:-4.000=Seaside Labyrinth.avi=1.000=1=1=0,
99999=-nosongbg-=1.000=0=0=0 // don't automatically add -songbackground-
;

//---------------dance-single - ----------------
#NOTES:
     dance-single:
     :
     Easy:
     3:
     0.199,0.215,0.024,0.177,0.000:
0000
0000
0000
0000
,
0000
0000
0000
0000
,
0000
0000
0000
0000
,
0000
0000
0000
0000
,
1000
0000
0001
0000
,
1000
0000
0001
0000
,
0010
0000
0100
0000
,
1000
0001
0001
0100
,
0020
0000
0000
0030
,
1001
0000
0001
0100
,
0002
0000
0000
1003
,
0100
0000
0010
0001
,
0200
0000
0000
0310
,
1000
0000
0100
0010
,
0001
0000
1000
0001
,
2000
0000
0000
3100
,
0020
0000
0000
0031
,
1000
0000
0100
0010
,
0200
0000
0000
1300
,
0020
0000
0000
0130
,
0001
0100
0010
0100
,
0002
0000
0003
1000
,
0200
0000
1300
0010
,
0200
0000
0000
0000
,
0302
0000
0000
0000
,
1003
0000
0100
0000
,
0010
0000
0001
0000
,
0010
0000
0100
0000
,
0010
0000
0001
0000
,
0200
0000
0000
0000
,
0310
0100
0010
0000
,
1000
0000
0100
0000
,
0010
0000
0100
0000
,
1000
0001
1000
0000
,
0001
0100
0001
0000
,
1000
0010
1000
0000
,
0001
1000
0001
0000
,
1000
0100
1000
0000
,
0001
1000
0001
0000
,
1000
0010
1000
0000
,
0220
0000
0000
0330
,
0010
0000
0100
0000
,
0001
0010
0100
1000
,
0001
0000
0010
0000
,
0001
1000
0010
0100
,
0001
0000
1000
0000
,
0100
0010
0001
0010
,
0200
0000
0000
0000
,
0020
0000
0000
0330
,
0010
0000
1000
0000
,
0020
0000
0000
0030
,
0100
0000
0001
0000
,
2000
0000
0000
3000
,
0100
0000
0010
0000
,
0002
0000
0013
0100
,
2000
0000
0000
0000
,
3002
0000
0000
0003
,
1000
0010
0100
0000
,
0010
0100
0001
0000
,
1000
0100
1000
0000
,
0001
0010
0001
0000
,
1000
0001
1000
0000
,
0100
1000
0010
0100
,
0002
0000
0000
0000
,
1003
0100
0010
0100
,
0000
1000
0000
0000
0000
0010
0000
0000
,
0000
0100
0000
0000
0001
0000
0000
1001
;

//---------------dance-single - ----------------
#NOTES:
     dance-single:
     :
     Medium:
     8:
     0.437,0.402,0.128,0.313,0.100: // measure 1
0000
0000
0000
0000
,  // measure 2
0000
0000
0000
0000
,  // measure 3
0000
0000
0000
0000
,  // measure 4
0000
0000
0000
0000
,  // measure 5
1000
0000
0010
0000
1000
1000
0010
0000
,  // measure 6
0100
0000
0001
0000
1000
1000
0001
0000
,  // measure 7
0100
0000
0000
0000
0001
0000
0000
0000
0010
0000
0000
0100
0000
0000
1000
0000
,  // measure 8
0000
0001
0001
1000
1000
0001
0001
1000
,  // measure 9
0100
0010
0001
0000
1000
0001
0010
0100
,  // measure 10
1000
0001
0200
0302
,  // measure 11
2003
0000
0100
0000
3100
0000
0010
0001
,  // measure 12
1000
0100
0010
0000
0001
0000
0200
0000
,  // measure 13
0010
0320
0000
0000
0100
0000
0130
0001
,  // measure 14
1000
0100
0020
0230
,  // measure 15
2300
0000
3001
0000
1000
0010
0100
0001
,  // measure 16
0020
0000
0000
0000
0100
0000
0000
0000
0130
0000
0000
0000
1000
0000
0000
0001
,  // measure 17
0000
0000
0010
0000
0000
0100
0000
0000
1000
0000
0000
0000
1001
0000
0000
0000
,  // measure 18
0001
1000
0010
1000
0001
0000
0010
0100
,  // measure 19
2000
0000
0010
0000
3010
0000
0100
0001
,  // measure 20
1000
0000
0100
0010
0002
0000
1000
0000
,  // measure 21
1003
0001
0100
0001
1000
0000
0100
0010
,  // measure 22
0001
0000
1000
0010
2000
0000
0010
0000
,  // measure 23
3010
0000
0000
0000
0100
0000
0001
0000
0010
0000
0100
0000
1000
0000
0000
1002
,  // measure 24
0000
0000
0000
0000
0100
0000
0000
0000
0100
0000
0000
0000
0103
0000
0000
0020
,  // measure 25
0000
0000
0000
0000
1000
0000
0000
0000
1000
0000
0000
0000
1030
0000
0000
1001
,  // measure 26
0000
0001
0010
0200
,  // measure 27
0010
0320
0001
0001
,  // measure 28
0032
0203
0320
1000
,  // measure 29
1000
0000
1000
0000
1030
0000
0001
0010
,  // measure 30
0200
0010
0010
0310
,  // measure 31
0001
1000
0100
0010
0002
0000
0103
0000
,  // measure 32
0020
0000
0100
0000
0130
0001
0010
0001
,  // measure 33
0100
0000
0000
0000
0010
0000
1000
0000
0100
0000
0010
0000
0001
0000
0000
1001
,  // measure 34
0000
0000
1000
0000
0010
0000
1000
0001
,  // measure 35
0020
0000
0001
0000
0031
1000
0010
1000
,  // measure 36
0001
0000
0010
0100
2000
0000
0010
0000
,  // measure 37
3020
0000
0100
0000
0130
0000
0001
0010
,  // measure 38
0200
1000
2300
0001
,  // measure 39
0001
0000
3001
1000
0100
0000
0010
0001
,  // measure 40
1000
0000
0010
0000
0100
0001
0100
0001
,  // measure 41
0000
0000
1001
0000
0000
1000
0000
0100
0000
1000
0000
0001
0000
0000
0000
0000
,  // measure 42
0000
0000
1000
0000
0000
0010
0000
1000
0000
0000
0001
0000
0000
0000
0000
1001
,  // measure 43
0000
0000
0001
0010
0100
0000
0010
0100
,  // measure 44
1000
0000
0000
0000
0001
0000
0000
0100
0000
0000
0010
0000
0000
0100
0000
0000
,  // measure 45
0001
0000
0010
0000
0100
0010
0001
1000
,  // measure 46
0000
0000
0100
0000
0000
1000
0000
0100
0000
0000
0010
0000
0000
0000
0000
1001
,  // measure 47
0000
0000
0001
0100
0010
0100
0010
1000
,  // measure 48
0100
0000
0010
0001
0010
0001
0100
0010
,  // measure 49
0000
0000
1000
0000
0001
0000
1000
0000
0001
0000
0010
0000
0100
0000
0000
1001
,  // measure 50
0000
0001
0200
0320
,  // measure 51
2030
0000
0001
0000
0001
0000
3001
1000
,  // measure 52
0100
0010
0100
0000
1000
0000
0001
0100
,  // measure 53
0020
0000
0100
0000
0100
0000
0130
0001
,  // measure 54
0010
0100
0010
0000
0002
0000
2003
0000
,  // measure 55
3001
0100
0010
0000
0200
0000
0302
0000
,  // measure 56
0023
0000
0000
0000
0100
0000
0000
0000
0100
0000
0000
0000
0130
0000
0000
1000
,  // measure 57
0000
0000
0100
0000
0000
0010
0000
0000
0001
0000
0000
0000
1001
0000
0000
0000
,  // measure 58
1000
0010
0100
0000
0010
1000
0100
0010
,  // measure 59
0002
0000
0100
0000
0103
0000
0010
1000
,  // measure 60
0001
0000
0010
0100
1000
0001
0100
0000
,  // measure 61
0020
0000
0100
0000
0130
0000
0001
1000
,  // measure 62
0100
0000
1001
0000
1000
0001
0010
0000
,  // measure 63
0200
0000
0000
0000
1000
0000
0000
0000
1300
0000
0001
0000
0100
0000
0000
1001
,  // measure 64
0000
0001
0100
1000
,  // measure 65
0100
0000
0001
0000
0010
0100
0010
0000
,  // measure 66
0000
0101
0000
0000
0100
0110
0000
0000
,  // measure 67
0010
0000
1010
0000
0000
1000
0000
0000
1001
0000
0000
0001
0000
0000
0101
0000
;

//---------------dance-single - ----------------
#NOTES:
     dance-single:
     :
     Hard:
     13:
     0.629,0.618,0.361,0.385,0.554: // measure 1
0000
0000
0000
0000
,  // measure 2
0000
0000
0000
0000
,  // measure 3
0000
0000
0000
0000
,  // measure 4
0000
0000
0000
0000
0000
0000
0000
0000
0000
0000
0000
0000
0000
0000
0000
1000
,  // measure 5
0000
0000
0000
0000
1001
0000
0000
0000
0001
0000
0001
0000
0100
0000
0000
0010
,  // measure 6
0000
0000
0000
0000
1000
0000
0000
0000
0100
0000
0100
0000
0010
0000
0000
0001
,  // measure 7
0000
0000
0000
0000
0010
0000
0000
0000
0100
0000
0000
1000
0000
0000
0001
1000
,  // measure 8
0000
0001
0001
1000
1000
0100
0100
1000
,  // measure 9
0001
0100
0001
0000
1000
0001
1000
0000
0001
0100
0001
1000
0100
0000
0000
1002
,  // measure 10
0000
0000
1003
0000
0001
0000
0100
0000
0020
0000
0000
0000
0230
0000
0000
0302
,  // measure 11
0000
0000
0000
0000
1003
0000
0100
0000
0010
0000
0100
0000
1000
0000
0001
0200
,  // measure 12
0000
0000
0301
0000
1000
0000
0100
0000
0010
0000
0100
0000
2000
0000
0000
3020
,  // measure 13
0000
0000
0230
0000
0000
0000
0000
0000
0301
0000
1000
0000
0100
0000
0010
0200
,  // measure 14
0000
0000
1300
0000
0001
0000
0100
0000
0002
0000
0000
0000
2003
0000
0000
3100
,  // measure 15
0000
0000
1100
0000
0000
0000
0000
0000
0210
0000
0000
0000
0301
0000
1000
0200
,  // measure 16
0000
0000
0000
0000
1300
0000
0000
0000
0010
0000
0001
0000
1000
0010
0000
1010
,  // measure 17
0000
0000
0110
0000
0000
0101
0000
0000
1001
0000
0000
0000
1000
0001
0000
0200
,  // measure 18
0000
0000
0301
0000
1000
0000
0010
0000
0100
0010
0100
0000
0010
0000
1000
0200
,  // measure 19
0000
0000
0310
0000
0000
0000
0001
0000
0100
0001
0000
0001
1000
0100
0000
2000
,  // measure 20
0000
0000
3001
0000
0000
0000
1000
0000
0100
0010
0100
0000
1000
0001
0000
0100
,  // measure 21
0000
0001
0000
0000
0020
0000
0200
0000
0000
0000
0330
0000
1000
0000
0010
0200
,  // measure 22
0000
0000
0310
0000
1000
0000
0001
0010
0001
0000
1000
0000
0010
0000
1000
0002
,  // measure 23
0000
0000
0013
0000
0000
0000
0100
1000
0000
1000
0000
0001
0100
0001
0000
1001
,  // measure 24
0000
0000
2000
0000
0000
0010
0000
0000
3010
0000
0100
0000
0001
0000
1000
0001
,  // measure 25
0000
0000
0010
0000
0100
0000
1000
0010
1000
0010
1000
0000
0001
1000
0000
1001
,  // measure 26
0000
0001
1000
0100
0001
0100
1000
0000
,  // measure 27
0001
0010
1000
0010
0001
0000
0010
0100
,  // measure 28
1000
0000
0001
0000
0100
0000
0002
0000
0000
0000
1000
0000
0000
1000
0000
0000
,  // measure 29
1003
0000
0000
0000
0001
0000
0100
0000
0001
0000
1000
0000
0100
1000
0000
0001
,  // measure 30
0000
1000
0001
0010
1000
0010
0001
0000
,  // measure 31
1000
0100
0001
0100
1000
0000
0100
0010
,  // measure 32
0001
0000
1000
0000
0010
0000
2000
0000
0000
0000
0001
0000
0000
0001
0000
0000
,  // measure 33
3002
0000
0000
0100
0000
0000
0103
0000
0000
0000
0010
0000
0100
0001
0000
1001
,  // measure 34
0000
0001
1000
0010
0001
0010
1000
0000
,  // measure 35
0001
0100
1000
0100
0001
0000
0100
0010
,  // measure 36
1000
0000
0001
0000
0010
0000
0002
0000
0000
0000
1000
0000
0000
1000
0000
0000
,  // measure 37
1003
0000
0000
0000
0001
0000
0010
0000
0001
0000
0000
0000
0100
0010
0000
1000
,  // measure 38
0000
0001
1000
0100
0001
0100
1000
0000
,  // measure 39
0001
0010
1000
0010
0001
0000
0010
0200
,  // measure 40
1000
0000
0000
1000
0000
0000
1300
0000
0000
0000
0001
0000
0100
0000
0001
1000
,  // measure 41
0000
0000
1001
0000
0000
1001
0000
0001
0000
0100
0000
0010
0100
0010
0000
0000
,  // measure 42
0000
0000
2000
0000
0000
0001
0000
3001
0000
0000
1001
0000
0000
0011
0000
0011
,  // measure 43
0000
0000
0100
0000
1000
0001
0100
0001
0100
0000
0010
0000
1000
0000
0100
0010
,  // measure 44
0000
0000
0000
0000
0001
0100
0000
0101
0000
0000
0101
0000
0000
1001
0000
1001
,  // measure 45
0000
0000
1000
0100
1000
0100
0010
0000
0110
0000
0000
0101
0000
0000
0000
1001
,  // measure 46
0000
0000
0002
0000
0000
0010
0000
0013
0000
0000
1001
0000
0000
1010
0000
1010
,  // measure 47
0000
0000
0010
0000
0100
0001
0000
0010
0000
0100
1000
0100
1000
0001
0100
0001
,  // measure 48
0000
0000
1000
0001
1000
0001
1000
0000
0100
0000
0010
0000
0001
0000
1000
0001
,  // measure 49
0000
0000
0010
0000
0010
0000
0010
0000
0100
1000
0100
0000
0010
0100
0010
0200
,  // measure 50
0000
0000
1300
0000
0001
0000
1000
0100
2000
0000
0000
0000
3200
0000
0000
0320
,  // measure 51
0000
0000
0000
0000
0130
0000
1000
0000
0001
0000
0000
0000
1000
0100
1000
0200
,  // measure 52
0000
0000
0310
0000
0001
0000
1000
0000
0010
0000
1000
0000
0002
0000
0000
0203
,  // measure 53
0000
0000
0320
0000
0000
0000
0000
0000
0130
0000
0001
0000
1000
0100
1000
0200
,  // measure 54
0000
0000
0310
0000
0001
0000
1000
0000
0002
0000
0000
0000
0023
0000
0000
0130
,  // measure 55
0000
0000
0110
0000
0000
0000
0100
0000
1000
0000
0010
0000
0001
0000
0010
2000
,  // measure 56
0000
0000
0000
0000
3001
0000
0100
0000
0010
0000
0100
0000
0001
1000
0000
1001
,  // measure 57
0000
0000
1001
0000
0000
0011
0000
0011
0000
0000
0000
0000
0001
1000
0001
2000
,  // measure 58
0000
0000
3100
0000
0010
0000
0001
0100
0001
0100
0001
0000
1000
0000
0100
0020
,  // measure 59
0000
0000
0130
0000
1000
0000
0001
0100
0000
0010
0000
0100
0001
1000
0000
2001
,  // measure 60
0000
0000
3001
0000
1000
0000
0100
0010
0100
0010
0100
0000
2000
0000
0000
0001
,  // measure 61
0000
3001
0000
0000
0101
0000
0210
0000
0000
0000
0301
0100
0001
1000
0100
0020
,  // measure 62
0000
0000
0030
0000
1001
0000
1000
0010
1000
0010
1000
0000
0001
0000
0010
0200
,  // measure 63
0000
0000
0310
0000
0000
0000
0001
1000
0000
1100
0000
0000
0010
0100
0000
0101
,  // measure 64
0000
0000
0002
0000
0000
1000
0000
0000
1003
0000
0001
0000
0010
0000
0100
0010
,  // measure 65
0000
0000
0001
0000
1000
0000
0010
0000
0100
0000
0010
0000
1000
0001
0000
0000
,  // measure 66
0000
0000
0011
0000
0000
0011
0000
0000
0100
0000
0110
0000
0000
0110
0000
0000
,  // measure 67
1000
0000
1010
0000
0000
0110
0000
0000
0101
0000
0000
0110
0000
0000
0010
1000
;

//---------------dance-single - ----------------
#NOTES:
     dance-single:
     :
     Beginner:
     1:
     0.075,0.107,0.048,0.000,0.000:
0000
0000
0000
0000
,
0000
0000
0000
0000
,
0000
0000
0000
0000
,
0000
0000
0000
0000
,
1000
0000
0000
0000
,
0000
0000
0000
0000
,
0100
0000
0000
0000
,
0000
0000
0000
0000
,
0010
0000
0000
0000
,
1001
0000
0000
0000
,
1000
0000
0000
0000
,
0001
0000
0000
0000
,
1000
0000
0000
0000
,
0100
0000
0000
0000
,
1000
0000
0000
0000
,
0100
0000
0000
0000
,
0010
0000
0000
0000
,
0001
0000
0000
0000
,
0100
0000
0000
0000
,
0001
0000
0000
0000
,
0100
0000
0000
0000
,
0001
0000
0000
0000
,
1000
0000
0000
0000
,
0001
0000
0000
0000
,
0000
0000
0000
0000
,
1001
0000
0000
0000
,
1000
0000
0000
0000
,
0100
0000
0000
0000
,
0000
0000
0000
0000
,
0010
0000
0000
0000
,
0001
0000
0000
0000
,
0100
0000
0000
0000
,
0000
0000
0000
0000
,
0010
0000
0000
0000
,
1000
0000
0000
0000
,
0001
0000
0000
0000
,
0000
0000
0000
0000
,
0010
0000
0000
0000
,
0001
0000
0000
0000
,
1000
0000
0000
0000
,
1001
0000
0000
0000
,
0001
0000
0000
0000
,
0100
0000
0000
0000
,
0001
0000
0000
0000
,
1000
0000
0000
0000
,
0100
0000
0000
0000
,
0010
0000
0000
0000
,
0001
0000
0000
0000
,
0100
0000
0000
0000
,
0110
0000
0000
0000
,
0010
0000
0000
0000
,
0100
0000
0000
0000
,
0010
0000
0000
0000
,
0100
0000
0000
0000
,
0010
0000
0000
0000
,
0100
0000
0000
0000
,
1001
0000
0000
0000
,
0001
0000
0000
0000
,
1000
0000
0000
0000
,
0100
0000
0000
0000
,
0010
0000
0000
0000
,
0001
0000
0000
0000
,
1000
0000
0000
0000
,
0010
0000
0000
0000
,
0100
0000
0000
0000
,
0000
1001
0000
0000
0000
1000
0000
0000
,
0000
0001
0000
0000
0000
0000
0000
0100
;
