#TITLE:Scars of FAUNA;
#SUBTITLE:;
#ARTIST:猫叉Master;
#TITLETRANSLIT:;
#SUBTITLETRANSLIT:;
#ARTISTTRANSLIT:Nekomata Master;
#CREDIT:DigiMindAxel;
#BANNER:Scars of FAUNA.png;
#BACKGROUND:Scars of FAUNA-bg.png;
#LYRICSPATH:;
#CDTITLE:jubeat.png;
#MUSIC:Scars of FAUNA.ogg;
#METERTYPE:DDR X;
#OFFSET:-5.440;
#SAMPLESTART:80.704;
#SAMPLELENGTH:12.000;
#SELECTABLE:YES;
#BPMS:0.000=165.000,36.000=82.500,48.000=165.000;
#STOPS:95.000=1.091
;
#BGCHANGES:;

//---------------dance-single - ----------------
#NOTES:
     dance-single:
     :
     Easy:
     5:
     0.208,0.235,0.096,0.217,0.000:
2000
0000
0000
3002
,
0000
0000
2003
0000
,
0000
3002
0000
0000
,
0203
0000
0000
0302
,
0000
0000
2003
0000
,
0000
3200
0000
0000
,
0320
0000
0000
0230
,
0000
0000
2300
0000
,
0000
3001
0001
0001
,
1001
0000
0000
0100
,
0000
0000
0110
0000
,
0000
0010
0000
0000
,
0110
0000
0000
0000
,
0000
0000
0100
0000
,
0000
1000
0000
0000
,
1001
0000
0000
1001
,
0000
0000
1001
0000
,
0000
1001
0000
0000
,
0001
0000
0100
0000
,
0001
0000
1000
0000
,
0100
0000
1000
0000
,
0010
0000
0100
0000
,
0010
0000
1000
0000
,
0001
0000
0010
0000
,
1001
0000
0000
0001
,
1000
0001
0100
0000
,
0000
0010
0100
0010
,
1000
0000
0000
0100
,
0010
0001
0010
0000
,
0000
0001
1000
0100
,
0020
0000
0000
0032
,
0000
0000
0103
0000
,
0000
0010
0100
0010
,
2000
0000
0000
3200
,
0000
0000
0310
0000
,
0000
0001
0100
0001
,
2000
0000
0000
0000
,
0000
0000
3200
0000
,
0000
0000
0000
0000
,
2300
0000
0000
0000
,
0000
0000
3001
0000
,
1000
0000
0001
0000
,
0010
0100
0010
0001
,
0000
1000
0000
0001
,
0100
0001
1000
0000
,
0100
0010
0100
1000
,
0000
0000
0020
0000
,
0000
0000
0000
0030
,
1001
0001
0001
0001
,
0000
0000
1000
0100
,
0010
0001
0000
0000
,
1000
1000
1000
1000
,
0000
0001
0000
0100
,
0000
0002
0000
0000
,
1003
1000
1000
1000
,
0000
0000
0001
0010
,
0100
1000
0000
0000
,
0001
0001
0001
0001
,
0000
0100
0000
0010
,
0000
2000
0000
0000
,
3002
0000
0000
0000
,
0000
0000
0203
0000
,
0000
0320
0000
0000
,
0230
0000
0000
0302
,
0000
0000
2003
0000
,
0000
3100
0010
0001
,
1000
0000
1000
0100
,
0000
0100
0010
0000
,
0010
0001
0000
0001
,
0100
0000
0100
0010
,
0000
0010
1000
0000
,
1000
0001
0000
0000
,
1001
0000
0000
0110
,
0000
0110
0000
0000
;

//---------------dance-single - ----------------
#NOTES:
     dance-single:
     :
     Medium:
     8:
     0.345,0.382,0.136,0.201,0.004:
2000
0000
0000
3002
,
0000
0000
2003
0000
,
0000
3002
0000
0000
,
1003
0000
1000
0010
,
0000
0010
0100
0000
,
0100
0001
0000
0001
,
0010
0000
0010
0100
,
0000
0100
1000
0000
,
1000
0000
0000
0000
0001
0000
0000
0001
0000
0000
0001
0000
0000
0000
0000
0000
,
2001
0000
0000
0000
0000
3100
0020
0000
,
0000
0032
0000
0000
0203
0000
0000
0302
,
0000
0000
2003
0000
0000
3100
0010
0100
,
0020
0000
0000
0000
,
0000
0031
0200
0000
,
0000
0320
0000
0000
,
1030
0000
1001
0001
,
0000
1001
0100
0000
,
0110
0010
0100
0010
,
1000
0000
0000
0001
0100
0000
0001
0000
,
0000
1000
0100
0000
0010
0000
0000
0001
,
0100
0000
0010
0000
0000
0100
0010
0000
,
1000
0000
0000
0100
1000
0000
0010
0000
,
0000
0100
0001
0000
0010
0000
0000
0100
,
1000
0000
0010
0000
0000
0100
0020
0030
,
1000
0000
0001
0000
0001
0000
0010
0100
,
0010
0001
0100
0010
,
0010
0000
1000
0001
1000
0000
0100
0000
,
0010
0000
0100
0000
0100
0000
1000
0010
,
1000
0001
0010
0100
,
0100
0000
0010
0001
0010
0000
0100
0000
,
2000
0001
3001
0200
,
0010
0310
2000
0100
,
3100
0000
1000
0100
0010
0000
0001
0000
,
0200
0010
0310
2000
,
0010
3010
0100
0001
,
0010
0000
0100
1000
0001
0000
0010
0000
,
0100
0000
0000
0100
0000
0000
0100
0000
,
0000
0000
0000
0000
1000
0000
0000
1000
,
0000
1000
0000
0000
,
0001
0000
0000
0001
0000
0000
0001
0000
,
0000
0000
1000
0100
,
0010
0000
0100
1000
0001
0000
0001
0000
,
0100
0010
0010
0100
,
0001
0010
0100
0000
1000
0000
0010
0000
,
0010
0000
1000
0000
0100
0010
0001
0000
,
1000
0010
0010
0100
,
0001
0010
0100
0000
2000
0000
0000
0000
,
0000
0000
0000
3000
,
0110
0000
0010
0100
0010
0000
0010
0000
,
1000
0001
1000
0000
1000
0000
0100
0000
,
0010
0001
0000
0000
,
0100
0000
0100
0010
0100
0000
0100
0000
,
0000
0100
0000
0000
0002
0000
0000
0000
,
0013
0100
1000
0000
0000
0000
0000
0000
,
1001
0000
0001
1000
0001
0000
0001
0000
,
1000
0100
1000
0000
1000
0000
0010
0000
,
0100
0001
1000
0000
,
0001
0000
0001
1000
0001
0000
0010
0000
,
0000
0100
0000
1000
0020
0000
0000
0000
,
0130
1001
0010
0100
,
2000
0000
0001
0000
0000
0001
0000
0000
,
3001
1000
0020
0000
,
0000
0230
0000
0000
,
0301
0000
1001
0110
,
0000
0110
0101
0000
,
0101
1001
0010
0100
,
1000
0000
0001
0100
0001
0000
1000
0000
,
0100
1000
0100
0000
0010
0000
0001
0100
,
0001
0000
0010
0000
0100
1000
0100
0000
,
0010
0000
0001
0100
0010
0000
0100
0000
,
0001
0010
0100
0000
1000
0000
0010
0100
,
0001
0000
1000
0000
0100
0010
0001
0000
,
1001
0000
0101
1010
,
0000
0110
0000
0000
;

//---------------dance-single - ----------------
#NOTES:
     dance-single:
     :
     Hard:
     13:
     0.623,0.617,0.329,0.152,0.357:
1000
0000
0000
1000
0000
0000
1000
0000
0100
0000
0000
0000
0010
0000
0000
0010
,
0000
0000
0010
0000
0100
0000
0000
0000
0010
0000
0000
0010
0000
0000
0010
0000
,
0001
0000
0000
0000
0100
0000
0000
0100
0000
0000
0100
0000
0010
0000
0000
0000
,
1001
0000
0000
1000
0000
0000
0010
0000
0100
0000
0000
0000
0001
0000
0000
0001
,
0000
0000
0100
0010
1000
0000
0000
0000
0100
0000
0000
0100
0000
0000
0010
0000
,
0001
0000
0000
0000
0010
0000
0000
0010
0000
0000
0100
1000
0010
0000
0000
0000
,
1001
0000
0000
0001
0000
0000
0100
0000
0001
0000
0000
0000
0010
0000
0000
0010
,
0000
0000
0010
0100
1000
0000
0000
0000
0100
0000
0000
0100
0000
0000
0010
0000
,
0001
0000
0000
0000
0010
0000
0100
1000
0000
0100
1000
0000
0010
0000
0000
0000
,
0210
0000
0000
0000
0000
0000
0000
0000
0000
0000
0301
0010
0200
0000
0000
0000
,
0000
0000
2000
0000
0000
0000
3300
0000
1002
0000
0000
0000
0013
0100
2000
0000
,
0000
0010
0000
0000
3020
0000
0000
0000
0130
0000
0001
0000
0010
0000
0100
0000
,
2002
0000
0000
0000
,
3000
0000
0013
0100
2000
0000
0000
0000
,
0000
0000
0000
0000
3020
0000
0000
0000
0000
0000
0130
0010
0100
0000
0000
0000
,
0010
0000
0000
0010
0000
0000
0010
0000
1001
0000
0000
0000
0100
0000
0000
0100
,
0000
0000
0100
0000
1001
0000
0000
0000
0010
0000
0000
0010
0000
0000
0010
0000
,
1001
0000
0000
0000
0001
0000
1000
0010
1000
0000
0000
0000
0001
1000
0001
1000
,
0001
1000
0100
1000
0001
0000
0001
0100
,
0010
0100
0001
0000
0001
1000
0100
0010
,
0100
0000
0100
1000
0010
0100
0010
0000
,
0010
1000
0100
0010
0100
0000
0100
0010
,
0001
1000
0010
0000
0010
0100
0001
0010
,
0100
0000
1000
0000
0001
0000
0100
0001
0000
0100
0001
0000
2000
0000
3000
0000
,
1001
0000
0000
0000
0011
0000
0000
0000
0110
0000
0000
0100
1000
0000
0001
0000
,
0100
0001
0010
0100
1000
0000
1100
0000
,
0110
0000
0000
0010
0001
0000
1000
0000
0100
0000
1000
0000
0010
0100
0001
0000
,
1000
0000
0000
0000
1001
0000
0000
0000
0101
0000
0000
0100
0010
0000
1000
0000
,
0100
0010
0100
1000
0010
0000
0101
0000
,
0110
0000
0000
0010
1000
0000
0100
0000
0010
0000
0100
0000
1000
0000
0001
0000
,
0201
0000
0000
0000
0010
0000
0000
0000
0301
0000
0000
0000
1000
0100
1000
0000
,
0001
1000
0001
0000
1000
0000
0100
0000
0020
0000
0000
0000
0001
0000
0000
0000
,
0130
0000
0000
0001
1000
0000
0100
0000
1000
0000
0010
0000
0000
0000
0010
0000
,
0210
0000
0000
0000
0001
0000
0000
0000
0310
0000
0000
0000
1000
0100
1000
0000
,
0001
1000
0001
0000
1000
0000
0100
0000
0020
0000
0000
0000
0001
0000
0000
0000
,
0130
0000
0000
0010
1000
0000
0100
0000
0010
0000
0001
0100
0001
0000
1000
0001
,
1000
0000
0100
1100
0000
0010
0110
0000
,
0100
0010
0001
1000
0100
0000
1000
1001
,
0000
0100
0101
0000
0010
0100
1000
0100
,
0010
0000
0001
0101
0000
0010
0110
0000
,
0100
0000
1000
0000
0010
0100
0010
0100
0010
0000
0000
0000
1000
0000
0001
0000
,
0100
0000
0001
0100
0010
0000
1000
0000
0100
0000
0010
0000
0001
1000
0001
1000
,
0001
0000
0000
0000
1000
0000
0000
1000
0010
0000
0000
0010
0100
0000
0000
0000
,
0001
0000
0100
0000
1000
0000
0100
0000
0001
0000
0000
0000
0010
0000
0000
0010
,
0100
0000
0000
0100
1000
0000
0000
0000
0001
0000
0100
0001
0010
0000
0000
0000
,
1001
0000
0000
0001
0100
0000
0000
0100
0010
0000
0000
0010
1000
0000
0000
0000
,
0100
0010
0001
0010
0200
0000
0000
0000
,
0000
1000
1000
1300
,
1001
0000
0000
0001
1000
0000
0100
0000
0010
0000
0001
0000
1000
0000
0000
0001
,
1000
0000
0100
0000
0001
0000
0100
0000
1000
0000
0100
0010
0002
0000
0100
0000
,
0000
0103
0001
0000
0010
0100
1000
0001
,
1001
0000
0000
0001
1000
0000
0100
0000
0010
0000
0001
0000
1000
0000
0000
0000
,
1000
0010
0001
0010
1000
0000
0100
0010
,
0001
0000
0010
0000
0100
1000
0000
0100
1000
0000
0010
0100
0000
0010
0100
0000
,
1001
0000
0000
1000
0001
0000
0010
0000
0100
0000
1000
0000
0001
0000
0000
1000
,
0001
0000
0100
0000
1000
0000
0100
0000
0001
0000
0010
0100
2000
0000
0001
0000
,
0000
3001
1000
0000
0100
0010
0001
0010
,
0100
0000
0000
0100
1000
0000
0010
0000
0100
0000
0001
0000
0020
0000
0000
0000
,
1000
1000
0000
0100
0130
0000
0001
0000
,
1000
0000
0010
0000
0100
0000
0001
1000
0000
0001
1000
0000
0010
0100
0000
0010
,
0100
0000
0001
0010
0100
1000
0010
0000
,
0010
0100
0001
0010
0100
0000
0100
1000
,
0001
0100
0001
0000
0001
0010
0100
1000
,
1010
0000
0000
0010
0000
0000
0010
0000
1001
0000
0000
0000
0001
0000
0000
0001
,
0000
0000
0001
0000
0110
0000
0000
0000
1000
0000
0000
1000
0000
0000
1000
0000
,
0110
0000
0000
0000
0010
0000
0001
1000
0000
0001
1000
0000
0100
0000
0010
0000
,
0001
0000
0000
0100
0001
0000
1000
0000
0100
0000
0000
0000
0010
0000
0000
0010
,
0100
0000
1000
0100
0010
0000
0000
0000
0001
0000
0000
0001
0100
0000
0010
0000
,
0100
0000
0000
0000
0001
0000
0000
0001
1000
0000
0010
0100
0001
0000
0000
0000
,
0010
0000
0000
0010
0100
0000
1000
0000
0001
0000
0000
0000
0100
0000
0000
0100
,
0001
0000
0010
0100
1000
0000
0000
0000
0010
0000
0000
0010
0100
0000
0001
0000
,
0010
0000
0000
0000
0100
0000
1000
0010
0000
1000
0010
0000
0100
0000
0000
0000
,
1001
0000
0000
1001
0000
0000
1001
0000
1100
0000
0000
0000
0101
0000
0000
0101
,
0000
0110
1001
0000
0000
0000
0000
0000
;

//---------------dance-double - ----------------
#NOTES:
     dance-double:
     :
     Easy:
     5:
     0.217,0.235,0.104,0.193,0.000:
10000000
00000000
00000000
01000000
,
00000000
00000000
10000000
00000000
,
00000000
01000000
00000000
00000000
,
10020000
00000000
00000000
00230000
,
00000000
00000000
00302000
00000000
,
00000000
00023000
00000000
00000000
,
00030200
00000000
00000000
00000320
,
00000000
00000000
00000032
00000000
,
00000000
00001003
00001000
00001000
,
00001001
00000000
00000000
00000010
,
00000000
00000000
00011000
00000000
,
00000000
00100000
00000000
00000000
,
20010000
00000000
00000000
00000000
,
00000000
00000000
31000000
00000000
,
00000000
00100000
00000000
00000000
,
10010000
00000000
00000000
10010000
,
00000000
00000000
01100000
00000000
,
00000000
01100000
00000000
00000000
,
00100000
00000000
00010000
00000000
,
00100000
00000000
00001000
00000000
,
00010000
00000000
00001000
00000000
,
00010000
00000000
00000010
00000000
,
00010000
00000000
00000010
00000000
,
00000100
00000000
00000001
00000000
,
00001001
00000000
00000000
00001000
,
00000100
00000010
00000001
00000000
,
00000000
00000100
00000001
00010000
,
00001000
00000000
00000000
00100000
,
01000000
10000000
00100000
00000000
,
00000000
01000000
00010000
10000000
,
02000000
00000000
00000000
03200000
,
00000000
00000000
00310000
00000000
,
00000000
01000000
00010000
01000000
,
00002000
00000000
00000000
00023000
,
00000000
00000000
00030100
00000000
,
00000000
00000010
00000001
00000010
,
00000200
00000000
00000000
00000000
,
00000000
00000000
00020300
00000000
,
00000000
00000000
00000000
00000000
,
00032000
00000000
00000000
00000000
,
00000000
00000000
10003000
01000000
,
10000000
00000000
00010000
10000000
,
00010000
00100000
01000000
10000000
,
00000000
10000000
00000000
00100000
,
01000000
00010000
00001000
00000000
,
00010000
00000100
00000010
00000001
,
00000000
00000100
00000020
00000000
,
00000000
00000000
00000000
00000030
,
00001001
00001000
00001000
00001000
,
00000000
00000000
00000001
00000100
,
00000010
00010000
00000000
00000000
,
00001000
00001000
00001000
00001000
,
00000000
00100000
01000000
00100000
,
00010000
20000000
00000000
00000000
,
31000000
01000000
01000000
01000000
,
00000000
00000000
00100000
00001000
,
00010000
00000100
00000000
00000000
,
00000010
00000010
00000010
00000010
,
00000000
00000001
00001000
00000001
,
00010000
00002000
00000000
00000000
,
00203000
00000000
00000000
00000000
,
00000000
00000000
00320000
00000000
,
00000000
20030000
00000000
00000000
,
30020000
00000000
10030000
00200000
,
00000000
01300000
00020000
00000000
,
10030000
00010000
01000000
00001000
,
00010000
00000000
00010000
00000010
,
00000000
00000010
00000100
00000000
,
00000100
00000001
00000000
00000001
,
00010000
00000000
00010000
00001000
,
00000000
00001000
00100000
00000000
,
00100000
01000000
00000000
00000000
,
10010000
00000000
00000000
01100000
,
00000000
01100000
00000000
00000000
;

//---------------dance-double - ----------------
#NOTES:
     dance-double:
     :
     Medium:
     9:
     0.392,0.441,0.185,0.217,0.004:
20000000
00000000
00000000
30000000
00000000
00000000
00020000
00000000
,
00000000
00030000
00000000
00000000
02000000
00000000
00000000
03000000
,
00000000
00000000
00002000
00000000
00000000
00003000
00000000
00000000
,
00010000
00000000
00000000
00010000
00000000
00000000
00000100
00000000
,
00000000
00000100
00000000
00000000
00000010
00000000
00000000
00000010
,
00000000
00000000
00000001
00000000
00000000
00000001
00000000
00000000
,
00000100
00000000
00000000
00000100
00000000
00000000
00000010
00000000
,
00000000
00000010
00000000
00000000
00010000
00000000
00000000
00010000
,
00000000
00000000
00000000
00000000
00001000
00000000
00000000
00001000
00000000
00000000
00001000
00000000
00000000
00000000
00000000
00000000
,
02100000
00000000
00000000
00000000
00000000
03010000
20000000
00000000
,
00000000
30200000
00000000
00000000
00320000
00000000
00000000
00230000
,
00000000
00000000
20300000
00000000
00000000
31000000
00100000
00001000
,
00020000
00000000
00000000
00000000
,
00000000
00030100
00000020
00000000
,
00000000
00000032
00000000
00000000
,
00001003
00000000
00000110
00010010
,
00000000
00011000
01001000
00000000
,
10010000
00000000
10000000
00010000
10000000
00000000
01000000
10000000
,
00100000
00000000
00000000
00100000
01000000
00000000
00001000
00000000
,
00000000
00001000
00010000
00000000
00000100
00000000
00000000
00000100
,
00000010
00000000
00000001
00000000
00000000
00000001
00000100
00000000
,
00000010
00000000
00000000
00000010
00010000
00000000
00001000
00000000
,
00000000
00001000
00100000
00000000
01000000
00000000
00000000
01000000
,
00100000
00000000
00010000
00000000
00000000
00010000
20000000
30000000
,
00100000
00000000
00100000
00000000
00100000
00000000
10000000
00010000
,
10000000
00010000
00100000
00000000
00001000
00000000
00001000
00000000
,
00001000
00000000
00010000
00000010
00010000
00000010
00000100
00000000
,
00000001
00000000
00000001
00000000
00000001
00000000
00000010
00000100
,
00000010
00000100
00001000
00000000
00010000
00000000
00010000
00000000
,
00010000
00000000
01000000
00100000
01000000
00100000
00000000
10000000
,
02000000
00100000
03100000
00011000
,
00011000
00011000
00000020
00000100
,
00000130
00000000
00000001
00000010
00000001
00000010
00000000
00000100
,
00000020
00000001
00000031
00011000
,
00011000
00011000
02000000
00100000
,
03100000
00000000
10000000
01000000
10000000
01000000
00000000
00100000
,
02000000
00000000
00000000
10000000
00000000
00000000
13000000
00000000
,
00000000
00000000
00000000
00000000
00002000
00000000
00000000
01000000
,
00000000
01003000
00000000
00000000
,
00020000
00000000
00000000
00000100
00000000
00000000
00030100
00000000
,
00000000
00000000
00000010
00000001
00000010
00000000
00000001
00000000
,
00000100
00000000
00000010
00010000
00001000
00000000
00100000
01000000
,
00100000
00010000
00010000
00010000
,
00100000
01000000
10000000
01000000
00100000
00000000
00001000
00000000
,
00001000
00000000
00001000
00000000
00010000
00000010
00000100
00000010
,
00010000
00000001
00000001
00000001
,
00000010
00000100
00010000
00001000
00020000
00000000
00000000
00000000
,
00000000
00000000
00000000
00030000
,
00011000
00000000
00001000
00100000
01000000
00100000
00001000
00000000
,
01000000
00100000
01000000
00010000
10000000
00000000
01000000
00000000
,
00100000
00000000
00001000
00000000
00000000
00010000
00000000
00000010
,
00000100
00000000
00000001
00000010
00000100
00000010
00000001
00000000
,
00000000
00000100
00000000
00000000
00000020
00000000
00000000
00000000
,
00000130
00000010
00000100
00000000
00000000
00000000
00000000
00000000
,
00011000
00000000
00001000
01000000
00100000
01000000
00001000
00000000
,
01000000
00100000
01000000
00100000
10000000
00000000
01000000
00000000
,
00100000
00000000
00001000
00000000
00000000
00010000
00000000
00000100
,
00000010
00000000
00000001
00000100
00000010
00000100
00000001
00000000
,
00000000
00010000
00000000
00001000
02000000
00000000
00000000
00000000
,
03100000
01100000
10000000
01000000
,
00200000
00000000
00001000
00000000
00000000
00001000
00000000
00000000
,
00301000
00010000
00000200
00000000
,
00000000
00000320
00000000
00000000
,
00000031
00000000
00000011
00010001
,
00000000
00011000
01001000
00000000
,
01100000
11000000
10000000
00010000
,
01000000
00100000
10000000
01000000
10000000
00000000
00100000
01000000
,
00001000
01000000
00001000
00000000
00010000
00000100
00000010
00000001
,
00000010
00000000
00000001
00001000
00000010
00010000
00001000
00000000
,
00100000
01000000
10000000
01000000
00100000
00000000
00001000
01000000
,
00100000
01000000
00001000
00000000
00010000
00000100
00000010
00000100
,
00010000
00000000
00000001
00001000
00000100
00001000
00000001
00000000
,
00001001
00000000
00000000
00001000
00000100
00000000
00011000
00000000
,
00000000
01000000
00100000
00000000
00000000
00000000
00000000
00000000
;

//---------------dance-double - ----------------
#NOTES:
     dance-double:
     :
     Hard:
     13:
     0.633,0.617,0.313,0.161,0.361:
10000000
00000000
00000000
10000000
00000000
00000000
10000000
00000000
00010000
00000000
00000000
00000000
01000000
00000000
00000000
01000000
,
00000000
00000000
01000000
00000000
00001000
00000000
00000000
00000000
10000000
00000000
00000000
10000000
00000000
00000000
10000000
00000000
,
00100000
00000000
00000000
00000000
01000000
00000000
00000000
01000000
00000000
00000000
01000000
00000000
00001000
00000000
00000000
00000000
,
00011000
00000000
00000000
00010000
00000000
00000000
00000010
00000000
00000100
00000000
00000000
00000000
00000001
00000000
00000000
00000001
,
00000000
00000000
00000100
00000010
00000100
00000000
00000000
00000000
00000010
00000000
00000000
00000010
00000000
00000000
00001000
00000000
,
00010000
00000000
00000000
00000000
01000000
00000000
00000000
01000000
00000000
00000000
00010000
01000000
00010000
00000000
00000000
00000000
,
10010000
00000000
00000000
10000000
00000000
00000000
00100000
00000000
01000000
00000000
00000000
00000000
00001000
00000000
00000000
00001000
,
00000000
00000000
00010000
00000010
00010000
00000000
00000000
00000000
00000010
00000000
00000000
00000010
00000000
00000000
00000100
00000000
,
00000001
00000000
00000000
00000000
00000010
00000000
00000100
00010000
00000000
00000100
00010000
00000000
00001000
00000000
00000000
00000000
,
02100000
00000000
00000000
00000000
00000000
00000000
00000000
00000000
00000000
00000000
03010000
10000000
00020000
00000000
00000000
00000000
,
00000000
00000000
02000000
00000000
00000000
00000000
03030000
00000000
01200000
00000000
00000000
00000000
10300000
01000000
00200000
00000000
,
00000000
00001000
00000000
00000000
00302000
00000000
00000000
00000000
00013000
00000000
00000100
00000000
00000010
00000000
00000001
00000000
,
00000110
00000000
00000100
00000010
00000000
00000100
00000010
00000000
,
00001000
00000001
00000000
00001000
00000001
00000000
00010000
00000100
,
00000000
00000000
00010000
00000000
00000100
00000000
00000000
00000000
00010000
00000000
00001000
00010000
00001000
00000000
00000000
00000000
,
01000000
00000000
00000000
01000000
00000000
00000000
01000000
00000000
10010000
00000000
00000000
00000000
00100000
00000000
00000000
00100000
,
00000000
00000000
00100000
00000000
10010000
00000000
00000000
00000000
10000000
00000000
00000000
10000000
00000000
00000000
10000000
00000000
,
01100000
00000000
00000000
00000000
00001000
00000000
00010000
00001000
00010000
00000000
00000000
00000000
00000010
00010000
00000010
00010000
,
00000010
00000100
00000001
00000010
00000100
00000000
00010000
00001000
,
01000000
00100000
01000000
00000000
00100000
01000000
00010000
10000000
,
00001000
00000000
00010000
00000100
00000010
00000001
00000100
00000000
,
00000010
00000100
00000001
00000010
00000100
00000000
00010000
00001000
,
00100000
01000000
10000000
00000000
00100000
10000000
01000000
00100000
,
00001000
00000000
00010000
00000000
00000010
00000000
00000100
00000001
00000000
00000100
00000001
00000000
00020000
00000000
00030000
00000000
,
00011000
00000000
00000000
00000000
01100000
00000000
00000000
00000000
01100000
00000000
00000000
01000000
10000000
00000000
00100000
00000000
,
00010000
00100000
10000000
00001000
00011000
00000000
00000110
00000000
,
00000110
00000000
00000000
00000010
00000100
00000000
00000001
00000000
00000010
00000000
00000100
00000000
00010000
00000100
00010000
00000000
,
00011000
00000000
00000000
00000000
01100000
00000000
00000000
00000000
01100000
00000000
00000000
01000000
10000000
00000000
00100000
00000000
,
00010000
00100000
10000000
00001000
00011000
00000000
00000110
00000000
,
00000110
00000000
00000000
00000100
00000001
00000000
00000010
00000000
00000100
00000000
00001000
00000000
00000010
00000000
00010000
00000000
,
00011000
00000000
00000000
00000000
00001000
00000000
01000000
00000000
00001000
00000000
00000000
00000000
01000000
00100000
01000000
00000000
,
00100000
01000000
00100000
00000000
10000000
00000000
01000000
00000000
00100000
00000000
00000000
00000000
00001000
00000000
00010000
00000000
,
00001000
00000000
00000000
00010000
00000010
00000000
00001000
00000000
00000001
00000000
00000010
00000000
00000000
00000000
00000100
00000000
,
00000110
00000000
00000000
00000000
00010000
00000000
00000100
00000000
00010000
00000000
00000000
00000000
00001000
10000000
00001000
00000000
,
10000000
00001000
10000000
00000000
01000000
00000000
00100000
00000000
00001000
00000000
00000000
00000000
00010000
00000000
00000010
00000000
,
00010000
00000000
00000000
00000010
00000100
00000000
00000001
00000000
00000010
00000000
00000100
00000010
00000100
00000000
00010000
00000100
,
00010000
00002000
02003000
03002000
,
00103000
01000000
10000000
01000000
00100000
00000000
00002000
00000000
,
00023000
00000000
00030020
00000000
00000130
00000001
00000010
00000000
,
00000110
00000020
00002030
00023000
,
00130000
00000000
01000000
00000000
10000000
00010000
10000000
00010000
10000000
00000000
00000000
00000000
01000000
00000000
00100000
00000000
,
00010000
00000000
00001000
00010000
00001000
00000000
00010000
00000000
00000010
00000000
00000100
00000000
00000001
00001000
00000001
00001000
,
00000001
00000000
00000000
00000000
00000010
00000000
00000000
00000010
00000100
00000000
00000000
00000100
00010000
00000000
00000000
00000000
,
00001000
00000000
00100000
00000000
01000000
00000000
10000000
00000000
00100000
00000000
00000000
00000000
01000000
00000000
00000000
01000000
,
00001000
00000000
00000000
00001000
00010000
00000000
00000000
00000000
00000100
00000000
00000010
00000001
00000010
00000000
00000000
00000000
,
00001001
00000000
00000000
00000001
00000100
00000000
00000000
00000100
00000010
00000000
00000000
00000010
00001000
00000000
00000000
00001000
,
00010000
01000000
00100000
10000000
00200000
00000000
00000000
00000000
,
00000000
01000000
01000000
01300000
,
10010000
00000000
00000000
00010000
10000000
00000000
01000000
00000000
00100000
00000000
00001000
00000000
00010000
00000000
00000000
00000010
,
00000100
00000000
00000001
00000000
00000010
00000000
00000100
00000000
00001000
00000000
00010000
01000000
00200000
00000000
01000000
00000000
,
00000000
01300000
00010000
00100000
01000000
00000000
10000000
00010000
,
10010000
00000000
00000000
00100000
01000000
00000000
00001000
00000000
00010000
00000000
00000100
00000000
00000010
00000000
00000000
00000000
,
00000001
00000100
00000010
00000100
00000001
00000000
00000010
00000100
,
00001000
00000000
00010000
00000000
01000000
00100000
00000000
01000000
00100000
00000000
10000000
01000000
00000000
10000000
01000000
00000000
,
10010000
00000000
00000000
00010000
00100000
00000000
00010000
00000000
00001000
00000000
00000010
00000000
00000100
00000000
00000000
00000001
,
00000100
00000000
00000010
00000000
00010000
00000000
00001000
00000000
00100000
00000000
01000000
10000000
02000000
00000000
00100000
00000000
,
00000000
03100000
00010000
00000000
01000000
00010000
00100000
01000000
,
00100000
00000000
00000000
00001000
00010000
00000000
00000100
00000000
00000010
00000000
00000100
00000000
00010000
00000000
00000000
00000000
,
00000020
00000100
00000000
00000130
00000001
00000000
00000010
00000000
,
00000100
00000000
00000010
00000000
00000001
00000000
00001000
00000010
00000000
00001000
00000010
00000000
00010000
00001000
00000000
00010000
,
00001000
00000000
01000000
10000000
01000000
00001000
00100000
00000000
,
00010000
00001000
00000100
00000010
00000001
00000000
00000100
00001000
,
00000100
00000001
00010000
00000000
00001000
00100000
01000000
10000000
,
10100000
00000000
00000000
10000000
00000000
00000000
10000000
00000000
01100000
00000000
00000000
00000000
00100000
00000000
00000000
00100000
,
00000000
00000000
00100000
00000000
10010000
00000000
00000000
00000000
00001000
00000000
00000000
00001000
00000000
00000000
00001000
00000000
,
00010100
00000000
00000000
00000000
00000010
00000000
00000001
00000100
00000000
00000001
00000100
00000000
00000001
00000000
00000010
00000000
,
00000100
00000000
00000000
00010000
00001000
00000000
01000000
00000000
00100000
00000000
00000000
00000000
10000000
00000000
00000000
10000000
,
00100000
00000000
01000000
00010000
01000000
00000000
00000000
00000000
00010000
00000000
00000000
00010000
00001000
00000000
00000010
00000000
,
00000100
00000000
00000000
00000000
00000010
00000000
00000000
00000010
00000100
00000000
00000001
00000010
00000001
00000000
00000000
00000000
,
00000100
00000000
00000000
00000100
00000010
00000000
00001000
00000000
00010000
00000000
00000000
00000000
01000000
00000000
00000000
01000000
,
00100000
00000000
10000000
01000000
10000000
00000000
00000000
00000000
00100000
00000000
00000000
00100000
01000000
00000000
00010000
00000000
,
00001000
00000000
00000000
00000000
00000010
00000000
00000100
00000001
00000000
00000100
00000001
00000000
00010000
00000000
00000000
00000000
,
00011000
00000000
00000000
00011000
00000000
00000000
00011000
00000000
01001000
00000000
00000000
00000000
01100000
00000000
00000000
01100000
,
00000000
01100000
11000000
00000000
00000000
00000000
00000000
00000000
;

//---------------dance-single - ----------------
#NOTES:
     dance-single:
     :
     Beginner:
     2:
     0.102,0.117,0.096,0.000,0.000: // measure 1
1000
0000
0000
0000
,  // measure 2
0000
0000
1000
0000
,  // measure 3
0000
0000
0000
0000
,  // measure 4
0001
0000
0000
0000
,  // measure 5
0000
0000
0001
0000
,  // measure 6
0000
0000
0000
0000
,  // measure 7
1000
0000
0000
0000
,  // measure 8
0000
0000
1000
0000
,  // measure 9
0000
0000
0000
0000
,  // measure 10
0010
0000
0000
0000
,  // measure 11
0000
0000
0110
0000
,  // measure 12
0000
0000
0000
0000
,  // measure 13
0100
0000
0000
0000
,  // measure 14
0000
0000
0001
0000
,  // measure 15
0000
0000
0000
0000
,  // measure 16
1000
0000
0000
0100
,  // measure 17
0000
0000
0010
0000
,  // measure 18
0000
0001
0000
0000
,  // measure 19
1001
0000
0000
1000
,  // measure 20
0000
0000
1000
0000
,  // measure 21
0000
1000
0000
0000
,  // measure 22
0001
0000
0000
0001
,  // measure 23
0000
0000
0001
0000
,  // measure 24
0000
0001
0000
0000
,  // measure 25
0100
0000
0000
0100
,  // measure 26
0000
0000
0010
0000
,  // measure 27
0000
0010
0000
0000
,  // measure 28
0100
0000
0000
0100
,  // measure 29
0000
0000
0010
0000
,  // measure 30
0000
0010
0000
0000
,  // measure 31
1001
0000
0000
0000
,  // measure 32
0000
0000
0010
0000
,  // measure 33
0000
0000
0000
0000
,  // measure 34
1001
0000
0000
0000
,  // measure 35
0000
0000
0100
0000
,  // measure 36
0000
0000
0000
0000
,  // measure 37
0110
0000
0000
0000
,  // measure 38
0000
0000
0010
0000
,  // measure 39
0000
0000
0000
0000
,  // measure 40
0100
0000
0000
0000
,  // measure 41
0000
0000
0001
0000
,  // measure 42
0000
0000
0000
0000
,  // measure 43
0010
0000
0000
0000
,  // measure 44
0100
0000
1000
0000
,  // measure 45
0000
0000
0010
0000
,  // measure 46
0100
0000
0000
0000
,  // measure 47
0001
0000
1000
0000
,  // measure 48
0000
0000
0000
0000
,  // measure 49
1001
0000
0000
0001
,  // measure 50
0000
0000
1000
0000
,  // measure 51
0000
0001
0000
0000
,  // measure 52
0100
0000
0000
0010
,  // measure 53
0000
0000
0100
0000
,  // measure 54
0000
0001
0000
0000
,  // measure 55
1001
0000
0000
0001
,  // measure 56
0000
0000
1000
0000
,  // measure 57
0000
0100
0000
0000
,  // measure 58
1000
0000
0000
0010
,  // measure 59
0000
0000
0100
0000
,  // measure 60
0000
0110
0000
0000
,  // measure 61
0010
0000
0000
0000
,  // measure 62
0000
0000
0100
0000
,  // measure 63
0000
0000
0000
0000
,  // measure 64
0110
0000
0000
0001
,  // measure 65
0000
0000
1000
0000
,  // measure 66
0000
0001
0000
0000
,  // measure 67
1001
0000
0000
0001
,  // measure 68
0000
0000
0001
0000
,  // measure 69
0000
0001
0000
0000
,  // measure 70
1000
0000
0000
1000
,  // measure 71
0000
0000
1000
0000
,  // measure 72
0000
1000
0000
0000
,  // measure 73
1001
0000
0000
1001
;
