#TITLE:STOP SPINNING ME IN CIRCLES;
#SUBTITLE:(HI-TRIPPIN'N MIX);
#ARTIST:Thomas Howard Lichtenstein;
#TITLETRANSLIT:;
#SUBTITLETRANSLIT:;
#ARTISTTRANSLIT:;
#CREDIT:DigiMindAxel;
#BANNER:STOP SPINNING ME IN CIRCLES (HI-TRIPPIN'N MIX).png;
#BACKGROUND:STOP SPINNING ME IN CIRCLES (HI-TRIPPIN'N MIX)-bg.png;
#LYRICSPATH:STOP SPINNING ME IN CIRCLES (HI-TRIPPIN'N MIX).lrc;
#CDTITLE:Konami original REMIX.png;
#MUSIC:STOP SPINNING ME IN CIRCLES (HI-TRIPPIN'N MIX).ogg;
#METERTYPE:DDR X;
#OFFSET:-9.997;
#SAMPLESTART:52.950;
#SAMPLELENGTH:12.000;
#SELECTABLE:YES;
#BPMS:0.000=100.500,72.000=102.000;
#STOPS:;
#BGCHANGES:;

//---------------dance-single - ----------------
#NOTES:
     dance-single:
     :
     Easy:
     5:
     0.194,0.190,0.109,0.027,0.000:
1000
0000
1000
0000
,
0001
0000
0001
0000
,
0010
0000
0010
0000
,
0100
0000
0100
0000
,
0010
0100
0010
0000
,
0001
1000
1001
0000
,
0001
0001
0001
0000
,
1000
1000
1000
0000
,
1001
0000
0010
0000
,
0100
0010
0001
0000
,
1000
0000
0001
0000
,
0010
0100
1000
0000
,
0001
0000
1000
0000
,
0010
1000
0001
0000
,
0100
0000
0010
0000
,
1000
0001
0010
0000
,
1001
1000
1000
1000
,
0001
0001
1001
0000
,
0010
0100
1000
0100
,
0010
0100
1000
0100
,
0010
0000
0001
0000
0000
1001
0000
0000
,
0001
0010
0100
0010
,
0001
0010
0100
0010
,
0001
0010
0100
0000
,
1001
1000
0001
0100
,
0001
1000
0001
0100
,
0010
0000
1000
0000
0000
1001
0000
0000
,
0001
1000
0100
0010
,
0100
1000
0100
0010
,
0100
1000
0001
0001
,
1001
0100
0010
0001
,
2000
0000
3001
0000
,
0100
0010
1000
0000
,
1001
0010
0200
0000
,
1300
0001
0100
0001
,
2000
0000
0000
3000
0000
1001
0000
0000
,
1001
0010
0100
1000
,
0001
0100
0010
0100
,
0001
0000
1000
0000
0000
1001
0000
0000
,
1000
0001
0100
0001
,
1000
0100
0010
0001
,
0010
0000
0100
0000
1000
0000
0001
0001
;

//---------------dance-single - ----------------
#NOTES:
     dance-single:
     :
     Medium:
     7:
     0.313,0.286,0.173,0.009,0.009:
1000
1000
0001
0001
,
1000
0100
0010
0000
,
0001
0001
0100
0100
,
0001
1000
0010
0000
,
1001
1000
0001
0001
,
0110
0000
0000
0000
0100
0000
0000
0000
0020
0000
0000
0100
0000
0130
0000
0000
,
0001
1000
0001
0000
1000
0001
1000
0000
,
0001
1000
0001
0000
1000
0001
1000
0000
,
1001
0000
0010
0000
0100
1000
0010
0000
,
0100
0000
0110
0000
0010
0001
0100
0000
,
0001
0000
1001
0000
1000
0100
0010
0000
,
0100
0000
1100
0000
1000
0010
0100
0000
,
0001
0000
1001
0000
0010
0001
0100
0000
,
0010
0000
0110
0000
1000
0100
0010
0000
,
0001
0000
1001
0000
1000
0100
0010
0000
,
0001
0000
0101
0000
0010
0100
1000
1000
,
0001
1000
0001
1000
0001
1000
0001
1000
,
0010
0100
0010
0100
0110
0000
0000
0000
,
0001
0010
0100
0000
0010
0001
0100
0000
,
0010
1000
0100
0000
1000
0100
0010
0000
,
0001
0000
0100
0000
0000
0110
0000
1010
,
1000
0100
0010
0000
0001
1000
0010
0000
,
0100
0001
0010
0000
0001
0010
0100
0000
,
1000
0010
0001
0010
,
1000
0001
0100
0000
0001
0010
0100
0000
,
1000
0010
0100
0000
0001
1000
0100
0000
,
0010
0001
0100
0001
0010
0001
0100
0000
,
0001
1000
0100
0000
1000
0100
0010
0000
,
0001
1000
0010
0000
1000
0010
0100
0000
,
0001
0010
0100
0000
0010
0001
0010
0001
,
0100
0000
0001
0000
1000
0100
0010
0000
,
0100
0000
1000
0000
0001
0100
0010
0000
,
0100
0000
0001
0000
0010
0100
1000
0000
,
1001
0000
0001
0000
0100
0001
0010
0000
,
1000
0000
0010
0000
0001
0010
0100
0000
,
1000
0100
0010
0000
0000
1001
0000
0000
,
1001
0110
0010
1001
,
0010
0100
0001
0000
0100
0000
1000
0000
,
0100
0010
0001
0000
0010
0100
1000
0100
,
0000
0000
1001
0000
0001
0100
0001
0000
,
1000
0100
1000
0000
0010
0100
0001
0000
,
1000
0100
0010
0000
0001
1000
0010
0010
;

//---------------dance-single - ----------------
#NOTES:
     dance-single:
     :
     Hard:
     11:
     0.483,0.438,0.109,0.164,0.359:
1000
0001
1000
0000
1000
0100
1000
0000
,
0010
0100
0010
0000
0010
1000
0010
0000
,
1000
0001
1000
0000
1000
0100
1000
0000
,
0001
0010
0001
0000
0001
0100
0001
1000
,
1001
0000
0110
0000
0100
0010
0001
1000
,
1001
0000
0000
0000
0110
0000
0000
0000
0010
0100
0010
1000
0000
1010
0000
0000
,
1000
0100
1000
0100
0001
0100
0001
0100
,
1000
0000
0001
0000
1000
0000
0001
0000
0100
0000
0100
0000
0001
0000
0001
1000
,
0001
0100
0001
0100
1000
0010
0001
1000
,
0001
0000
0000
0000
1000
0000
0001
0000
0200
0000
0000
0001
0000
0000
0301
0000
,
1000
0100
1000
0100
0001
0010
1000
0001
,
1000
0000
0000
0000
0100
0000
0010
0000
0002
0000
0000
1000
0000
0000
1003
0010
,
1000
0100
0010
1000
0010
0001
1000
0100
,
0010
0000
0000
0000
0001
0000
1000
0000
0020
0000
0000
1000
0000
0000
1030
0000
,
0001
0010
0100
0001
0100
1000
0001
0010
,
0100
0000
0000
0000
1000
0000
0001
0000
0100
0001
0000
0100
0001
1000
0100
0000
,
1001
0001
0100
1000
0100
0001
1000
0010
,
0110
0000
0100
0000
0001
0000
1000
0000
0100
1000
0100
0010
0000
0110
0000
0000
,
0100
0000
0001
0000
1000
0100
0000
0002
0000
0000
1003
0000
0100
0000
0010
0000
,
1000
0000
0100
0000
1000
0001
0000
0200
0000
0000
0301
0000
1000
0000
0010
0000
,
0001
0000
0010
0000
1000
0000
0001
0000
0010
0100
0020
0000
0000
0000
0130
0000
,
1001
0000
1000
0000
0001
0100
0000
2000
0000
0000
3100
0000
0010
0000
1000
0000
,
0001
0000
0100
0000
0001
1000
0000
0020
0000
0000
0000
0000
0130
0000
0001
0000
,
1000
0000
0100
0000
0001
0000
0100
0000
1000
0001
1000
0000
0001
1000
0001
1000
,
0010
0000
0100
0000
0002
0000
0000
0000
1000
0000
0000
0000
1003
0000
0001
0010
,
0100
0000
1000
0001
1000
0000
0010
0000
0001
0000
0010
0000
1000
0000
0000
0000
,
0001
0000
0100
0001
1000
0100
0000
0020
0000
0000
0001
0000
0031
0100
0001
0000
,
1001
1000
0001
0100
1000
0010
0002
0100
,
0103
0001
0010
1000
0010
0001
1000
0010
,
0100
0000
0001
0000
1000
0000
0000
0000
0001
0000
0001
0000
0010
0100
0010
0100
,
1000
0000
0000
0010
0100
0000
0100
0000
0001
0100
0000
0002
0000
0000
1000
0000
,
2003
0000
0000
0000
3100
0010
0001
0000
0100
0000
0001
1000
0001
0000
0000
0000
,
0100
0000
0001
0000
0010
0100
0010
0100
1000
0000
0010
0000
0010
0100
0010
0000
,
1000
0000
0000
0001
0000
0000
0100
0000
0000
0001
0000
0000
0100
0000
0000
0010
0000
0000
1000
0000
0000
0200
0000
0000
0000
0000
0000
0000
0000
0000
0000
0000
0000
0000
0000
0000
0000
0000
0000
0000
1300
0000
0000
0000
1000
0000
0000
0000
,
0010
0000
0100
0000
0001
0000
0001
0000
1000
0000
0100
0000
1000
0000
0010
0000
0200
0000
0000
0000
0000
0001
0000
0000
,
0301
0000
1000
0000
0100
0000
0010
0000
0000
0000
1001
0000
1000
0100
1000
0100
,
0010
0000
0000
0001
0100
0001
0000
1000
0000
1000
0000
0001
0000
0100
0010
0000
,
0100
0000
0000
0001
1000
0000
0001
1000
0000
1000
0000
0100
0010
0000
0001
0000
,
0100
0000
0001
0000
1000
0000
0010
0200
0000
0000
0010
0000
0310
0100
0010
0100
,
0001
0000
1000
0000
1002
0000
0000
0000
1000
0000
1003
0010
0000
0100
0000
0000
,
0001
0000
1000
0010
0100
0000
0100
0000
0001
0100
0000
0002
0000
0000
1000
0000
,
1003
0000
0000
0000
0001
0000
1000
0100
0000
0100
0000
0100
1000
0001
0010
0100
;

//---------------dance-double - ----------------
#NOTES:
     dance-double:
     :
     Easy:
     5:
     0.195,0.190,0.109,0.027,0.000:
10000000
00000000
10000000
00000000
,
01000000
00000000
01000000
00000000
,
10000000
00000000
10000000
00000000
,
00001000
00000000
00001000
00000000
,
00010000
00001000
00010000
00000000
,
00000100
00000010
00000110
00000000
,
00000001
00001000
00000001
00001000
,
00000001
00001000
00000001
00000000
,
00011000
00000000
00001000
00000000
,
01000000
00100000
10000000
00000000
,
01000000
00000000
00100000
00000000
,
00010000
00001000
00000010
00000000
,
00000100
00000000
00000010
00000000
,
00000100
00000001
00000010
00000000
,
00000100
00000000
00000010
00000000
,
00000100
00001000
00100000
00000000
,
10010000
10000000
10000000
10000000
,
00010000
00010000
10010000
00000000
,
00100000
01000000
10000000
01000000
,
00100000
01000000
10000000
01000000
,
00100000
00000000
00010000
00000000
00000000
00011000
00000000
00000000
,
00001000
00000010
00000100
00000010
,
00001000
00000010
00000100
00000010
,
00001000
00000010
00000100
00000000
,
00001001
00000001
00000010
00000100
,
00001000
00000100
00000010
00000001
,
00010000
00000000
00001000
00000000
00000000
00011000
00000000
00000000
,
00010000
01000000
00100000
10000000
,
00100000
01000000
00010000
01000000
,
00100000
10000000
00001000
00010000
,
00011000
00000100
00000010
00000001
,
00000200
00000000
00000310
00000000
,
00001000
00000001
00000010
00000000
,
00011000
00100000
02000000
00000000
,
13000000
00010000
01000000
00010000
,
20000000
00000000
00000000
30000000
00000000
10010000
00000000
00000000
,
10010000
00100000
01000000
10000000
,
00001000
01000000
00100000
01000000
,
00010000
00000000
00001000
00000000
00000000
00011000
00000000
00000000
,
00000100
00000010
00000001
00000010
,
00000100
00010000
00001000
00100000
,
01000000
00000000
10000000
00000000
00001000
00000000
00010000
00001000
;

//---------------dance-double - ----------------
#NOTES:
     dance-double:
     :
     Medium:
     7:
     0.321,0.324,0.136,0.045,0.009:
10000000
01000000
00100000
01000000
,
10000000
00010000
10000000
00000000
,
00100000
01000000
00010000
01000000
,
00001000
00010000
00001000
00000000
,
00011000
00010000
00000010
00000100
,
00001001
00000000
00000000
00000000
00000001
00000000
00001000
00000000
00000002
00000000
00000000
00001000
00000000
00001003
00000000
00000000
,
00000020
00000100
00000100
00000130
,
00020000
00001000
00001000
00031000
,
00011000
00000000
00100000
00000000
01000000
10000000
00100000
01000000
,
00100000
00000000
10000000
00000000
01000000
00100000
00010000
00000000
,
00001000
00000000
00011000
00000000
00010000
00000010
00000100
00000010
,
00010000
00000000
00000001
00000000
00000010
00000100
00001000
00000000
,
00011000
00000000
00010000
00000000
00001000
00100000
00010000
01000000
,
00100000
00000000
10000000
00000000
00010000
00100000
01000000
00000000
,
00100000
00001000
00100000
00000000
00001000
00010000
00000100
00000010
,
00000001
00000000
00000100
00000000
00000010
00010000
00001000
00001000
,
00100000
01000000
00100000
01000000
00100000
01000000
00100000
01000000
,
10000000
00000000
00010000
00000000
10000000
00000000
00010000
00000000
20020000
00000000
00000000
00000000
00000000
30030000
00000000
00000000
,
10000000
01000000
00100000
00000000
00001000
00010000
00000010
00000000
,
00000100
00000001
00000010
00000000
00000100
00010000
00001000
00000000
,
00100000
00000000
01000000
00000000
00000000
10010000
00000000
11000000
,
01000000
00010000
10000000
00000000
01000000
00100000
00001000
00000000
,
00010000
00000001
00000100
00000000
00000010
00000100
00000001
00000000
,
00000100
00001000
01000000
10000000
,
00010000
10000000
01000000
00000000
10000000
01000000
00100000
00000000
,
00001000
00010000
00000010
00000000
00001000
00000100
00000010
00000000
,
00000001
00000010
00001000
00000010
00000001
00000010
00001000
00000000
,
00000010
00000001
00010000
00000000
00001000
00100000
01000000
00000000
,
00100000
01000000
10000000
00000000
01000000
10000000
00010000
00000000
,
10000000
00100000
00010000
00100000
10000000
00100000
00010000
00000000
,
01100000
00000000
00100000
00000000
01000000
00010000
10000000
01000000
,
00100000
00000000
00001000
00000000
00010000
00000010
00000100
00000000
,
00000001
00001000
00000100
00000010
00000001
00000010
00000100
00000000
,
00001000
01000000
00100000
01000000
00001000
00000000
00100000
00000000
,
01000000
00000000
10000000
00000000
00100000
10000000
00010000
00000000
,
01000000
00100000
01000000
00000000
00000000
01100000
00000000
00000000
,
01100000
11000000
00100000
00011000
,
00000100
00000010
00000001
00000000
00000010
00000000
00001100
00000000
,
00010000
00100000
01000000
00000000
10000000
00010000
01000000
01000000
,
00000000
00000000
10010000
00000000
00010000
01000000
00001000
00000000
,
00010000
00000100
00000010
00000000
00000001
00000100
00001000
00000000
,
00000100
00000001
00010000
00000000
00001000
01000000
00100000
00100000
;

//---------------dance-double - ----------------
#NOTES:
     dance-double:
     :
     Hard:
     11:
     0.487,0.438,0.127,0.155,0.359:
01000000
11000000
00010000
01010000
,
00001000
00011000
00000100
00000110
,
00000010
00000001
00000010
00000000
00000100
00000010
00000100
00000000
,
00010000
00000100
00010000
00000000
00001000
00010000
00001000
01000000
,
01100000
00100000
10000000
01000000
00100000
00010000
01000000
00000000
,
01100000
00000000
01000000
00000000
00001000
00000000
00010000
00000000
00000010
00000100
00000010
00000100
00000000
00000101
00000000
00000000
,
00000001
00000010
00000001
00000010
00001000
00000010
00001000
00000010
,
00000001
00000000
00001000
00000000
00000001
00000000
00001000
00000000
00000010
00000000
00010000
00000000
00001000
00000000
00100000
00001000
,
00100000
00001000
01000000
10000000
01000000
00100000
10000000
01000000
,
00100000
00000000
00000000
00000000
00001000
00000000
00010000
00000000
00000020
00000000
00000000
00000100
00000000
00000000
00000130
00000000
,
00000001
00001000
00000010
00000001
00000010
00000100
00000001
00000010
,
00000100
00000000
00000000
00000000
00010000
00000000
00001000
00000000
00200000
00000000
00000000
01000000
00000000
00000000
01300000
10000000
,
01000000
10000000
00010000
01000000
10000000
01000000
00010000
00100000
,
00001000
00000000
00000000
00000000
00010000
00000000
00000010
00000000
00020000
00000000
00000000
00000001
00000000
00000000
00030001
00000000
,
00010000
00000001
00000010
00001000
00000010
00000001
00000010
00000100
,
00010000
00000000
00000000
00000000
00001000
00000000
00100000
00000000
01000000
00100000
00000000
01000000
00100000
01000000
10000000
00000000
,
01100000
01000000
00100000
00001000
00010000
00000100
00000010
00000001
,
00001001
00000000
00001000
00000000
00000100
00000000
00010000
00000000
00100000
01000000
10000000
01000000
00000000
11000000
00000000
00000000
,
00010000
00000000
01000000
00000000
00001000
00010000
00000000
00000200
00000000
00000000
00001300
00000000
00000010
00000000
00000001
00000000
,
00000100
00000000
00001000
00000000
00000001
00000100
00000000
00000020
00000000
00000000
00001030
00000000
00000001
00000000
00000100
00000000
,
00001000
00000000
00000010
00000000
00000001
00000000
00010000
00000000
00001000
00010000
00002000
00000000
00000000
00000000
01003000
00000000
,
01100000
00000000
00100000
00000000
10000000
01000000
00000000
20000000
00000000
00000000
30010000
00000000
10000000
00000000
00100000
00000000
,
00010000
00000000
01000000
00000000
10000000
00010000
00000000
02000000
00000000
00000000
00000000
00000000
03010000
00000000
00001000
00000000
,
00000010
00000000
00000100
00000000
00000001
00000000
00000100
00000000
00000010
00000100
00000010
00000000
00010000
00001000
00010000
00001000
,
00100000
00000000
01000000
00000000
10000000
00000000
00100000
00000000
00010000
00000000
01000000
00000000
10000000
00000000
00100000
10000000
,
00100000
00000000
01000000
00100000
01000000
00000000
00010000
00000000
00001000
00000000
00000010
00000000
00000001
00000000
00000100
00000000
,
00001000
00000000
00000010
00000100
00000010
00000100
00000000
00000002
00000000
00000000
00001000
00000000
00001003
00000100
00001000
00000000
,
00000110
00000010
00000100
00010000
00001000
01000000
20000000
01000000
,
31000000
00010000
10000000
01000000
00100000
10000000
00100000
00010000
,
10000000
00000000
00100000
00000000
01000000
00000000
00000000
00000000
00001000
00000000
00001000
00000000
00010000
00000100
00010000
00000100
,
00000010
00000000
00000000
00000001
00000100
00000000
00000100
00000000
00000010
00010000
00000000
00002000
00000000
00000000
01000000
00000000
,
02003000
00000000
00000000
00000000
03010000
10000000
00010000
00000000
00100000
00000000
01000000
10000000
01000000
00000000
00000000
00000000
,
10000000
00000000
00100000
00000000
01000000
00001000
00100000
00001000
01000000
00000000
00001000
00000000
00010000
00000100
00000010
00000000
,
00000001
00000000
00000000
00000100
00000000
00000000
00000001
00000000
00000000
00000100
00000000
00000000
00000010
00000000
00000000
00010000
00000000
00000000
00001000
00000000
00000000
00020000
00000000
00000000
00000000
00000000
00000000
00000000
00000000
00000000
00000000
00000000
00000000
00000000
00000000
00000000
00000000
00000000
00000000
00000000
00031000
00000000
00000000
00000000
01000000
00000000
00000000
00000000
,
00001000
00000000
10000000
00000000
01000000
00000000
10000000
00000000
00001000
00000000
01000000
00000000
00001000
00000000
00010000
00000000
00000200
00000000
00000000
00000000
00000000
00000010
00000000
00000000
,
00000310
00000000
00000001
00000000
00000100
00000000
00000001
00000000
00000000
00000000
00001001
00000000
00001000
00000100
00001000
00000100
,
00010000
00000000
00000000
00100000
01000000
10000000
00000000
01000000
00000000
01000000
00000000
10000000
00000000
00010000
10000000
00000000
,
00100000
00000000
00000000
01000000
00001000
00000000
01000000
00001000
00000000
00001000
00000000
00010000
00000001
00000000
00000100
00000000
,
00001000
00000000
00000010
00000000
00000001
00000000
00000100
00000020
00000000
00000000
00001000
00000000
00001030
00000001
00000010
00000100
,
00001000
00000000
01000000
00000000
01200000
00000000
00000000
00000000
01000000
00000000
01300000
00010000
00000000
01000000
00000000
00000000
,
00100000
00000000
10000000
01000000
00100000
00000000
00100000
00000000
00001000
00010000
00000000
00000200
00000000
00000000
00000010
00000000
,
00000310
00000000
00000000
00000000
00000001
00000000
00000100
00000010
00000000
00000010
00000000
00000010
00001000
00000100
00000010
00000001
;

//---------------dance-single - ----------------
#NOTES:
     dance-single:
     :
     Beginner:
     1:
     0.078,0.114,0.027,0.000,0.000: // measure 1
1000
0000
0000
0000
,  // measure 2
0100
0000
0000
0000
,  // measure 3
0010
0000
0000
0000
,  // measure 4
0001
0000
0000
0000
,  // measure 5
0100
0000
0000
0000
,  // measure 6
0100
0000
0110
0000
,  // measure 7
0010
0000
0000
0000
,  // measure 8
0100
0000
0000
0000
,  // measure 9
0001
0000
0000
0000
,  // measure 10
0000
0000
0000
0000
,  // measure 11
0010
0000
0000
0000
,  // measure 12
0000
0000
0000
0000
,  // measure 13
0100
0000
0000
0000
,  // measure 14
0000
0000
0000
0000
,  // measure 15
1000
0000
0000
0000
,  // measure 16
0000
0000
0000
0000
,  // measure 17
0001
0000
0000
0000
,  // measure 18
1000
0000
0001
0000
,  // measure 19
1001
0000
1000
0000
,  // measure 20
1000
0000
1000
0000
,  // measure 21
1000
0000
0000
0000
,  // measure 22
0010
0000
0010
0000
,  // measure 23
0010
0000
0010
0000
,  // measure 24
0010
0000
0000
0000
,  // measure 25
0100
0000
0100
0000
,  // measure 26
0100
0000
0100
0000
,  // measure 27
0100
0000
0000
0000
,  // measure 28
0001
0000
0001
0000
,  // measure 29
0001
0000
0001
0000
,  // measure 30
0001
0000
0000
0000
,  // measure 31
1001
0000
0100
0000
,  // measure 32
0010
0000
0000
0000
,  // measure 33
0001
0000
0010
0000
,  // measure 34
0100
0000
1000
0000
,  // measure 35
0100
0000
0000
0000
,  // measure 36
1000
0000
0001
0000
,  // measure 37
0000
0100
0000
0100
,  // measure 38
0000
0010
0000
0100
,  // measure 39
0000
0100
0000
0000
,  // measure 40
0000
0001
0000
1000
,  // measure 41
0000
0100
0000
0010
,  // measure 42
0000
0001
0000
1000
;
