#TITLE:STAGER;
#SUBTITLE:(ALL STAGE CLEAR);
#ARTIST:Ras;
#TITLETRANSLIT:;
#SUBTITLETRANSLIT:;
#ARTISTTRANSLIT:;
#CREDIT:DigiMindAxel;
#BANNER:STAGER (ALL STAGE CLEAR).png;
#BACKGROUND:STAGER (ALL STAGE CLEAR)-bg.png;
#LYRICSPATH:;
#CDTITLE:DigiMindAxel original simfile.png;
#MUSIC:STAGER (ALL STAGE CLEAR).ogg;
#METERTYPE:DDR X;
#OFFSET:-0.154;
#SAMPLESTART:39.896;
#SAMPLELENGTH:12.000;
#SELECTABLE:YES;
#BPMS:0.000=145.000;
#STOPS:;
#BGCHANGES:0.000=STAGER (ALL STAGE CLEAR).avi=1.000=1=1=0,
99999=-nosongbg-=1.000=0=0=0 // don't automatically add -songbackground-
;

//---------------dance-single - ----------------
#NOTES:
     dance-single:
     :
     Easy:
     6:
     0.275,0.298,0.022,0.179,0.000: // measure 1
0000
0000
0000
0000
,  // measure 2
0000
0000
0000
0000
,  // measure 3
0000
0000
0000
0000
,  // measure 4
0000
0000
0000
0000
,  // measure 5
0000
0001
0000
1000
,  // measure 6
0100
1000
0000
0001
,  // measure 7
0100
0001
0000
1000
,  // measure 8
0001
2000
0000
3000
,  // measure 9
0001
0100
0001
0000
,  // measure 10
0010
0100
0010
0000
,  // measure 11
0001
0100
0001
0000
,  // measure 12
0010
0100
0010
0001
,  // measure 13
1000
0100
1000
0000
,  // measure 14
0010
0100
0010
0000
,  // measure 15
1000
0100
1000
0000
,  // measure 16
0010
0100
0010
1000
,  // measure 17
0002
0000
0000
0003
,  // measure 18
2000
0000
0000
3000
,  // measure 19
0002
0000
0000
0003
,  // measure 20
1000
1000
0002
0000
,  // measure 21
0203
0000
0000
0300
,  // measure 22
0020
0000
0000
0030
,  // measure 23
0200
0000
0000
0300
,  // measure 24
0001
0001
2000
0000
,  // measure 25
3010
0100
0010
0100
,  // measure 26
0001
1000
0001
1000
,  // measure 27
0100
1000
0100
1000
,  // measure 28
0001
0001
2000
0000
,  // measure 29
3010
0100
0010
0100
,  // measure 30
0001
1000
0001
1000
,  // measure 31
0100
1000
0100
1000
,  // measure 32
0001
0001
2000
0000
,  // measure 33
3010
0100
0010
0100
,  // measure 34
0001
0100
0001
0100
,  // measure 35
0001
1000
0001
1000
,  // measure 36
0100
0100
0020
0000
,  // measure 37
0031
0100
0001
0100
,  // measure 38
0001
1000
0001
1000
,  // measure 39
0100
0010
0100
0010
,  // measure 40
0001
0001
0200
0000
,  // measure 41
0310
0010
1000
0000
,  // measure 42
0001
0001
0010
0000
,  // measure 43
0100
0100
1000
0000
,  // measure 44
0010
0010
0100
0100
,  // measure 45
0001
0001
0010
0000
,  // measure 46
0100
0100
0010
0000
,  // measure 47
0001
0001
0100
0000
,  // measure 48
2002
0000
0000
3003
,  // measure 49
0002
0000
0000
0000
,  // measure 50
0023
0000
0000
0000
,  // measure 51
0230
0000
0000
0000
,  // measure 52
2300
0000
0000
0000
,  // measure 53
3002
0000
0000
0000
,  // measure 54
0203
0000
0000
0000
,  // measure 55
0320
0000
0000
0000
,  // measure 56
2030
0000
0000
0000
,  // measure 57
3001
0100
0001
0100
,  // measure 58
0001
1000
0001
1000
,  // measure 59
0100
1000
0100
1000
,  // measure 60
0010
0100
0010
0100
,  // measure 61
0001
1000
0001
1000
,  // measure 62
0100
1000
0100
1000
,  // measure 63
0010
0100
0010
0100
,  // measure 64
0001
1000
0001
1000
,  // measure 65
0100
0010
0100
0010
,  // measure 66
0001
0100
0001
0100
,  // measure 67
0001
1000
0001
1000
,  // measure 68
0010
0100
0010
0100
,  // measure 69
0001
0010
0001
0010
,  // measure 70
0100
1000
0100
1000
,  // measure 71
0100
0010
0100
0010
,  // measure 72
0002
0000
1003
0000
,  // measure 73
1001
0001
0001
0001
,  // measure 74
1000
1000
1000
1000
,  // measure 75
0001
0001
0001
0001
,  // measure 76
1000
1000
1000
1000
,  // measure 77
0100
0100
0100
0100
,  // measure 78
0010
0010
0010
0010
,  // measure 79
0000
0001
0000
0000
1000
0000
0000
0001
,  // measure 80
0000
0000
1000
0000
0000
0100
0000
0110
;

//---------------dance-single - ----------------
#NOTES:
     dance-single:
     :
     Medium:
     10:
     0.480,0.477,0.179,0.164,0.149:
0000
0000
0000
0000
,
0000
0000
0000
0000
,
0000
0000
0000
0000
,
0000
0000
0000
0000
,
1000
1001
0000
0101
,
0100
0110
0000
0110
,
0100
1001
0000
1100
,
2000
3200
0320
0032
,
1003
0000
0001
0100
0010
0000
0100
0000
,
0001
1000
0100
0000
1000
1000
0001
0001
,
0010
0100
0010
0000
0001
0000
0100
0000
,
0010
1000
0100
0000
0010
0001
0100
0000
,
0001
1000
0100
0000
0010
0100
0010
0000
,
0001
1000
0100
0000
1000
1000
0001
0001
,
0100
0010
0100
0000
0001
0000
0010
0000
,
0100
1000
0010
0100
0002
0000
0000
0003
,
1001
1000
0200
1300
,
0001
0001
0020
0031
,
1000
1000
0200
1300
,
0001
1000
0001
1000
0002
0000
0103
0000
,
0010
0110
2000
3001
,
0100
0110
0002
1003
,
0010
0110
2000
3001
,
0100
0010
0100
0010
0200
0000
0000
0000
,
0301
1000
0001
1000
0100
0000
0100
0000
,
0010
0001
0010
0001
1000
0000
1000
0000
,
0010
0100
0010
0100
0001
0000
0001
0000
,
1000
1000
0001
0001
2000
0000
3100
0000
,
0010
0001
0010
0001
0100
0000
0100
0000
,
0010
1000
0010
1000
0001
0000
0001
0000
,
0010
0100
0010
0100
1000
0000
1000
0000
,
0010
0010
0100
0100
0002
0000
1003
0000
,
0001
0100
0010
0100
0001
0000
0001
0000
,
1000
0010
0100
0010
1000
0000
1000
0000
,
0001
0010
0100
0010
0001
0000
0001
0000
,
0100
0100
0010
0010
2000
0000
3001
0000
,
1000
0100
0010
0100
1000
0000
1000
0000
,
0010
0100
0001
0100
0010
0000
0010
0000
,
1000
0001
0010
0001
1000
0000
1000
0000
,
0010
0010
0100
0100
0001
0001
1001
0000
,
0001
0000
0000
0010
0000
0000
0001
0000
0000
0000
0100
0000
0000
0100
0000
0000
,
0010
0000
0000
0100
0000
0000
0010
0000
0000
0000
1001
0000
0000
0000
1001
0000
,
1000
0000
0000
0100
0000
0000
1000
0000
0000
0000
0010
0000
0000
0010
0000
0000
,
0100
0000
0001
0000
0010
0100
1000
0001
,
0100
0000
0000
0010
0000
0000
0100
0000
0000
0000
0001
0000
0000
0001
0000
0000
,
1000
0000
0000
0100
0000
0000
1000
0000
0000
0000
1001
0000
0000
0000
1001
0000
,
0001
0000
0000
1000
0000
0000
0001
0000
0000
0000
0010
0000
0000
0010
0000
0000
,
0110
0000
0000
0100
0000
0000
1001
0000
0000
0001
0000
0000
1000
0000
0001
0000
,
2000
0000
3200
0000
,
0320
0000
0000
0130
,
2000
0000
3002
0000
,
0203
0000
0000
0310
,
1000
1000
0100
0100
,
0010
0010
0010
0001
,
0100
0100
0010
0010
,
1000
0000
0000
0000
1000
0000
0000
0000
1000
0000
0000
1001
0000
0000
1001
0000
,
1000
0100
1000
0000
0001
0100
0001
0000
,
0010
0100
1000
0100
0010
0001
0001
0000
,
1000
0010
1000
0000
0001
0010
0001
0000
,
0100
0010
1000
0100
0010
0001
0001
0000
,
1000
0100
1000
0000
0001
0100
0001
0000
,
0100
0010
1000
0100
0010
0001
0001
0000
,
0100
0010
0100
0000
0001
0100
0001
0000
,
0010
0100
1000
0001
0100
0010
0010
0000
,
1000
0000
0001
0000
0000
0001
0000
0000
0100
0000
0000
0100
0000
0000
0100
0000
,
0001
1000
0010
0001
0010
1000
0001
0000
,
1000
0000
0001
0000
0000
0001
0000
0000
0010
0000
0000
0010
0000
0000
0010
0000
,
0001
1000
0100
0001
0100
1000
0001
0000
,
0010
0000
0100
0000
0000
0100
0000
0000
1000
0000
0000
1000
0000
0000
1000
0000
,
0001
1000
0010
0001
0010
1000
0100
0000
,
0010
0000
0001
0000
0000
0001
0000
0000
0100
0000
0000
0100
0000
0000
0100
0000
,
0000
0001
0000
0000
0001
0000
0000
1000
0000
0000
1000
0000
0000
1000
0000
0000
,
0001
0000
0100
0000
0000
0010
0000
0000
0100
0000
0000
0010
0000
0000
0100
0000
,
0000
0000
0001
0000
0000
0100
0000
0000
0001
0000
0000
0100
0000
0000
0001
0000
,
0000
0000
0010
0000
0000
0100
0000
0000
1000
0000
0000
0001
0000
0000
0100
0000
,
0010
0000
1000
0000
0000
0100
0000
0000
0010
0000
0000
0100
0000
0000
1000
0000
,
0001
0000
0100
0000
0000
0001
0000
0000
0100
0000
0000
0001
0000
0000
0100
0000
,
0000
0000
0001
0000
0000
1000
0000
0000
0001
0000
0000
1000
0000
0000
0001
0000
,
0000
0000
0101
0000
0000
0100
0000
0000
0110
0000
0000
0010
0000
0000
1010
0000
,
0000
1000
0000
0000
1001
0000
0000
0001
0000
0000
0010
0000
0100
0000
1001
0000
;

//---------------dance-single - ----------------
#NOTES:
     dance-single:
     :
     Hard:
     16:
     0.829,0.775,0.448,0.179,1.000:
0000
0000
0000
0000
,
0000
0000
0000
0000
,
0000
0000
0000
0000
,
0000
0000
0000
0000
,
1010
0000
0000
0010
0000
0000
0010
0000
0000
0000
0100
0000
0000
0001
0000
0000
,
1000
0000
0000
1000
0000
0000
1000
0000
0000
0100
0010
0000
0001
0100
0001
0000
,
1000
0000
0000
1000
0000
0000
1000
0000
0000
0000
0100
0000
0000
0010
0000
0000
,
0001
0000
1000
0010
1000
0010
1000
0001
0000
0020
0000
0000
0100
0000
0130
0000
,
1000
0000
0000
0010
0000
0000
1010
0000
0000
0000
1001
0000
0000
1001
0000
0000
,
0001
0000
0000
0100
0000
0000
0110
0000
0010
1000
0010
0000
1000
0001
1000
0000
,
0001
0000
0000
0010
0000
0000
0011
0000
0000
0000
0110
0000
0000
0110
0000
0000
,
1000
0000
0010
0100
0010
0100
0010
0200
0000
0302
0000
0000
0010
0000
0013
0000
,
0100
0000
0000
1000
0000
0000
1010
0000
0000
0000
0110
0000
0000
0110
0000
0000
,
0100
0000
0000
0001
0000
0000
1001
0000
1000
0100
1000
0000
0010
0100
0010
0000
,
1000
0000
0000
0001
0000
0000
0011
0000
0000
0000
0110
0000
0000
0110
0000
0000
,
0010
0000
0100
1000
0100
1000
0100
2000
0000
3020
0000
0200
0000
0330
0000
0000
,
1001
0000
0000
1000
0000
1000
0100
1000
0010
0200
0000
0002
0000
0000
0303
0000
,
0001
0000
0000
0001
0000
0001
0100
0001
0010
0200
0000
2000
0000
0000
3300
0000
,
0100
0000
0000
0100
0000
0100
0010
0100
1000
0002
0000
0200
0000
0000
0303
0000
,
0001
1000
0001
0000
1000
0001
1000
0000
0100
0010
0001
0100
0010
0000
0010
0000
,
1001
0000
0000
0001
0000
0001
0010
0001
0100
0020
0000
2000
0000
0000
3030
0000
,
1000
0000
0000
1000
0000
1000
0001
1000
0100
0020
0000
0002
0000
0000
0033
0000
,
0010
0000
0000
0010
0000
0010
0100
0010
0001
2000
0000
0020
0000
0000
3030
0000
,
1000
0001
1000
0000
0001
1000
0001
0000
0100
0010
1000
0001
1000
0000
1000
0000
,
1010
0000
0010
0100
0010
0100
0001
0010
0001
0010
0100
1000
0001
0000
0000
0000
,
0100
0000
0010
1000
0010
1000
0100
0010
0100
0010
0001
0100
0010
0000
0000
0000
,
1000
0000
0100
0010
0100
0010
0001
0100
0001
0100
0010
1000
0100
0000
0000
0000
,
0010
0001
0010
0000
0100
0010
0100
0000
1000
0010
0100
0001
1000
0000
1000
0000
,
0001
0000
0010
0001
0010
0001
1000
0010
1000
0010
0100
0001
0010
0000
0000
0000
,
0100
0000
1000
0010
1000
0010
0100
0001
0010
0001
0100
0010
0100
0000
0000
0000
,
0001
0000
0010
0100
0010
0100
1000
0010
0100
0001
0010
0100
0010
0000
0000
0000
,
0001
0100
0001
0000
0100
0010
0100
0000
0010
1000
0100
0010
0001
0000
0001
0000
,
0100
0000
0010
1000
0010
1000
0100
0001
0100
1000
0001
0100
0010
0000
0000
0000
,
1000
0000
0100
0010
0100
0010
0001
0100
1000
0100
0001
0010
0100
0000
0000
0000
,
1000
0000
0010
1000
0010
1000
0001
0010
1000
0010
0001
0010
0100
0000
0000
0000
,
1000
0100
1000
0000
0001
1000
0001
0000
0010
0100
1000
0001
0100
0000
0100
0000
,
0001
0000
0010
0100
0010
0100
1000
0010
0001
0010
0100
0001
1000
0000
0000
0000
,
0100
0000
1000
0010
1000
0010
1000
0100
0001
0100
0010
0001
1000
0000
0000
0000
,
0100
0000
0010
0001
0010
0001
1000
0010
0001
0010
0100
0001
1000
0000
0000
0000
,
0100
0010
0100
0000
1000
0100
1000
0000
0010
0100
0001
0100
0010
0000
0010
0000
,
1001
0000
0000
1010
0000
0000
1001
0000
0000
0000
0110
0000
0000
0110
0000
0000
,
0011
0000
0000
1001
0000
0000
0011
0000
1000
0100
1000
0000
1000
0010
0100
0000
,
0101
0000
0000
1001
0000
0000
0101
0000
0000
0000
0110
0000
0000
0110
0000
0000
,
1100
0000
1000
0010
0100
0000
0100
0000
0001
0100
0001
0010
0100
0010
0001
0010
,
0100
0000
0000
0100
1000
0000
1001
0000
0000
0000
0110
0000
0000
0110
0000
0000
,
1001
0000
0000
0001
0010
0000
0110
0000
1000
0100
1000
0000
1000
0001
0100
0000
,
0110
0000
0000
0100
0010
0000
1010
0000
0000
0000
1001
0000
0000
1001
0000
0000
,
0011
0000
0000
0110
0000
0000
1100
0000
0000
0110
0000
0000
0010
0001
0100
0010
,
1000
0000
0001
0000
0000
0010
0000
0000
0100
0000
0000
0010
0000
0000
0001
0000
,
1000
0010
0000
1000
0010
0000
1000
0010
0000
1000
0010
0000
0100
0000
0001
1000
,
0001
0000
0100
0000
0000
0010
0000
0000
1000
0000
0000
0010
0000
0000
0100
0000
,
0001
1000
0000
0001
1000
0000
0001
1000
0000
0001
1000
0010
0000
1000
0010
0100
,
0001
0000
1000
0000
0000
0100
0000
0000
0010
0000
0000
0100
0000
0000
1000
0000
,
0010
0100
0000
0010
0100
0000
0001
0010
0000
0001
0010
0000
0100
0000
1000
0010
,
1000
0000
0001
0000
0000
0100
0000
0000
0010
0000
0000
0100
0000
0000
0001
0000
,
0010
0100
0000
0010
0100
0000
0010
0100
0000
0010
0100
1000
0000
0000
1100
0000
,
1001
0000
0001
0100
0000
0010
0100
0000
0001
0100
0000
0010
0100
0000
0001
0000
,
1000
0100
0000
0100
0010
0000
0001
0100
0000
0100
0010
0000
0010
0000
1000
0100
,
0010
0000
0001
0100
0000
0010
0100
0000
0001
0100
0000
0010
0100
0000
0001
0000
,
0010
0100
0000
0100
1000
0000
0001
0100
0000
0100
0010
1000
0100
0000
0100
0000
,
0010
0000
0001
1000
0000
0010
1000
0000
0001
1000
0000
0010
1000
0000
0001
0000
,
0010
0100
0000
0100
1000
0000
0001
0100
0000
0100
0010
0000
0010
0000
1000
0100
,
0010
0000
0001
0010
0000
0100
0010
0000
0001
0010
0000
0100
0010
0000
0001
0000
,
1000
0010
0000
0010
0100
0000
0001
1000
0000
1000
0100
0010
0001
0000
0001
0000
,
0100
0000
0010
1000
0000
0100
0010
0000
0001
0100
0000
0010
1000
0000
0001
0000
,
1000
0100
0000
0100
0001
0000
0001
0100
0000
0100
1000
0000
0010
0000
0100
0001
,
0010
0000
0100
1000
0000
0001
0100
0000
0001
1000
0000
0100
0010
0000
0001
0000
,
1000
0010
0000
0010
0001
0000
0001
0010
0000
0010
1000
0100
0010
0000
0010
0000
,
0001
0000
0100
0010
0000
1000
0100
0000
0010
0001
0000
1000
0010
0000
0100
0000
,
0001
0100
0000
0100
1000
0000
1000
0100
0000
0100
0001
0000
1000
0000
0010
0100
,
0001
0000
0010
0100
0000
1000
0010
0000
0100
0001
0010
0100
1000
0000
0001
0000
,
1000
0010
0000
0010
0001
0000
0001
0010
0000
0010
1000
0001
0000
0000
0101
0000
,
0110
0000
0020
0000
0000
1000
0000
0000
0100
0000
0000
1000
0000
0000
0130
0000
,
0001
0000
0020
0000
0000
0100
0000
0000
0001
0000
0000
0100
0000
0000
0031
0000
,
0000
0000
0200
0000
0000
1000
0000
0000
0010
0000
0000
1000
0000
0000
0310
0000
,
0001
0000
0200
0000
0000
0010
0000
0000
1000
0000
0000
0010
0000
0000
1300
0000
,
0001
0000
0020
0000
0000
0100
0000
0000
0001
0000
0000
0100
0000
0000
0031
0000
,
1000
0000
0020
0000
0000
0100
0000
0000
1000
0000
0000
0100
0000
0000
1030
0000
,
0000
0000
1001
0000
0000
0011
0000
0000
1001
0000
0000
1100
0000
0000
0110
0000
,
0000
0101
0000
0000
0110
0000
0000
1010
0000
0000
1001
0000
1001
0000
0110
0000
;

//---------------dance-single - ----------------
#NOTES:
     dance-single:
     :
     Beginner:
     3:
     0.128,0.179,0.052,0.000,0.000:
0000
0000
0000
0000
,
0000
0000
0000
0000
,
0000
0000
0000
0000
,
0000
0000
0000
0000
,
1000
0001
0000
0001
,
0000
1000
0000
1000
,
0000
0001
0000
0001
,
1000
0000
0000
0000
,
1001
0000
1000
0000
,
1000
0000
1000
0000
,
0001
0000
0001
0000
,
0001
0000
0000
0000
,
0010
0000
0010
0000
,
0010
0000
0010
0000
,
0100
0000
0100
0000
,
0100
0000
0000
0000
,
1000
0000
0000
0000
,
1000
0000
0000
0000
,
0010
0000
0000
0000
,
0010
0000
0000
0000
,
0100
0000
0000
0000
,
0100
0000
0000
0000
,
0001
0000
0000
0000
,
0001
0000
0000
0000
,
0010
0000
0100
0000
,
0010
0000
0100
0000
,
1000
0000
0010
0000
,
1000
0000
0000
0000
,
0001
0000
0100
0000
,
0001
0000
0100
0000
,
0010
0000
0100
0000
,
0010
0000
0000
0000
,
1000
0000
0001
0000
,
1000
0000
0001
0000
,
0010
0000
0001
0000
,
0010
0000
0000
0000
,
0100
0000
1000
0000
,
0100
0000
1000
0000
,
0001
0000
1000
0000
,
0001
0000
1000
0000
,
0100
0000
0000
0000
,
0010
0000
0000
0000
,
0100
0000
0000
0000
,
1000
0000
0000
0000
,
0001
0000
0000
0000
,
0100
0000
0000
0000
,
0010
0000
0000
0000
,
0110
0000
0000
0000
,
1001
0000
0000
0000
,
1000
0000
0000
0000
,
1000
0000
0000
0000
,
1000
0000
0000
0000
,
1000
0000
0000
0000
,
0001
0000
0000
0000
,
0001
0000
0000
0000
,
0001
0000
0000
0000
,
1001
0000
1000
0000
,
1000
0000
0000
0000
,
0001
0000
0001
0000
,
0001
0000
0000
0000
,
1000
0000
1000
0000
,
1000
0000
0000
0000
,
0001
0000
0001
0000
,
0001
0000
0000
0000
,
0010
0000
0100
0000
,
0010
0000
0000
0000
,
0100
0000
1000
0000
,
0100
0000
0000
0000
,
1000
0000
0001
0000
,
1000
0000
0000
0000
,
0001
0000
0000
0000
,
0010
0000
0000
0000
,
1001
0000
0001
0000
,
1000
0000
1000
0000
,
0100
0000
0010
0000
,
0100
0000
0010
0000
,
0001
0000
0001
0000
,
1000
0000
1000
0000
,
0000
1001
0000
0000
0000
0000
0000
0000
,
0000
0000
0000
0000
0000
0001
0000
1001
;
