#TITLE:SIX SAME FACES;
#SUBTITLE:~今夜は最高!!!!!!~;
#ARTIST:VOICE by イヤミ feat.おそ松×カラ松×チョロ松×一松×十四松×トド松;
#TITLETRANSLIT:;
#SUBTITLETRANSLIT:~KONYA WA SAIKOU!!!!!!~;
#ARTISTTRANSLIT:VOICE by IYAMI feat.OSOMATSUxKARAMATSUxCHOROMATSUxICHIMATSUxJYUSHIMATSUxTODOMATSU;
#CREDIT:DigiMindAxel;
#BANNER:SIX SAME FACES ~KONYA WA SAIKOU!!!!!!~.png;
#BACKGROUND:SIX SAME FACES ~KONYA WA SAIKOU!!!!!!~-bg.png;
#LYRICSPATH:SIX SAME FACES ~KONYA WA SAIKOU!!!!!!~.lrc;
#CDTITLE:DigiMindAxel original simfile.png;
#MUSIC:SIX SAME FACES ~KONYA WA SAIKOU!!!!!!~.ogg;
#METERTYPE:DDR X;
#OFFSET:-1.637;
#SAMPLESTART:54.374;
#SAMPLELENGTH:12.000;
#SELECTABLE:YES;
#BPMS:0.000=128.000;
#STOPS:;
#BGCHANGES:-2.000=SIX SAME FACES ~KONYA WA SAIKOU!!!!!!~.avi=1.000=1=1=0,
99999=-nosongbg-=1.000=0=0=0 // don't automatically add -songbackground-
;

//---------------dance-single - ----------------
#NOTES:
     dance-single:
     :
     Easy:
     5:
     0.218,0.255,0.123,0.033,0.000:
0000
0000
0000
0000
,
0000
0000
0000
0000
,
0000
0000
0000
0000
,
0000
0000
0000
0000
,
0001
1000
0100
0010
,
0000
0001
0000
1000
,
0200
0000
0000
0000
,
1300
0000
0000
0000
,
0001
0001
0001
0000
,
1000
1000
1000
0000
,
0100
0100
0100
0000
,
0010
0010
0010
0000
,
0001
0001
0001
0000
,
1000
1000
1000
0000
,
0100
0100
0100
0000
,
1000
1000
1000
0000
,
0010
0100
0001
0000
,
0010
0100
1000
0000
,
0002
0000
0000
0000
,
1003
0001
1000
0000
,
0010
0100
0010
0100
,
0010
0100
0110
0000
,
0001
1000
0001
1000
,
0001
1000
1001
0000
,
0100
0010
0100
0010
,
0100
0010
0100
0110
,
0010
0010
0010
0010
,
0000
0000
0000
0000
,
0000
1000
0100
0010
,
0001
1000
0100
1000
,
0001
1000
0100
1000
,
0000
0000
1001
1001
,
0001
0010
0001
1000
,
0001
0010
0001
1000
,
0001
0010
0100
1000
,
0000
0000
1001
1001
,
1000
0010
1000
0001
,
1000
0010
1000
0001
,
1000
0010
0100
0001
,
1000
0000
1001
1001
,
0001
0100
0001
1000
,
0001
0100
0001
0100
,
0010
1000
0001
0000
,
2001
0000
0000
0000
,
0000
0000
0000
0000
0000
0000
0000
0000
0000
0000
0000
0000
0000
3000
0000
0000
,
0000
0000
0000
1001
;

//---------------dance-single - ----------------
#NOTES:
     dance-single:
     :
     Medium:
     6:
     0.312,0.357,0.145,0.056,0.000:
0000
0000
0000
0000
,
0000
0000
0000
0000
,
0000
0000
0000
0000
,
0000
0000
0000
0000
,
1000
0000
0100
0000
0010
0000
0001
1000
,
0000
0001
1000
0001
,
0200
0000
0020
0330
,
0110
0000
0000
0000
,
0010
0000
0010
0000
0010
0100
0010
0000
,
1000
0000
1000
0000
1000
0001
1000
0000
,
0001
0000
0001
0000
0001
0010
0001
0000
,
0100
0000
0100
0000
0100
0010
0100
0000
,
0001
0000
0001
0000
0001
1000
0001
0000
,
1000
0000
1000
0000
1000
0100
1000
0000
,
0010
0000
0010
0000
0010
0100
0010
0000
,
1000
0001
1000
0000
0001
0100
0001
0000
,
1000
0100
0010
0000
0001
0000
0001
0000
,
0010
0100
1000
0000
0010
0000
0010
0000
,
0200
0000
0002
0303
,
0001
0000
0010
0000
0100
0000
1000
0001
,
1000
0010
0001
0010
,
1000
0001
1000
0001
1000
0000
1000
0000
,
0001
0010
1000
0010
,
0001
1000
0001
1000
0001
0000
0001
0000
,
0100
0010
0100
0010
0100
0000
0001
0000
,
1000
0100
1000
0100
1000
0000
0001
0000
,
1001
1001
1001
1001
,
0000
0000
0000
0000
0000
0000
0000
1000
,
0001
0000
0100
0001
0100
0000
0001
1000
,
0000
1000
0000
0000
0100
0000
0010
0000
,
0001
0010
1000
0010
,
0001
1000
1000
0000
1001
0000
1001
0000
,
0001
0000
1000
0100
1000
0000
0010
0100
,
0000
0100
0000
0000
0001
0010
0100
0000
,
0010
0001
0100
1000
,
0100
0001
0110
0110
,
0010
0000
1000
0010
1000
0000
0100
0010
,
0000
0010
0000
0000
0001
0100
0010
0100
,
0001
0010
0100
1000
,
0010
0100
0010
0000
0110
0000
0110
0000
,
0001
0010
1000
0010
,
0001
0000
1000
0000
0100
1000
0100
1000
,
0010
0100
0001
1000
,
2001
0000
0000
0000
,
0000
0000
0000
0000
0000
0000
0000
0000
0000
0000
0000
0000
0000
3000
0000
0000
,
0000
0000
0000
1001
;

//---------------dance-single - ----------------
#NOTES:
     dance-single:
     :
     Hard:
     9:
     0.424,0.460,0.324,0.112,0.084:
0000
0000
0000
0000
,
0000
0000
0000
0000
,
0000
0000
0000
0000
,
0000
0000
0000
0000
,
1100
0000
0110
0000
0011
0000
0001
1000
,
0000
0000
0100
1000
0010
0000
0100
0010
,
0200
0000
0002
0303
,
2002
0000
0000
3003
,
0001
0000
0010
0000
0100
0000
0000
0000
1000
0000
0000
1000
0000
0000
0000
0000
,
0010
0000
0100
0000
0001
0000
0100
0000
0010
0000
0000
0010
0000
0000
0000
0000
,
1000
0000
0100
0000
0010
0000
0000
0000
0001
0000
0000
0001
0000
0000
0000
0000
,
1000
0000
0001
0000
0100
0000
0001
0000
1000
0000
0000
1000
0000
0000
0000
0000
,
0100
0000
0010
0000
0001
0000
0000
0000
0100
0000
0000
0100
0000
0000
0000
0000
,
0001
0000
0010
0000
0100
0000
0010
0000
0001
0000
0000
0001
0000
0000
0000
0000
,
0100
0000
0001
0000
1000
0000
0100
0000
1000
0000
0000
1000
0000
0000
0000
0000
,
0010
0100
0010
0100
0010
0000
0000
0000
1000
0000
0100
0000
0010
0000
0001
0000
,
1000
0000
0100
0000
1000
0000
0010
0000
0100
0000
0000
0100
0000
0000
0000
0000
,
0001
0000
1000
0000
0100
0000
0010
0000
0001
0000
0000
0001
0000
0000
0000
0000
,
2000
0000
0020
3030
,
0101
0000
0110
0000
1010
1000
0001
0000
,
1001
0000
0001
1000
0002
0000
0103
0010
,
0100
0001
1000
0100
1000
1000
0001
0001
,
0100
0010
0100
0010
1000
0000
0100
0010
,
0100
1000
0010
0100
0001
0001
1000
1000
,
0001
0010
0001
0010
0100
0000
0010
0001
,
1000
0010
0100
0010
1000
0001
0010
0000
,
0110
0110
0110
0110
,
0000
0000
0000
0000
0000
0000
0000
1001
,
0001
0000
1000
0010
0001
0010
1000
1100
,
0000
0110
0000
0001
1000
1000
1000
0001
,
0100
0001
1000
0100
0010
0001
0100
0010
,
0000
0000
1000
0001
1000
0000
0000
0000
0110
0000
0000
0000
0110
0000
0000
0000
,
1001
0000
0001
1000
0010
0001
0010
1010
,
0000
1001
0000
1000
0001
0001
0001
1000
,
0100
0010
0100
1000
0001
0100
1000
0100
,
0001
0000
1000
0001
1000
0000
0000
0000
0110
0000
0000
0000
0110
0000
0000
0000
,
1001
0000
1000
0001
0010
1000
0010
0011
,
0000
0110
0000
1000
0010
0010
0010
1000
,
0100
0010
0001
0200
0000
0001
0001
0301
,
1000
0100
0010
0000
1001
0000
1001
0000
,
1000
1000
1000
0001
0010
1000
0010
0001
,
1000
0000
0100
0000
0000
0010
0000
0000
0001
0000
0001
0000
0001
0000
1000
0000
,
0010
0000
0000
0100
0000
0000
0020
0000
0000
0000
0000
0000
0130
0000
0000
0000
,
1002
0000
0000
0000
,
0000
0000
0000
0000
0000
0000
0000
0000
0000
0000
0000
0000
0000
0003
0000
0000
,
0000
0000
0000
0110
;

//---------------dance-single - ----------------
#NOTES:
     dance-single:
     :
     Challenge:
     11:
     0.501,0.511,0.246,0.134,0.285: // measure 1
0000
0000
0000
0000
,  // measure 2
0000
0000
0000
0000
,  // measure 3
0000
0000
0000
0000
,  // measure 4
0000
0000
0000
0000
,  // measure 5
1001
0000
0100
0000
0010
0000
0001
1000
,  // measure 6
0010
0000
0100
0000
0010
0000
0000
0000
1000
0000
0001
0000
1000
0000
0100
1000
,  // measure 7
0200
1000
0320
0001
,  // measure 8
0130
0000
0000
0000
0000
0000
0000
0000
0000
0000
1000
0000
1000
0001
1000
0000
,  // measure 9
0100
0000
0010
0000
0001
1000
0000
0000
0010
0000
1000
0010
0000
0000
1000
0000
,  // measure 10
0001
0000
0010
0000
0100
0010
0000
0000
0001
0000
0100
0001
0000
0000
0000
0000
,  // measure 11
1000
0000
0100
0000
0010
0100
0000
0000
1000
0000
0001
0100
0000
0000
0001
0000
,  // measure 12
1000
0000
0100
0000
1000
0001
0000
0000
0100
0000
0010
0100
0000
0000
0000
0000
,  // measure 13
0001
0000
0010
0000
0100
0010
0000
0000
0001
0000
0100
0010
0000
0000
1000
0000
,  // measure 14
0100
0000
1000
0000
0001
0100
0000
0000
0010
0000
0100
0010
0000
0000
0000
0000
,  // measure 15
0100
0000
0001
0000
1000
0100
0000
0000
0010
0000
0001
0100
0000
0000
0001
0000
,  // measure 16
0100
0010
0100
0010
0100
0000
0000
0000
0001
0000
0010
0000
0100
0000
1000
0000
,  // measure 17
0001
0000
0001
0000
1000
0010
0000
0000
1000
0000
0001
0010
0000
0000
0001
0000
,  // measure 18
1000
0000
1000
0000
0010
0100
0000
0000
0001
0000
1000
0100
0000
0000
0000
0000
,  // measure 19
0210
0001
0320
1000
,  // measure 20
0130
0000
0000
0000
0101
0000
0000
0000
0110
0000
0010
1000
0010
0000
0000
0000
,  // measure 21
1001
0000
0000
0001
0100
0000
0000
0100
0010
0000
0000
0010
1000
0000
0000
0000
,  // measure 22
0100
0100
0010
0001
0200
0300
0200
0300
,  // measure 23
0010
0000
0000
0010
1000
0000
0001
0000
0010
0000
0000
0000
0100
0000
1000
0000
,  // measure 24
0010
0001
0010
1000
0002
0003
0002
0003
,  // measure 25
1001
0000
0000
1000
0100
0000
0000
0100
0010
0000
0000
0010
0001
0000
0000
0000
,  // measure 26
0010
0010
0100
1000
1000
0010
0100
0000
,  // measure 27
1001
1001
1001
1001
,  // measure 28
0000
0000
0000
0000
0000
0000
0000
0011
,  // measure 29
1001
0000
0000
1000
0010
0000
0000
0010
0200
0000
0000
0000
0301
0000
1000
0000
,  // measure 30
0100
0000
0010
0000
0000
0001
0000
0000
1000
0000
0100
0000
0001
0000
0100
0000
,  // measure 31
1000
0010
0100
1000
0100
0001
1000
1000
,  // measure 32
0000
0000
0100
0010
0100
0010
0100
0000
1001
0000
0000
0000
1001
0000
0000
0000
,  // measure 33
0101
0000
0000
0100
0010
0000
0000
0010
2000
0000
0000
0000
3100
0000
0010
0000
,  // measure 34
0001
0000
1000
0000
0000
0100
0000
0000
1000
0000
0010
0000
0001
0000
0010
0000
,  // measure 35
1000
0100
0010
1000
0010
0001
1000
0100
,  // measure 36
0010
0000
0001
0100
0001
0100
0001
0000
1001
0000
0000
0000
1001
0000
0000
0000
,  // measure 37
1010
0000
0000
0010
0100
0000
0000
0100
0002
0000
0000
0000
0013
0000
0100
0000
,  // measure 38
1000
0000
0001
0100
0000
0001
0100
0000
0010
0000
1000
0000
0001
0000
0010
0000
,  // measure 39
1000
0001
0010
0100
0000
0001
1000
0010
,  // measure 40
0000
0000
0100
0010
0100
0010
0100
0000
1001
0000
0000
0000
1001
0000
0000
0000
,  // measure 41
0001
0001
1000
1000
0001
0100
1000
0100
,  // measure 42
0010
0000
1000
0001
0000
1000
0001
0000
0100
0000
0100
0000
0010
0000
0010
0000
,  // measure 43
1000
0100
0001
1000
0100
0010
1000
0000
,  // measure 44
1002
1000
0010
0010
,  // measure 45
1000
0000
0000
0000
1000
0000
0000
0000
0013
0100
0010
0100
0010
0100
0000
0000
,  // measure 46
0000
0000
0000
1001
;

//---------------dance-double - ----------------
#NOTES:
     dance-double:
     :
     Easy:
     5:
     0.209,0.255,0.134,0.033,0.000:
00000000
00000000
00000000
00000000
,
00000000
00000000
00000000
00000000
,
00000000
00000000
00000000
00000000
,
00000000
00000000
00000000
00000000
,
10000000
01000000
00100000
00010000
,
00000000
10000000
00000000
00001000
,
00020000
00000000
00000000
00000000
,
00031000
00000000
00000000
00000000
,
00010000
00000000
00000010
00000000
,
00000100
00000000
00000001
00000000
,
00000100
00000000
00000010
00000000
,
00010000
00000000
00001000
00000000
,
00010000
00000000
00100000
00000000
,
01000000
00000000
10000000
00000000
,
01000000
00000000
00100000
00000000
,
00010000
00000000
00001000
00000000
,
00000010
00000100
00000001
00000000
,
00000010
00000100
00001000
00000000
,
00020000
00000000
00000000
00000000
,
00031000
00001000
00011000
00000000
,
00100000
01000000
00100000
01000000
,
00100000
01000000
01100000
00000000
,
00010000
00001000
00010000
00001000
,
00010000
00001000
00011000
00000000
,
00000010
00000100
00000010
00000100
,
00000010
00000100
00000010
00000110
,
00000100
00000100
00000100
00000100
,
00000000
00000000
00000000
00000000
,
00000000
00000001
00000010
00000100
,
00001000
00000001
00000100
00000001
,
00001000
00010000
01000000
00100000
,
00000000
00000000
10010000
10010000
,
10000000
00010000
10000000
01000000
,
10000000
00010000
10000000
00001000
,
00010000
00000100
00000010
00000001
,
00000000
00000000
00001001
00001001
,
00000001
00000100
00000001
00010000
,
00000001
00000100
00000001
00001000
,
00010000
00100000
01000000
10000000
,
00010000
00000000
10010000
10010000
,
10000000
01000000
10000000
00010000
,
10000000
01000000
10000000
00100000
,
01000000
00001000
00010000
00000010
,
00001002
00000000
00000000
00000000
,
00000000
00000000
00000000
00000000
,
00000003
00000000
00000000
00011000
;

//---------------dance-double - ----------------
#NOTES:
     dance-double:
     :
     Medium:
     7:
     0.324,0.357,0.190,0.056,0.000:
00000000
00000000
00000000
00000000
,
00000000
00000000
00000000
00000000
,
00000000
00000000
00000000
00000000
,
00000000
00000000
00000000
00000000
,
10000000
00000000
01000000
00000000
00100000
00000000
00010000
10000000
,
00000000
00001000
01000000
00001000
,
00020000
00000000
00002000
00033000
,
00011000
00000000
00000000
00000000
,
00000110
00000000
00000010
00000000
00000001
00000010
00000001
00000000
,
00000010
00000000
00000100
00000000
00000010
00000001
00000010
00000000
,
00000001
00000000
00001000
00000000
00000010
00001000
00000010
00000000
,
00010000
00000000
00001000
00000000
01000000
00100000
01000000
00000000
,
00010000
00000000
00100000
00000000
00001000
00010000
00001000
00000000
,
00010000
00000000
00000010
00000000
00000100
00000010
00000100
00000000
,
00000001
00000000
00000010
00000000
00000100
00001000
00000100
00000000
,
00010000
00001000
00010000
00001000
01000000
00100000
01000000
00000000
,
00010000
00100000
01000000
00000000
10000000
00100000
10000000
00000000
,
01000000
00100000
00010000
00000000
00001000
00100000
00001000
00000000
,
00020000
00000000
00002000
00033000
,
00001000
00000000
00000100
00000000
00000010
00000000
00000001
00001000
,
00000001
00000100
00001000
00000100
,
00000001
00001000
00000001
00001000
00000001
00000000
00010001
00000000
,
00010000
00000100
00000001
00000100
,
00010000
00001000
00010000
00001000
00010000
00000000
00011000
00000000
,
01000000
00010000
01000000
00010000
01000000
00000000
00100000
00000000
,
10000000
01000000
10000000
01000000
10000000
00000000
00010000
00000000
,
10010000
10010000
10010000
10010000
,
00000000
00000000
00000000
00000000
00000000
00000000
00000000
10000000
,
00010000
00000000
01000000
00010000
01000000
00000000
00010000
10000000
,
00000000
10000000
00000000
00000000
01000000
00000000
00100000
00000000
,
00010000
00001000
00000100
00000010
,
00000001
00001000
00001000
00000000
00001001
00000000
00001001
00000000
,
00001000
00000000
00000001
00000010
00000001
00000000
00000100
00000010
,
00000000
00000010
00000000
00000000
00001000
00000100
00000010
00000000
,
00000100
00010000
00001000
01000000
,
00100000
10000000
10010000
10010000
,
01100000
00000000
10000000
00100000
10000000
00000000
01000000
00100000
,
00000000
00100000
00000000
00000000
00010000
01000000
00100000
01000000
,
00001000
00010000
00000100
00000010
,
00000001
00001000
00000001
00000000
00001001
00000000
00001001
00000000
,
00001000
00000100
00000001
00000100
,
00001000
00000000
00010000
00000000
00100000
01000000
00100000
01000000
,
10000000
00100000
01000000
00001000
,
00012000
00000000
00000000
00000000
,
00000000
00000000
00000000
00000000
,
00003000
00000000
00000000
00000110
;

//---------------dance-double - ----------------
#NOTES:
     dance-double:
     :
     Hard:
     9:
     0.429,0.485,0.357,0.089,0.089:
00000000
00000000
00000000
00000000
,
00000000
00000000
00000000
00000000
,
00000000
00000000
00000000
00000000
,
00000000
00000000
00000000
00000000
,
10010000
00000000
01000000
00000000
00100000
00000000
00010000
10000000
,
00000000
00000000
01000000
00100000
00001000
00000000
00001000
00010000
,
00000020
00000000
00000200
00000330
,
00002002
00000000
00000000
00003003
,
00001000
00000000
00000100
00000000
00000010
00000000
00000000
00000000
00000001
00000000
00000000
00000001
00000000
00000000
00000000
00000000
,
00000100
00000000
00000010
00000000
00001000
00000000
00000010
00000000
00010000
00000000
00000000
00010000
00000000
00000000
00000000
00000000
,
00001000
00000000
00100000
00000000
01000000
00000000
00000000
00000000
10000000
00000000
00000000
10000000
00000000
00000000
00000000
00000000
,
01000000
00000000
00100000
00000000
00010000
00000000
00100000
00000000
01000000
00000000
00000000
01000000
00000000
00000000
00000000
00000000
,
10000000
00000000
00100000
00000000
01000000
00000000
00000000
00000000
00001000
00000000
00000000
00001000
00000000
00000000
00000000
00000000
,
00010000
00000000
00000100
00000000
00000010
00000000
00000100
00000000
00010000
00000000
00000000
00010000
00000000
00000000
00000000
00000000
,
00000010
00000000
00000100
00000000
00000001
00000000
00000010
00000000
00000001
00000000
00000000
00000001
00000000
00000000
00000000
00000000
,
00001000
00000001
00001000
00000001
00001000
00000000
00000000
00000000
00000010
00000000
00000100
00000000
00000001
00000000
00000000
00000000
,
00010000
00000000
00001000
00000000
00010000
00000000
00100000
00000000
01000000
00000000
00000000
01000000
00000000
00000000
00000000
00000000
,
10000000
00000000
00100000
00000000
01000000
00000000
00001000
00000000
00010000
00000000
00000000
00010000
00000000
00000000
00000000
00000000
,
00000020
00000000
00000200
00000330
,
00001001
00000000
00000010
00000000
00000100
00000000
00001000
00000001
,
00010000
00000000
00000000
00001000
00010000
00000000
00001000
00000000
01000000
00000000
00100000
00000000
01000000
00000000
00001000
00000000
,
00100000
01000000
10000000
01000000
00100000
00100000
00001000
00001000
,
00010000
00000000
00000000
00000100
00001000
00000000
00000010
00000000
00000100
00000000
00000010
00000000
00001000
00000000
00000100
00000000
,
00000010
00000001
00010000
00001000
00100000
00100000
01000000
01000000
,
00100001
00000000
00000000
00000010
00000100
00000000
00001000
00000000
00000001
00000000
00001000
00000000
00000100
00000000
00010000
00000000
,
00001000
00100000
01000000
10000000
01000000
00100000
00001000
00000000
,
00011000
00011000
00011000
00011000
,
00000000
00000000
00000000
00000000
00000000
00000000
00000000
00011000
,
01001000
00000000
01100000
00000000
10100000
00000000
10000000
10010000
,
00000000
00110000
00000000
00010000
10000000
10000000
10000000
00001000
,
00010000
00000100
00000010
00000001
00000010
00000100
00010000
00001000
,
00000000
00000000
00010000
00001000
00010000
00000000
00000010
00000000
00000110
00000000
00000000
00000000
00000110
00000000
00000000
00000000
,
00001001
00000000
00000011
00000000
00001001
00000000
00001000
00001010
,
00000000
00010010
00000000
00010000
00000010
00000010
00000010
00010000
,
00001000
00100000
01000000
10000000
00100000
00010000
00100000
10000000
,
00001000
00000000
01000000
00100000
01000000
00000000
00001000
00000000
00011000
00000000
00000000
00000000
00011000
00000000
00000000
00000000
,
00010010
00000000
00000110
00000000
00000011
00000000
00000100
00000110
,
00000000
00010010
00000000
00010000
00000010
00000010
00000010
00001000
,
00010000
00100000
01000000
20000000
00000000
00010000
00010000
30010000
,
10000000
00100000
01000000
00000000
10010000
00000000
10010000
00000000
,
10000000
10000000
10000000
00010000
01000000
10000000
01000000
00010000
,
10000000
01000000
00100000
00000000
00001000
00001000
00001000
00010000
,
00000001
00000100
00001000
00000100
00000001
00000010
00000100
00000000
,
00021000
00000000
00000000
00000000
,
00000000
00000000
00000000
00030000
,
00000000
00000000
00000000
01100000
;

//---------------dance-double - ----------------
#NOTES:
     dance-double:
     :
     Challenge:
     11:
     0.488,0.485,0.312,0.045,0.307:
00000000
00000000
00000000
00000000
,
00000000
00000000
00000000
00000000
,
00000000
00000000
00000000
00000000
,
00000000
00000000
00000000
00000000
,
10100000
00000000
01100000
00000000
01001000
00000000
00001000
00001000
,
00010000
00000000
00000100
00000000
00010000
00000000
00000000
00000000
00000100
00000000
00000010
00000000
00000100
00000000
00001000
00000001
,
00002000
00000001
00003200
00000010
,
00000301
00000000
00000000
00000000
00000000
00000000
00000000
00000000
00000000
00000000
00010000
00000000
00010000
00001000
00010000
00000000
,
00001000
00000000
01000000
00000000
00100000
01000000
00000000
00000000
00100000
00000000
10000000
00100000
00000000
00000000
10000000
00000000
,
00001000
00000000
00100000
00000000
01000000
00100000
00000000
00000000
00001000
00000000
00010000
00001000
00000000
00000000
00000000
00000000
,
00010000
00000000
00000100
00000000
00000010
00000100
00000000
00000000
00010000
00000000
00000001
00000100
00000000
00000000
00000001
00000000
,
00001000
00000000
00000100
00000000
00001000
00000001
00000000
00000000
00000010
00000000
00000100
00001000
00000000
00000000
00000000
00000000
,
00010000
00000000
00001000
00000000
01000000
00100000
00000000
00000000
10000000
00000000
00010000
01000000
00000000
00000000
00001000
00000000
,
00100000
00000000
00001000
00000000
00010000
00001000
00000000
00000000
01000000
00000000
00100000
01000000
00000000
00000000
00000000
00000000
,
00001000
00000000
00010000
00000000
00000100
00000010
00000000
00000000
00000001
00000000
00000100
00000001
00000000
00000000
00001000
00000000
,
00000100
00001000
00000100
00001000
00000100
00000000
00010000
00000000
00001000
00000000
00100000
00000000
01000000
00000000
00000000
00000000
,
10000000
00000000
10000000
00000000
00010000
01000000
00000000
00000000
00001000
00000000
00010000
00001000
00000000
00000000
00010000
00000000
,
00000010
00000000
00000010
00000000
00000100
00000001
00000000
00000000
00010000
00000000
00000100
00010000
00000000
00000000
00000000
00000000
,
10002000
10000000
00200000
01003000
,
10300000
00000000
00000000
00000000
01100000
00000000
00000000
00000000
01001000
00000000
00001000
00010000
00001000
00000000
00001000
00000000
,
00010000
00000000
00000000
00010000
00000010
00000000
00000000
00000010
00001000
00000000
00000000
00001000
00000001
00000000
00000000
00000001
,
00000010
00000000
00000000
00000010
00000100
00000000
00000000
00000100
00000010
00000000
00000000
00000000
00001001
00000000
00000000
00000000
,
00000100
00000000
00000000
00000100
00010000
00000000
00000000
00010000
00001000
00000000
00000000
00001000
01000000
00000000
00000000
01000000
,
00100000
00000000
00000000
00100000
10000000
00000000
00000000
10000000
01000000
00000000
00000000
00000000
10010000
00000000
00000000
00000000
,
00010000
00000000
00000000
00010000
01000000
00000000
00000000
01000000
00001000
00000000
00000000
00001000
00010000
00000000
00000000
00010000
,
00000100
00000000
00000000
00000100
00000010
00000000
00000000
00000000
00000010
00000000
00000000
00000000
00000110
00000000
00000000
00000000
,
00001001
00001001
00001001
00001001
,
00000000
00000000
00000000
00000000
00000000
00000000
00000000
00011000
,
01001000
00000000
00000000
01000000
00100000
00000000
00000000
00100000
10000000
00000000
00000000
00000000
01000000
00000000
00100000
00000000
,
00000000
01010000
00000000
00010000
10000000
10000000
10000000
00100000
,
00010000
00100000
10000000
00010000
00001000
00000100
00000010
00000010
,
00000000
00000000
00000001
00001000
00000001
00001000
00000001
00000000
00000110
00000000
00000000
00000000
00000110
00000000
00000000
00000000
,
00001010
00000000
00000000
00000010
00000100
00000000
00000000
00000100
00000001
00000000
00000000
00000000
00000010
00000000
00000100
00000000
,
00000000
00001100
00000000
00001000
00000001
00000001
00000001
00000010
,
00001000
00000010
00000001
00001000
00010000
00100000
01000000
10000000
,
00000000
00000000
00100000
01000000
00100000
01000000
00100000
00000000
10010000
00000000
00000000
00000000
10010000
00000000
00000000
00000000
,
01100000
00000000
00000000
00100000
01000000
00000000
00000000
01000000
10000000
00000000
00000000
00000000
00100000
00000000
01000000
00000000
,
00000000
01010000
00000000
00000000
00010000
00100000
00010000
01000000
,
00001000
00010000
00000100
00000001
00000100
00010000
00001000
00100000
,
00000000
00000000
00001000
00010000
00001000
00010000
00001000
00000000
00011000
00000000
00000000
00000000
00011000
00000000
00000000
00000000
,
00000100
00000100
00000010
00000010
00000001
00000100
00001000
00000100
,
00000010
00010000
00000000
00001000
01000000
01000000
00100000
00100000
,
10000000
00100000
00010000
00100000
01000000
00001000
00010000
00000000
,
00011000
00010000
00000100
00000001
,
00000100
00000000
00000000
00000000
00010000
00000000
00000000
00000000
00001000
00010000
00001000
00010000
00001000
00010000
00000000
00000000
,
00000000
00000000
00000000
01100000
;

//---------------dance-single - ----------------
#NOTES:
     dance-single:
     :
     Beginner:
     2:
     0.120,0.153,0.112,0.000,0.000:
0000
0000
0000
0000
,
0000
0000
0000
0000
,
0000
0000
0000
0000
,
0000
0000
0000
0000
,
1000
0000
0100
0000
,
1000
0000
0000
0000
,
1001
0000
0000
0000
,
1001
0000
0000
0000
,
0001
0000
0000
0000
,
0010
0000
0000
0000
,
0100
0000
0000
0000
,
1000
0000
0000
0000
,
0001
0000
0000
0000
,
0010
0000
0000
0000
,
0100
0000
0000
0000
,
1000
0000
0000
0000
,
0001
0000
0000
0000
,
0100
0000
0000
0000
,
0010
0000
0000
0000
,
0110
0000
0000
0000
,
1001
0000
0010
0000
,
0100
0000
0010
0000
,
1000
0000
0001
0000
,
1000
0000
0001
0000
,
0010
0000
0100
0000
,
0010
0000
0100
0000
,
1001
0000
0000
0000
,
0000
0000
0000
0000
,
0001
0000
0100
0000
,
0010
0000
1000
1000
,
1000
0000
0100
0000
,
0010
0000
1001
0000
,
0001
0000
0100
0000
,
0010
0010
0010
0000
,
1000
0000
0100
0000
,
0010
0000
1001
0000
,
1000
0000
0100
0000
,
0010
0010
0010
0000
,
0100
0000
1000
0000
,
0010
0000
0110
0000
,
0100
0000
0100
0000
,
0001
0000
0001
0000
,
1000
0000
1000
0000
,
1001
0000
0000
0000
,
0000
0000
0000
0000
,
0000
0000
0000
0110
;
