#TITLE:心臓を捧げよ!;
#SUBTITLE:;
#ARTIST:Linked Horizon;
#TITLETRANSLIT:SHINZOU WO SASAGEYO!;
#SUBTITLETRANSLIT:;
#ARTISTTRANSLIT:;
#CREDIT:DigiMindAxel;
#BANNER:SHINZOU WO SASAGEYO!.png;
#BACKGROUND:SHINZOU WO SASAGEYO!-bg.png;
#LYRICSPATH:SHINZOU WO SASAGEYO!.lrc;
#CDTITLE:DigiMindAxel original simfile.png;
#MUSIC:SHINZOU WO SASAGEYO!.ogg;
#METERTYPE:DDR X;
#OFFSET:-0.639;
#SAMPLESTART:51.400;
#SAMPLELENGTH:12.000;
#SELECTABLE:YES;
#BPMS:0.000=160.000;
#STOPS:;
#BGCHANGES:0.000=SHINZOU WO SASAGEYO!.avi=1.000=1=1=0,
99999=-nosongbg-=1.000=0=0=0 // don't automatically add -songbackground-
;

//---------------dance-single - ----------------
#NOTES:
     dance-single:
     :
     Easy:
     5:
     0.232,0.290,0.089,0.122,0.000:
0000
0000
0000
0000
,
0000
0000
0000
0000
,
0000
0000
0000
0000
,
0000
0000
0000
0000
,
1000
0000
1000
0000
,
0001
0000
0001
0000
,
0010
0000
0010
0000
,
0100
0000
0100
0000
,
1000
0000
1000
0000
,
0001
0000
0001
0000
,
0100
0000
0100
0000
,
0010
0100
0010
0000
,
1000
0000
0001
0000
,
0010
0000
0001
1000
,
0001
0000
0010
0000
,
0100
0000
0010
0001
,
0010
0000
0100
0000
,
1000
0010
1000
0000
,
0001
0000
0100
0000
,
0010
0100
0010
0100
,
0001
0000
0010
0000
,
0100
1000
0100
0000
,
1000
0000
0100
0000
,
0010
0001
0010
0000
,
0001
0000
1000
0000
,
0100
0010
0100
0000
,
1000
0000
0001
0000
,
0010
0100
0010
0100
,
0010
0000
0110
0000
,
0010
0000
0110
0000
,
2000
0000
0000
0000
,
3002
0000
0000
0000
,
0023
0000
0032
0000
,
2003
0000
0000
3000
,
1001
0000
0000
0000
,
1001
0000
0000
0000
,
0010
0000
0000
0000
,
0100
0000
0000
0000
,
0110
0000
0000
0000
,
0000
0000
0000
0000
,
1001
0000
0001
1000
,
0002
0000
2003
0000
,
3001
0100
0001
0000
,
0010
0100
1000
0000
,
0010
0100
0010
0100
,
0001
0010
0001
0000
,
0100
0010
0100
0000
,
0010
1000
0100
0000
,
2002
0000
0000
3003
,
1000
0100
0010
0000
,
0100
0010
0001
0000
,
0010
0100
1000
0001
,
0010
0100
1000
0001
,
1000
0010
0100
0000
,
0001
0100
0010
0000
,
1000
0010
0100
0001
,
1000
0100
0010
0100
,
2002
0000
0000
0000
,
3003
0000
0000
0000
;

//---------------dance-single - ----------------
#NOTES:
     dance-single:
     :
     Medium:
     8:
     0.416,0.580,0.322,0.156,0.000: // measure 1
0000
0000
0000
0000
,  // measure 2
0000
0000
0000
0000
,  // measure 3
0000
0000
0000
0000
,  // measure 4
0000
0000
0000
0000
,  // measure 5
0001
0001
0001
0001
,  // measure 6
0010
0010
0010
0010
,  // measure 7
0001
0001
0001
0001
,  // measure 8
0100
0100
0100
0100
,  // measure 9
0010
0010
0010
0010
,  // measure 10
1000
1000
1000
1000
,  // measure 11
0001
0001
0001
0001
,  // measure 12
1000
0100
0010
0001
,  // measure 13
1000
0010
0100
0010
0000
1000
0010
1000
,  // measure 14
0000
0001
0100
0001
0000
0000
1001
0000
,  // measure 15
0001
1000
0100
1000
0000
0010
0100
0010
,  // measure 16
0000
1000
0001
1000
0000
0000
1001
0000
,  // measure 17
1000
0001
0010
0001
0000
1000
0010
1000
,  // measure 18
0000
0001
1000
0001
0000
0000
1001
0000
,  // measure 19
1000
0010
0100
0010
0000
1000
0010
1000
,  // measure 20
0001
0010
0100
1000
,  // measure 21
0001
0010
0100
0000
0010
0000
0001
0000
,  // measure 22
0200
0000
0310
1000
,  // measure 23
0001
0100
0010
0000
0100
0000
0010
0000
,  // measure 24
2000
0001
3001
0000
,  // measure 25
1000
0100
0010
0000
0100
0000
1000
0000
,  // measure 26
0002
0100
0103
0000
,  // measure 27
0001
1000
0010
0000
0100
0000
0001
0000
,  // measure 28
2000
0001
3001
0000
,  // measure 29
1001
1001
1001
1001
,  // measure 30
0011
0011
0011
0011
,  // measure 31
1001
0000
1100
0000
,  // measure 32
1001
0000
1100
0000
,  // measure 33
0020
0000
0100
0000
,  // measure 34
0130
0001
0010
0000
,  // measure 35
0200
0000
1300
0000
,  // measure 36
0020
0000
0130
0000
,  // measure 37
0002
0000
1000
0000
,  // measure 38
1000
0000
1003
0000
,  // measure 39
0020
0000
0000
0000
,  // measure 40
0230
0000
0000
0000
,  // measure 41
0301
0010
0100
1000
,  // measure 42
1001
1001
1001
1001
,  // measure 43
0001
0100
0010
0000
0100
0010
1000
0000
,  // measure 44
0100
0010
0001
0000
1000
0100
0010
0000
,  // measure 45
0001
1000
0100
1000
0001
0000
0010
0000
,  // measure 46
1100
0011
1100
0011
,  // measure 47
0001
0100
0010
0000
0100
0010
1000
0000
,  // measure 48
0001
0010
0100
0000
1000
0100
0010
0000
,  // measure 49
0220
0000
0000
0330
,  // measure 50
0001
1000
0000
0100
0000
0010
0001
1000
,  // measure 51
0000
0001
0000
0100
0000
0010
1000
0001
,  // measure 52
0000
0010
0000
0100
0000
1000
0100
0010
,  // measure 53
0000
0011
0000
1100
0000
0010
0001
1000
,  // measure 54
0000
0001
0000
0010
0000
0100
0010
0001
,  // measure 55
0000
0100
0000
0010
0000
1000
0001
0010
,  // measure 56
0000
0100
0000
1000
0000
0100
1000
0001
,  // measure 57
0000
0101
0000
1010
0000
0101
0000
0020
,  // measure 58
2000
0000
0000
0000
,  // measure 59
3030
0000
0000
0000
;

//---------------dance-single - ----------------
#NOTES:
     dance-single:
     :
     Hard:
     11:
     0.647,0.805,0.344,0.455,0.122:
0000
0000
0000
0000
,
0000
0000
0000
0000
,
0000
0000
0000
0000
,
0000
0000
0000
0000
,
1000
0000
0000
0000
1000
0000
0000
0000
1000
0000
0000
0000
1000
0000
0001
0100
,
0001
0000
0000
0000
0001
0000
0000
0000
0001
0000
0100
0000
0010
0000
1000
0010
,
1000
0000
0000
0000
1000
0000
0000
0000
1000
0000
0000
0000
1000
0000
0001
0010
,
0001
0001
0001
1001
,
1100
0000
0000
0000
0100
0000
1000
0100
1000
0000
0000
0000
1000
0000
0010
0100
,
0010
0000
0000
0000
0010
0000
0100
0001
0100
0000
0000
0001
0000
0000
0010
0000
,
0100
0000
0000
0000
0100
0000
1000
0100
1000
0000
0000
0000
0001
0000
0010
0001
,
0010
0011
1001
1100
,
1000
0001
0100
0001
0000
0001
1000
0100
,
0000
0100
0010
0001
0000
0001
0100
0010
,
0100
0001
1000
0100
0000
0100
1000
0001
,
0000
0001
0100
0010
0000
0010
1000
0001
,
0010
0001
1000
0100
0000
0100
0010
0001
,
0000
0000
0001
0000
0100
0000
0010
0000
0000
0000
0010
0000
0100
0000
0001
0100
,
0001
0000
1000
0000
0000
0000
0100
1000
0100
0000
0010
0000
0000
0000
0001
0100
,
0001
1000
0100
1000
0001
0010
0100
0000
,
0010
0001
0010
0001
1000
0010
0001
0010
,
2000
0100
3100
0110
,
0010
0001
1000
0001
0010
1000
0010
0001
,
0200
0010
0310
1010
,
1000
0001
0010
0001
1000
0100
0001
0100
,
2000
0010
3010
1001
,
0001
0100
1000
0100
0001
0010
0100
1000
,
1010
0110
0101
0110
,
0010
1000
0100
0001
0100
1000
0001
0010
,
0001
1000
0010
0001
0010
1000
0100
0010
,
0200
1000
0000
1300
0010
0000
0000
0000
,
0200
0001
0000
0301
1000
0000
0000
0000
,
2001
3100
1002
0013
,
1100
0000
0110
0000
0011
0000
0001
1000
,
0020
0000
0000
1000
1030
0000
0000
0010
,
0200
0000
0000
0001
0301
0000
0000
0000
,
2001
0000
0000
0000
3001
0000
1000
0100
,
0020
0000
0000
0001
0031
0000
1001
0000
,
0201
0000
0320
0000
,
2030
0000
3002
0000
,
0013
0000
0100
0000
0010
0000
0100
0000
1000
0000
0010
0000
0100
0000
0001
1000
,
0001
1001
1001
1001
,
1000
0010
0100
1000
0100
0010
1000
0001
,
0100
0010
0001
0010
0100
0001
1000
0000
,
0100
0001
0100
1000
0001
0010
0100
0010
,
0001
0100
0001
0100
0010
1000
0100
0000
,
1000
0100
0010
1000
0010
0100
1000
0001
,
0010
0000
0100
0000
0001
0000
0100
0000
0010
0000
0001
0000
1000
0001
1000
0001
,
2000
0000
0000
0000
0000
0000
0000
0000
3000
0000
0001
1000
0001
1000
0001
1000
,
0001
0200
0001
0302
1000
1003
0001
0100
,
1000
0200
0001
0302
1000
1003
0001
0010
,
1000
0020
0001
0032
1000
1003
0001
0202
,
0303
0000
0220
0000
0330
0000
2020
0000
3030
0000
1001
0000
0001
0100
0001
0100
,
0010
0200
0001
0302
1000
1003
0001
0100
,
1000
0200
0001
0302
1000
1003
0001
0010
,
1000
0020
0001
0032
1000
1003
0001
0202
,
0303
0000
0220
0000
0330
0000
2020
0000
3030
0000
1001
0000
0001
0010
0001
0010
,
0200
0000
0000
0000
,
0300
0000
0000
0000
;

//---------------dance-single - ----------------
#NOTES:
     dance-single:
     :
     Beginner:
     1:
     0.083,0.158,0.100,0.000,0.000:
0000
0000
0000
0000
,
0000
0000
0000
0000
,
0000
0000
0000
0000
,
0000
0000
0000
0000
,
0001
0000
0000
0000
,
0000
0000
0000
0000
,
1000
0000
0000
0000
,
0000
0000
0000
0000
,
0001
0000
0000
0000
,
0000
0000
0000
0000
,
1000
0000
0000
0000
,
0000
0000
0000
0000
,
1001
0000
0000
0000
,
0000
0000
0000
0000
,
0110
0000
0000
0000
,
0000
0000
0000
0000
,
1001
0000
0000
0000
,
0000
0000
0000
0000
,
0110
0000
0010
0000
,
0010
0000
0000
0000
,
1000
0000
0000
0000
,
0000
0000
0000
0000
,
0100
0000
0000
0000
,
0000
0000
0000
0000
,
0010
0000
0000
0000
,
0000
0000
0000
0000
,
0001
0000
0000
0000
,
0000
0000
0000
0000
,
1001
0000
0000
0000
,
1000
0000
0000
0000
,
0001
0000
0000
0000
,
0000
0000
0000
0000
,
0010
0000
0100
0000
,
0010
0000
0000
0000
,
1001
0000
0000
0000
,
0000
0000
0000
0000
,
1000
0000
0000
0000
,
0000
0000
0000
0000
,
0001
0000
0000
0000
,
0000
0000
0000
0000
,
1001
0000
1000
0000
,
1000
0000
0000
0000
,
0001
0000
0000
0000
,
1000
0000
0000
0000
,
0100
0000
1000
0000
,
0100
0000
0000
0000
,
1000
0000
0000
0000
,
0001
0000
0000
0000
,
1001
0000
0000
0000
,
1000
0000
0000
0000
,
0010
0000
0000
0000
,
0100
0000
0000
0000
,
0001
0000
0000
0000
,
1000
0000
0000
0000
,
0100
0000
0000
0000
,
0010
0000
0000
0000
,
0001
0000
0000
0000
,
1001
0000
0000
0000
;
