#TITLE:SHELTER;
#SUBTITLE:;
#ARTIST:PORTER ROBINSON & MADEON;
#TITLETRANSLIT:;
#SUBTITLETRANSLIT:;
#ARTISTTRANSLIT:;
#CREDIT:DigiMindAxel;
#BANNER:SHELTER.png;
#BACKGROUND:SHELTER-bg.png;
#LYRICSPATH:SHELTER.lrc;
#CDTITLE:DigiMindAxel original simfile.png;
#MUSIC:SHELTER.ogg;
#METERTYPE:DDR X;
#OFFSET:-0.400;
#SAMPLESTART:77.200;
#SAMPLELENGTH:12.000;
#SELECTABLE:YES;
#BPMS:0.000=100.000;
#STOPS:;
#BGCHANGES:0.000=SHELTER.avi=1.000=1=1=0,
99999=-nosongbg-=1.000=0=0=0 // don't automatically add -songbackground-
;

//---------------dance-single - ----------------
#NOTES:
     dance-single:
     :
     Easy:
     3:
     0.162,0.203,0.032,0.138,0.000:
0000
0000
0000
0000
,
0000
0000
0000
0000
,
0000
0000
0000
0000
,
0000
0000
0000
0000
,
2000
0000
0000
3000
,
0002
0000
0000
0003
,
2000
0000
0000
3000
,
0001
0010
0100
1000
,
1001
0001
0001
0000
,
0100
0100
0100
0000
,
0010
0010
0010
0000
,
1000
0001
0010
0100
,
1000
1000
1000
0000
,
0010
0010
0010
0000
,
0100
0100
0100
0000
,
0001
1000
0100
0010
,
0002
0000
0000
0000
,
0203
0000
0310
0000
,
1000
0001
1000
0000
,
0100
1000
0100
0000
,
0010
0100
0010
0000
,
0001
0010
0001
0000
,
1000
0001
1000
0000
,
0001
0100
0001
0000
,
0200
0000
0320
0000
,
0230
0000
0320
0000
,
2030
0000
3002
0000
,
2003
0000
3002
0000
,
1003
0100
0010
0000
,
0100
0010
0001
0000
,
0010
0100
1000
0000
,
0002
0000
0000
0000
,
1003
0100
0010
0000
,
0100
0010
0001
0000
,
1000
0010
0100
0000
,
0001
0100
0100
0100
,
0001
0010
0100
0000
,
0010
0100
1000
0000
,
0001
0100
0010
0000
,
1000
0010
0010
0010
,
1000
0100
0010
0000
,
0010
0100
1000
0000
,
1000
0001
0100
0000
,
0100
0001
1000
0000
,
1001
0000
0110
0000
,
1001
0001
0100
0001
,
2000
0000
0000
0000
3200
0000
0000
2300
,
0000
0000
0000
0000
,
0000
0000
0000
0000
,
0000
0000
0000
0000
,
3000
0000
0000
0000
;

//---------------dance-single - ----------------
#NOTES:
     dance-single:
     :
     Medium:
     7:
     0.284,0.345,0.097,0.057,0.081: // measure 1
0000
0000
0000
0000
,  // measure 2
0000
0000
0000
0000
,  // measure 3
0000
0000
0000
0000
,  // measure 4
0000
0000
0000
0000
,  // measure 5
1000
0100
0010
0000
,  // measure 6
0100
0010
0001
0000
,  // measure 7
1000
0010
0100
0000
,  // measure 8
0010
0100
0001
0100
0010
0100
0001
0100
,  // measure 9
0010
0000
1000
0100
0010
0000
1001
0000
,  // measure 10
0001
0000
0100
0010
1000
0000
1001
0000
,  // measure 11
0001
0000
0010
0100
1000
0000
1001
0000
,  // measure 12
0001
0010
0100
0010
0001
0010
0100
0010
,  // measure 13
0001
0000
1000
0010
0100
0000
0110
0000
,  // measure 14
1000
0000
0001
0010
0100
0000
0110
0000
,  // measure 15
0001
0000
1000
0010
0100
0000
0110
0000
,  // measure 16
1000
0100
0010
0100
1000
0100
0010
0100
,  // measure 17
1000
1000
1000
1000
,  // measure 18
2000
0000
3001
1001
,  // measure 19
0100
0100
0100
0100
,  // measure 20
0010
0000
0010
0000
0010
0000
0010
0100
,  // measure 21
0001
0000
1000
0100
0010
0001
1000
0000
,  // measure 22
0010
0100
0010
0000
0010
1000
0010
0000
,  // measure 23
1000
0000
0001
0010
0100
1000
0001
0000
,  // measure 24
0200
0000
0010
0000
0310
0000
1000
0001
,  // measure 25
0100
0000
0000
0100
0000
0000
0100
0000
0000
0000
0000
0000
0000
0000
0000
0000
,  // measure 26
0010
0000
0000
0010
0000
0000
0010
0000
0000
0000
0000
0000
0000
0000
0000
0000
,  // measure 27
1000
0000
0000
1000
0000
0000
1000
0000
0000
0000
0000
0000
0000
0000
0000
0000
,  // measure 28
0001
0000
0000
0001
0000
0000
0001
0000
0000
0000
0000
0000
1000
0000
0001
0000
,  // measure 29
0100
0000
0001
1000
0100
0000
1000
0001
,  // measure 30
0100
0000
0001
0010
0100
0000
1000
0000
,  // measure 31
0001
0000
1000
0001
0010
0000
0001
1000
,  // measure 32
0010
0000
0000
0000
1000
0001
1000
0001
,  // measure 33
1001
0000
0000
0000
1000
0010
0000
0100
0000
0000
0000
0000
0001
0000
1000
0000
,  // measure 34
0001
0000
0000
0000
1000
0010
0000
0100
0000
0000
0000
0000
0001
0000
1000
0000
,  // measure 35
0001
0000
0000
0000
0010
0100
0000
1000
0000
0000
0000
0000
0100
0000
0010
0000
,  // measure 36
0100
1000
0001
0100
0001
1000
0001
0100
,  // measure 37
0001
0000
0000
0000
1000
0010
0000
0100
0000
0000
0000
0000
0001
0000
1000
0000
,  // measure 38
0001
0000
0000
0000
0010
0100
0000
1000
0000
0000
0000
0000
0001
0000
1000
0000
,  // measure 39
0001
0000
0000
0000
0100
0010
0000
1000
0000
0000
0000
0000
0100
0000
0010
0000
,  // measure 40
0100
1000
0001
0100
0001
1000
0001
0100
,  // measure 41
0001
0000
0000
1000
0000
0000
0002
0000
0000
0000
0013
0000
0000
0000
0000
0000
,  // measure 42
0100
0000
0000
1000
0000
0000
0010
0000
0000
0000
0000
0000
0000
0000
0100
0000
,  // measure 43
0001
0000
0000
0010
0000
0000
0200
0000
0000
0000
1300
0000
0001
0000
0010
0000
,  // measure 44
0100
0000
0000
0010
0000
0000
0001
0000
0000
0000
0000
0000
0100
0000
0100
0000
,  // measure 45
1001
0000
0100
0100
1001
0000
0010
0010
,  // measure 46
1001
0000
0001
0010
0001
0100
0010
1000
,  // measure 47
0200
0000
0010
0000
0310
0000
0000
0202
,  // measure 48
0000
0000
0000
0000
,  // measure 49
0000
0000
0000
0000
,  // measure 50
0000
0000
0000
0000
,  // measure 51
0303
0000
0000
0000
;

//---------------dance-single - ----------------
#NOTES:
     dance-single:
     :
     Hard:
     10:
     0.451,0.467,0.162,0.162,0.325:
0000
0000
0000
0000
,
0000
0000
0000
0000
,
0000
0000
0000
0000
,
0000
0000
0000
0000
,
2000
0000
0000
0000
3001
0100
0000
0020
0000
0000
0000
0000
0030
0000
1000
0000
,
2000
0000
0000
0000
3010
0100
0000
0002
0000
0000
0000
0000
1003
0000
0010
0000
,
0200
0000
0000
0000
0301
1000
0000
0200
0000
0000
0000
0000
0300
0000
1000
0000
,
0001
0000
0010
0100
0010
0000
0010
0001
0010
0000
0010
0100
0010
0000
0010
0001
,
0010
0000
0100
0000
1000
0001
0000
0001
0100
0000
0010
0000
1001
0000
0000
0000
,
0001
0000
0010
0000
0100
1000
0000
1000
0001
0000
0100
0000
0110
0000
0010
0000
,
1000
0000
0010
0000
1000
0001
0000
0001
0010
0000
0100
0000
1001
0000
0000
0000
,
0001
0000
0010
0100
0010
0000
0010
0001
0010
0000
0010
0100
0010
0000
0010
0001
,
0010
0000
0100
0000
1000
0001
0000
0001
0100
0000
0010
0000
1001
0000
0000
0000
,
1000
0000
0100
0000
0010
0001
0000
0001
1000
0000
0100
0000
0110
0000
0010
0000
,
0001
0000
0100
0000
0010
1000
0000
1000
0100
0000
0010
0000
1001
0000
0000
0000
,
1000
0000
0010
0100
0010
0000
0010
1000
0010
0000
0010
0100
0010
0000
0010
1000
,
0010
0000
1000
0001
1000
0001
0010
0100
,
1000
0000
0000
1000
0000
0000
0000
0000
0010
0000
0000
0010
0100
0000
0000
0000
,
0001
1000
0001
1000
0001
1000
0001
1000
,
0100
0000
0000
0000
0010
0000
0000
0000
0100
0000
0000
0000
0010
0000
0000
0000
0100
0000
0000
0000
0010
0000
0000
0000
0001
1000
0001
0000
1000
0000
0001
0000
,
2000
0000
0100
0000
3100
0010
0000
0002
0000
0000
1003
0000
0010
0000
1000
0000
,
0001
0100
0010
0000
1000
0000
0001
0000
0100
0010
1000
0000
0001
0000
0000
0000
,
0100
0000
0010
0000
0100
0001
0000
2000
0000
0000
3100
0000
0010
0000
0001
0000
,
1000
0000
0000
0000
0010
0000
0000
0000
1000
0000
0000
0000
0000
0000
0000
0000
0001
0000
0000
0000
0100
0000
0000
0000
0001
1000
0001
0000
1000
0000
0001
0000
,
2000
0000
0000
0100
0000
0000
0100
0000
0000
0000
3001
0000
0000
0000
0000
0000
,
0020
0000
0000
0100
0000
0000
0130
0000
0000
0000
0000
0000
0000
0000
1000
0000
,
0002
0000
0000
0010
0000
0000
0010
0000
0000
0000
1003
0000
0001
0000
0100
0000
,
0020
0000
0000
0100
0000
0000
0130
0000
0000
0000
0001
0000
1000
0000
0100
0000
,
0001
0000
0001
0100
1000
0000
0001
0010
,
1000
0000
1000
0010
0001
1000
0100
0010
,
0100
0000
1000
0010
0001
0000
0001
0010
,
1000
0000
0000
0000
0000
0000
0000
0000
0000
0000
0000
0000
0000
0000
0000
0000
0001
1000
0001
0000
1000
0000
0001
0000
1000
0000
0100
0000
0010
0000
0000
0000
,
0101
0000
0001
0000
0100
0010
0000
0010
1000
0000
0001
0000
1001
0000
1000
0000
,
0010
0000
0100
0000
0001
1000
0000
1000
0100
0000
0010
0000
0011
0000
0001
0000
,
1000
0000
0010
0000
0100
0001
0000
0001
1000
0000
0100
0000
0110
0000
0010
0000
,
0001
0000
0010
0100
1000
0000
1000
0001
1000
0000
0100
0010
0001
0000
0001
1000
,
0001
0000
0100
0000
0010
1000
0000
1000
0001
0000
0010
0000
0110
0000
0100
0000
,
1000
0000
0001
0000
0100
0001
0000
0001
1000
0000
0100
0000
0110
0000
0010
0000
,
0001
0000
0010
0000
0100
0010
0000
0010
0001
0000
0100
0000
0110
0000
0010
0000
,
1000
0000
0010
0100
0001
0000
0001
1000
0001
0000
0100
0010
1000
0010
1000
0000
,
0001
0010
0100
0010
0001
0000
0100
0000
0010
0000
1000
0000
1010
0000
0000
0000
,
0010
0100
0001
0100
0010
0000
1000
0000
0001
0000
0010
0000
0011
0000
0000
0000
,
0001
1000
0010
1000
0001
0000
0010
0000
0100
0000
1000
0000
0001
0000
0001
0000
,
0100
0010
1000
0010
0100
0000
0001
0000
1000
0000
0100
0000
0110
0000
0010
0000
,
2001
0000
0100
3100
1002
0000
0100
0103
,
2001
0000
0001
3001
1000
0010
0001
0010
,
1000
0000
0200
0000
2000
0000
3300
2002
,
0000
0000
0000
0000
,
0000
0000
0000
0000
,
0000
0000
0000
0000
,
3003
0000
0000
0000
;

//---------------dance-single - ----------------
#NOTES:
     dance-single:
     :
     Beginner:
     1:
     0.063,0.095,0.041,0.000,0.000:
0000
0000
0000
0000
,
0000
0000
0000
0000
,
0000
0000
0000
0000
,
0000
0000
0000
0000
,
1000
0000
0000
0000
,
1000
0000
0000
0000
,
0001
0000
0000
0000
,
0001
0000
0000
0000
,
1001
0000
0000
0000
,
0001
0000
0000
0000
,
0100
0000
0000
0000
,
0010
0000
0010
0000
,
0100
0000
0000
0000
,
0001
0000
0000
0000
,
1000
0000
0000
0000
,
0100
0000
0100
0000
,
0100
0000
0000
0000
,
0010
0000
0000
0000
,
0110
0000
0010
0000
,
0010
0000
0000
0000
,
1000
0000
1000
0000
,
1000
0000
0000
0000
,
0001
0000
0001
0000
,
0001
0000
0000
0000
,
0010
0000
0000
0000
,
0000
0000
0000
0000
,
0100
0000
0000
0000
,
0000
0000
0000
0000
,
1000
0000
0000
0000
,
0001
0000
0000
0000
,
1000
0000
0000
0000
,
0000
0000
0000
0000
,
1001
0000
0000
0000
,
0001
0000
0000
0000
,
0100
0000
0000
0000
,
0010
0000
0010
0000
,
0010
0000
0000
0000
,
1000
0000
0000
0000
,
0001
0000
0000
0000
,
1000
0000
0000
0000
,
1001
0000
0000
0000
,
0001
0000
0000
0000
,
0100
0000
0000
0000
,
0010
0000
0000
0000
,
1000
0000
0001
0000
,
1000
0000
0001
0000
,
1000
0000
0000
0000
0000
0000
0000
1001
;
