#TITLE:SEXY SEXY SEXY;
#SUBTITLE:;
#ARTIST:KEN MARTIN;
#TITLETRANSLIT:;
#SUBTITLETRANSLIT:;
#ARTISTTRANSLIT:;
#CREDIT:DigiMindAxel;
#BANNER:SEXY SEXY SEXY.png;
#BACKGROUND:SEXY SEXY SEXY-bg.png;
#LYRICSPATH:SEXY SEXY SEXY.lrc;
#CDTITLE:SUPER EUROBEAT.png;
#MUSIC:SEXY SEXY SEXY.ogg;
#METERTYPE:DDR X;
#OFFSET:-3.068;
#SAMPLESTART:51.582;
#SAMPLELENGTH:12.000;
#SELECTABLE:YES;
#BPMS:0.000=158.000;
#STOPS:;
#BGCHANGES:;

//---------------dance-single - ----------------
#NOTES:
     dance-single:
     :
     Easy:
     6:
     0.324,0.306,0.077,0.033,0.000:
1000
0001
1000
0000
,
0001
1000
0001
0000
,
0010
0100
1000
0100
,
0010
0001
0100
0000
,
0001
1000
0001
0000
,
1000
0001
1000
0000
,
0100
0010
0001
0100
,
0010
0100
0001
0000
,
1000
0100
1000
0100
,
1000
0001
1000
0001
,
0010
0001
0010
0001
,
0100
0010
0100
0010
,
1000
0100
1000
0100
,
0010
0001
0010
0001
,
1000
0001
1000
0001
,
1000
0001
1000
0000
,
0001
0010
0001
0010
,
0001
1000
0001
1000
,
0010
1000
0010
1000
,
0100
0010
0100
0010
,
0001
0001
1001
0000
,
1000
0010
1000
0010
,
0100
0001
0100
0001
,
2000
0000
0000
3000
,
1001
0001
0001
0010
,
0100
1000
0001
0000
,
0010
0001
0010
0001
,
0100
0010
1000
0000
,
1001
1000
1000
0100
,
0010
0001
0010
0001
,
1000
0000
0000
0001
0000
0001
0000
0000
,
2002
0000
0000
3003
,
0001
0001
1000
1000
,
0100
0010
0001
0000
,
1000
1000
0001
0001
,
0010
0100
1000
0000
,
0001
0001
1000
1000
,
0100
0010
0001
0000
,
0100
0010
0100
0010
,
1000
0100
0010
0000
,
0001
0001
0100
0100
,
0001
0001
1000
1000
,
0100
0100
1000
1000
,
0001
0010
0100
0000
,
1000
1000
0001
0001
,
0010
0010
0001
0001
,
0100
0100
0010
0010
,
1000
0100
0010
0000
,
1001
0001
0001
0000
,
0100
0001
1000
0000
,
0001
1000
0100
0010
,
0001
0010
0100
0000
,
1001
1000
1000
0001
,
0010
0100
0000
0010
,
0001
1000
0010
0100
,
0001
1000
0100
0000
,
1001
0000
0000
0000
;

//---------------dance-single - ----------------
#NOTES:
     dance-single:
     :
     Hard:
     11:
     0.630,0.552,0.394,0.295,0.055: // measure 1
1001
0000
0000
0000
1001
0000
0000
1000
0010
0000
0200
0000
0000
0000
0000
0000
,  // measure 2
0301
1000
0100
2000
0000
3100
0010
0002
,  // measure 3
0000
1003
0010
0001
0010
1000
0100
0001
,  // measure 4
0100
1000
0010
0100
0000
0100
0010
1000
,  // measure 5
1001
0000
0000
0000
1001
0000
0000
0001
0010
0000
0200
0000
0000
0000
0000
0000
,  // measure 6
1300
0001
0100
0002
0000
0013
0100
2000
,  // measure 7
0000
3001
0100
1000
0100
0001
0010
1000
,  // measure 8
0010
0001
0010
0100
0000
1000
0100
1000
,  // measure 9
0001
0100
1000
0100
,  // measure 10
0001
0010
0100
0010
0001
0000
0010
0001
,  // measure 11
1000
1100
0010
0110
,  // measure 12
0001
0000
0001
0000
1000
0100
0010
0100
,  // measure 13
1000
0000
1001
0000
0001
0000
0010
0100
,  // measure 14
1000
0010
0001
0010
1000
0000
0100
0010
,  // measure 15
0001
1000
0010
2000
0000
0001
3001
0000
,  // measure 16
1000
0010
0100
0000
0001
2000
0000
0000
,  // measure 17
3001
0010
1000
0010
,  // measure 18
0001
1000
0100
1000
0001
0000
1000
0000
,  // measure 19
0100
0010
0001
0100
0000
0001
0000
1000
,  // measure 20
0000
0000
1100
0000
1000
0001
0010
0100
,  // measure 21
1001
0000
1001
0000
1001
0000
0001
1000
,  // measure 22
0010
0100
0001
1000
0000
1000
0001
0010
,  // measure 23
1000
0010
0001
0200
0000
0010
0310
0000
,  // measure 24
1000
0010
0100
0001
1000
0100
0010
0000
,  // measure 25
0001
0000
0000
0001
0100
0000
0000
0100
0010
0000
0000
0010
1000
0000
0000
0000
,  // measure 26
0100
0010
0001
1000
0000
0000
0001
2000
,  // measure 27
0000
3100
0001
0100
1000
0010
0001
0010
,  // measure 28
1000
0001
0000
2002
0000
0000
3003
0000
,  // measure 29
1000
0000
0000
1000
0001
0000
0000
0001
0100
0000
0000
0100
0010
0000
0000
0000
,  // measure 30
1000
0100
0010
0200
0000
0300
0000
0000
,  // measure 31
1001
0000
0001
0010
1000
0010
0001
0100
,  // measure 32
1000
0100
0001
1000
,  // measure 33
1100
0000
1001
0000
1100
0000
1001
0101
,  // measure 34
0000
0100
0010
0220
0000
0330
0000
0100
,  // measure 35
0001
0100
1000
0100
0010
1000
1000
0001
,  // measure 36
0001
1000
0010
0001
0000
0010
1000
0001
,  // measure 37
0011
0000
1001
0000
0011
0000
1001
1010
,  // measure 38
0000
0010
0100
0220
0000
0330
0000
1000
,  // measure 39
0001
0010
1000
0010
0100
1000
0001
0100
,  // measure 40
0010
1000
0001
0010
0100
1000
0001
0000
,  // measure 41
1000
1000
0010
0010
0100
0100
0000
0102
,  // measure 42
0000
1003
0010
0010
0100
0100
0000
0102
,  // measure 43
0000
1003
0010
0010
0100
0100
0000
0001
,  // measure 44
1000
0100
1100
0000
0010
0001
1000
0100
,  // measure 45
1000
1000
0001
0001
0010
0010
0000
1200
,  // measure 46
0000
1300
0001
0001
0010
0010
0000
1200
,  // measure 47
0000
1300
0001
0001
0010
0010
0000
0001
,  // measure 48
1000
0010
1010
0000
0100
0001
0101
0000
,  // measure 49
1001
0000
0000
0000
1001
0000
0000
1000
0001
0000
0200
0000
0000
0000
0000
0000
,  // measure 50
0301
1000
0010
2000
0000
3100
0010
0002
,  // measure 51
0000
1003
0001
0100
1000
0100
0010
1000
,  // measure 52
0001
0010
0100
0010
0000
0010
0001
1000
,  // measure 53
1001
0000
0000
0000
1001
0000
0000
0001
0010
0000
0200
0000
0000
0000
0000
0000
,  // measure 54
1300
0010
0100
0002
0000
1003
0001
0200
,  // measure 55
0000
0301
1000
0010
0001
0010
0100
0001
,  // measure 56
1000
0100
0010
0001
1000
0010
0001
0010
,  // measure 57
1000
0000
0000
0000
;

//---------------dance-single - ----------------
#NOTES:
     dance-single:
     :
     Medium:
     10:
     0.524,0.552,0.635,0.066,0.000:
1000
0000
0020
0000
0100
0130
0000
0000
,
0001
0100
0001
0100
0000
0010
1000
0001
,
0000
0000
0010
0100
1000
0000
0001
0010
,
0100
1000
0001
1000
0000
0000
0100
0000
,
0010
0000
0002
0000
0100
0103
0000
0000
,
0010
1000
0010
1000
0000
0001
0010
0001
,
0000
0000
1000
0010
0100
0000
0010
0100
,
0001
1000
0100
1000
0000
0000
0000
0000
,
0001
0100
0010
0100
,
0001
0000
1000
0100
1000
0000
0001
0000
,
0010
1100
0010
0101
,
1000
0000
0001
0000
0100
0000
0010
0100
,
0010
0000
1001
0000
0001
0000
0100
0001
,
1000
0000
0100
0000
0010
0000
0001
0100
,
0010
0000
0100
0002
0000
0000
1003
0000
,
0001
0000
0101
0000
0100
0020
0000
0000
,
1030
0000
0100
0000
0010
0100
1000
0000
,
0001
0000
0101
0000
0100
0010
0100
0000
,
0001
1001
1000
0010
,
0100
0000
0110
0000
0001
0010
0100
0000
,
1001
0000
1001
0000
1001
0000
1000
0010
,
0100
0000
0001
0000
0100
0010
1000
0000
,
0001
1000
0100
1100
,
0010
0000
0001
0000
0100
0010
0000
0000
,
1001
1001
1001
0011
,
0100
1000
0100
1000
0000
0000
0000
0001
,
0000
0100
0001
1000
0100
0000
0010
0001
,
0010
0001
1001
0000
,
1001
1001
1001
1010
,
0100
0001
0100
0001
0000
0000
0000
0000
,
1001
0000
0001
0010
0100
1000
0001
0100
,
0001
0001
0001
0001
,
1001
1100
1001
1100
,
1001
0000
0001
0100
0010
0000
0100
0000
,
0001
0010
0100
0000
0010
0100
1000
0000
,
0010
0100
0001
0100
0010
0000
0100
0000
,
1001
0011
1001
0011
,
1001
0000
1000
0100
0010
0000
0100
0000
,
1000
0010
1000
0000
0001
0010
0100
0000
,
1000
0100
0010
0001
1000
0000
1000
0000
,
1100
1100
0011
0011
,
0110
0110
1001
1001
,
0101
0101
1010
1010
,
1000
0110
0001
0110
,
1100
1100
0011
0011
,
1001
1001
0110
0110
,
1010
1010
0101
0101
,
0001
0110
1000
0001
,
0010
0000
0200
0000
1000
1300
0000
0000
,
0001
0100
0001
1000
0000
0001
0010
0001
,
0000
0000
0010
0100
1000
0000
0001
0010
,
0100
1000
0001
0100
0001
0000
0000
0000
,
0100
0000
0020
0000
1000
1030
0000
0000
,
0001
0100
0010
0100
0000
0001
1000
0001
,
0000
0000
0010
0100
1000
0000
0100
0010
,
0001
1000
0010
1000
0001
0010
0100
1000
,
0001
0000
0000
0000
;

//---------------dance-single - ----------------
#NOTES:
     dance-single:
     :
     Beginner:
     2:
     0.123,0.214,0.109,0.000,0.000:
1000
0000
0000
0000
,
0100
0000
0000
0000
,
1000
0000
0001
0000
,
1000
0000
0001
0000
,
0010
0000
0000
0000
,
0100
0000
0000
0000
,
0010
0000
0001
0000
,
0010
0000
0000
0000
,
0001
0000
0000
0000
,
0100
0000
0000
0000
,
0001
0000
0000
0000
,
1000
0000
0000
0000
,
0100
0000
0000
0000
,
0010
0000
0000
0000
,
0100
0000
0000
0000
,
1000
0000
0000
0000
,
0001
0000
0000
0000
,
0100
0000
0000
0000
,
0001
0000
0000
0000
,
1000
0000
0000
0000
,
0001
0000
0001
0000
,
1000
0000
0000
0000
,
0010
0000
0000
0000
,
0100
0000
0000
0000
,
1001
0000
1000
0000
,
1000
0000
0000
0000
,
0001
0000
0001
0000
,
0001
0000
0000
0000
,
1000
0000
1000
0000
,
1000
0000
0000
0000
,
0001
0000
1000
0000
,
0001
0000
0000
0000
,
1001
0000
1001
0000
,
1001
0000
0000
0000
,
1000
0000
0000
0000
,
0010
0000
0000
0000
,
1001
0000
1001
0000
,
1001
0000
0000
0000
,
0001
0000
0000
0000
,
0100
0000
0000
0000
,
1001
0000
0000
0000
,
0001
0000
0000
0000
,
1000
0000
0000
0000
,
0100
0000
0000
0000
,
0010
0000
0000
0000
,
0001
0000
0000
0000
,
0100
0000
0000
0000
,
0010
0000
0000
0000
,
0110
0000
0000
0000
,
0100
0000
0000
0000
,
0001
0000
1000
0000
,
0001
0000
0000
0000
,
1000
0000
0000
0000
,
0010
0000
0000
0000
,
0100
0000
0010
0000
,
0100
0000
0000
0000
,
1001
0000
0000
0000
;
