#TITLE:セロトニン;
#SUBTITLE:;
#ARTIST:U1 overground;
#TITLETRANSLIT:SEROTONIN;
#SUBTITLETRANSLIT:;
#ARTISTTRANSLIT:;
#CREDIT:DigiMindAxel;
#BANNER:SEROTONIN.png;
#BACKGROUND:SEROTONIN-bg.png;
#LYRICSPATH:;
#CDTITLE:beatmania IIDX.png;
#MUSIC:SEROTONIN.ogg;
#METERTYPE:DDR X;
#OFFSET:-1.077;
#SAMPLESTART:90.652;
#SAMPLELENGTH:12.000;
#SELECTABLE:YES;
#BPMS:0.000=150.000,157.000=75.000,173.000=150.000;
#STOPS:29.500=0.800
,156.000=0.400
;
#BGCHANGES:-5.000=SEROTONIN.avi=1.000=1=1=0,
99999=-nosongbg-=1.000=0=0=0 // don't automatically add -songbackground-
;

//---------------dance-single - ----------------
#NOTES:
     dance-single:
     :
     Easy:
     5:
     0.247,0.357,0.133,0.031,0.000:
0000
0000
0000
0000
,
0000
0000
0000
0000
,
0000
0000
0000
0000
,
0000
0000
0000
0000
,
1000
1000
1000
0000
,
0100
0100
0100
0000
,
0010
0010
0010
0000
,
0001
0001
1000
0010
,
0100
0000
0001
0000
,
1000
0000
0100
0010
,
0100
0000
0010
0000
,
0001
0000
0100
0010
,
0100
0000
0001
0000
,
1000
0100
1000
1000
,
0001
0000
0010
0100
,
1000
0000
0001
0000
,
0100
0000
0010
0100
,
0001
0000
1000
0000
,
0100
0000
0010
0100
,
1000
0000
0010
0000
,
0100
0000
0001
1000
,
0100
0000
0010
0000
,
0100
0000
1000
0010
,
0200
0000
0301
0001
,
0001
0000
1000
1000
,
1000
0000
0010
0010
,
0010
0000
0100
0100
,
0100
0000
0001
0001
,
0001
0000
0010
0010
,
0010
0000
0100
0100
,
0100
0000
0010
0010
,
0010
0000
0001
0100
,
0001
0000
1000
0100
,
1000
0000
0001
0100
,
0010
0000
0100
0010
,
1000
0000
0100
0010
,
0001
0000
1000
0100
,
0010
0000
0001
1000
,
0100
1000
0001
0100
,
0020
0030
0000
0000
0000
0000
0000
0000
0000
0000
0000
0000
1001
0000
0000
0000
0000
0000
0000
0000
0000
0000
0000
0000
1000
0000
0000
0000
0000
0000
0000
0000
0000
0000
0000
0000
1001
0000
0000
0000
0000
0000
0000
0000
0000
0000
0000
0000
,
0001
0110
0100
0110
,
0010
1001
1000
1001
,
0001
0110
0100
0110
,
0010
1000
0001
1000
,
0000
0100
1000
0010
,
0000
0100
0010
0100
,
0000
0010
0100
0001
,
0000
1000
0001
1000
,
0000
0100
0010
0001
,
0000
1000
0010
0100
,
0000
0001
1000
0100
,
0000
1001
0000
1000
,
0001
0010
0100
1000
,
0010
1001
0000
1000
,
0100
1000
0010
0100
,
0001
1001
0000
0001
,
0100
0001
0010
0100
,
1000
1001
0000
1000
,
0100
1000
0010
0100
,
0001
1001
1000
1000
,
0001
0010
0100
1000
,
0000
1001
0001
0001
,
0010
0100
0010
0001
,
0000
1001
1000
1000
,
0010
0100
0010
1000
,
0000
1001
0001
0001
,
0010
0100
0010
0001
,
0100
2002
0000
0000
,
0000
0000
0000
0000
,
0000
0000
0000
0000
,
0000
3003
0000
0000
;

//---------------dance-single - ----------------
#NOTES:
     dance-single:
     :
     Medium:
     10:
     0.517,0.687,0.524,0.196,0.012: // measure 1
0000
0000
0000
0000
,  // measure 2
0000
0000
0000
0000
,  // measure 3
0000
0000
0000
0000
,  // measure 4
0000
0000
0000
0000
,  // measure 5
1001
1001
1001
1001
,  // measure 6
1100
1100
1100
1100
,  // measure 7
0010
0001
0010
0001
1000
0010
1000
0010
,  // measure 8
1000
0000
0000
0000
0000
0000
0100
0000
0000
0000
0000
0000
1000
0000
0000
0000
0000
0000
0200
0300
0000
0000
0000
0000
0021
0000
0000
0000
0000
0000
0000
0000
0000
0000
0000
0000
0230
0000
0000
0000
0000
0000
0000
0000
0000
0000
0000
0000
,  // measure 9
2300
0000
0010
0000
,  // measure 10
0010
0000
3010
0000
0100
0001
0100
0001
,  // measure 11
1000
0000
1001
0000
0011
0000
0100
1000
,  // measure 12
0020
0100
0130
1001
,  // measure 13
0001
1000
0010
0000
1000
0001
0010
0000
,  // measure 14
0001
1000
0100
0000
0010
0100
0010
0000
,  // measure 15
0001
0100
0010
0000
1000
0000
1001
0000
,  // measure 16
0010
1000
0100
1000
0010
0000
1001
0000
,  // measure 17
0100
0000
1001
0000
0001
0010
0100
0000
,  // measure 18
1100
0100
1001
0001
,  // measure 19
0011
0000
1000
0000
1100
0000
0010
0001
,  // measure 20
0100
0000
0010
0100
0010
0000
1010
0000
,  // measure 21
0010
1010
0100
0101
,  // measure 22
0100
0000
0101
0000
0001
0010
0100
0000
,  // measure 23
0010
0100
1000
0000
0010
0100
0010
0100
,  // measure 24
0001
1000
0001
0000
0011
0000
0110
0000
,  // measure 25
0011
0110
1100
0110
,  // measure 26
1100
0110
1001
0101
,  // measure 27
1001
0101
1001
1010
,  // measure 28
1001
0000
1010
0000
0010
0100
0001
0100
,  // measure 29
0010
0100
0001
0000
0010
0100
1000
0100
,  // measure 30
0010
0100
1000
0000
0001
0100
0010
0100
,  // measure 31
0001
1000
0100
0000
1000
0001
0010
0001
,  // measure 32
1000
0010
0100
0000
0001
1000
0001
1000
,  // measure 33
0010
1000
0100
0000
0010
0001
0100
0001
,  // measure 34
1000
0001
1000
0000
0010
0100
0010
0100
,  // measure 35
0001
0010
0100
0000
0010
0001
0010
0001
,  // measure 36
1000
0010
0100
0000
0010
1000
0010
1000
,  // measure 37
0001
0010
0100
0000
1000
0010
1000
0010
,  // measure 38
0100
0001
0010
0000
0100
1000
0100
1000
,  // measure 39
0001
0100
0010
0000
1000
0001
1000
0100
,  // measure 40
0020
0030
0000
0000
0000
0000
0000
0000
0000
0000
0000
0000
0102
0000
0000
0000
0000
0000
0000
0000
0000
1000
0000
0000
1003
0000
0000
0000
0000
0000
0000
0000
0000
0000
0000
0000
0200
0000
0000
0000
0000
0000
2300
0000
0000
0000
0000
0000
,  // measure 41
3020
0000
0130
0000
0012
0000
0000
1000
1003
0000
0000
0000
0002
0000
0203
0000
,  // measure 42
0320
0000
1030
0000
1002
0000
0000
0010
0013
0000
0000
0000
0200
0000
2300
0000
,  // measure 43
3020
0130
1002
1000
1003
0000
0020
0230
,  // measure 44
0302
1003
0100
1000
0100
1000
0010
0000
,  // measure 45
1010
0000
0100
0001
0100
0001
1000
0000
,  // measure 46
1100
0000
0010
0001
0010
0001
1000
0000
,  // measure 47
1001
0000
0010
0100
0010
0100
0001
0000
,  // measure 48
0101
0000
0010
1000
0010
1000
0100
0000
,  // measure 49
1100
0000
0010
0001
0010
0001
0100
0000
,  // measure 50
0101
0000
0010
0100
0010
0100
0001
0000
,  // measure 51
1001
1200
0000
0310
,  // measure 52
1001
0000
0011
0000
0110
0000
0010
0001
,  // measure 53
0100
0010
1000
0000
1010
0000
0010
1000
,  // measure 54
0100
0010
0001
0000
0011
0000
0100
1000
,  // measure 55
0010
0100
0001
0000
0101
0000
0010
0100
,  // measure 56
1000
0100
0010
0000
0011
0000
1001
0000
,  // measure 57
1010
0000
0010
1000
0100
0010
0001
1000
,  // measure 58
0010
0100
0101
1001
,  // measure 59
1100
0000
0010
0001
1000
0001
0010
0100
,  // measure 60
1000
0010
0110
1010
,  // measure 61
1001
0000
0001
1000
0001
0100
0010
1000
,  // measure 62
0100
0000
0010
0001
0100
0010
1000
0100
,  // measure 63
1000
0000
0010
0100
0010
0100
0001
0010
,  // measure 64
0100
0000
0010
0001
0100
0010
0100
0001
,  // measure 65
0010
0000
0100
1000
0001
1000
0100
1000
,  // measure 66
0001
0000
1000
0100
0001
0100
1000
0001
,  // measure 67
1000
0000
0001
0100
1000
0100
0001
1000
,  // measure 68
0001
2002
0000
0000
,  // measure 69
0000
0000
0000
0000
,  // measure 70
0000
0000
0000
0000
,  // measure 71
0000
3003
0000
0000
;

//---------------dance-single - ----------------
#NOTES:
     dance-single:
     :
     Hard:
     14:
     0.647,0.907,0.047,0.289,0.567: // measure 1
0000
0000
0000
0000
,  // measure 2
0000
0000
0000
0000
,  // measure 3
0000
0000
0000
0000
,  // measure 4
0000
0000
0000
0000
,  // measure 5
1000
0000
0000
0010
0000
0000
0100
0000
0000
0001
0000
0000
1000
0000
0100
0000
,  // measure 6
0010
0000
0000
0001
0000
0000
1000
0000
0000
0100
0000
0000
0010
0000
0100
0000
,  // measure 7
1000
0000
0000
0001
0000
0000
0100
0000
0000
0001
0000
0000
1000
0000
0010
0000
,  // measure 8
0100
0000
0000
0000
0000
0000
0000
0000
0000
0100
0000
0000
0000
0000
0000
0000
0000
0000
0200
0300
0000
0000
0000
0000
0001
0000
0000
0000
0000
0000
0000
0000
0000
0001
0000
0000
0010
0000
0000
0000
0000
0000
0000
0000
0000
0010
0000
0000
,  // measure 9
0200
0000
1300
0000
0010
0100
0001
0010
,  // measure 10
0001
0100
0010
0000
1000
0100
0010
0001
,  // measure 11
1000
0000
0010
0000
2000
0000
3001
0010
,  // measure 12
0200
0000
0000
0000
1000
0000
1300
0000
0001
0000
0010
0000
0100
0000
1000
0010
,  // measure 13
1000
0000
0000
0000
0100
0000
1000
0010
1000
0000
0000
0000
0100
0000
0010
0001
,  // measure 14
0010
0000
0000
0000
0100
0000
0010
0001
0010
0000
0000
0000
0100
0000
1000
0010
,  // measure 15
1000
0000
0000
0000
0100
0000
0010
0001
0010
0000
0000
0000
0001
0000
0100
0000
,  // measure 16
0010
0000
0100
0000
0001
0000
0000
0000
2001
0000
0000
0000
3010
0000
0100
0010
,  // measure 17
0100
0000
0001
0000
0010
0000
0100
0000
2000
0000
0000
0000
3010
0000
0100
0010
,  // measure 18
0100
0000
0001
0000
2000
0000
0000
0000
3002
0000
0000
0000
0013
0000
0100
0010
,  // measure 19
0100
0000
1000
0000
0020
0000
0000
0000
0230
0000
0000
0000
0301
0000
1000
0100
,  // measure 20
1000
0000
0001
0000
0010
0000
0100
0000
1100
0000
0000
0000
0010
0000
0001
0100
,  // measure 21
0001
0000
0000
0000
0010
0000
0100
1000
0100
0000
0000
0000
1000
0000
0100
0000
,  // measure 22
0001
0000
0100
0000
1000
0000
0000
0000
0001
0000
0100
0000
0001
0000
0010
0100
,  // measure 23
0010
0000
0000
0000
0001
0000
1000
0010
1000
0000
0000
0000
0001
0000
0010
0100
,  // measure 24
0010
0000
0001
0000
0100
0000
0000
0000
1001
0000
0000
1000
0010
0000
0000
0010
,  // measure 25
0001
0000
0000
0001
0010
0000
0000
0010
1000
0000
0000
0001
0010
0000
0000
0010
,  // measure 26
1000
0000
0000
1000
0010
0000
0000
0010
0001
0000
0000
1000
0100
0000
0000
0100
,  // measure 27
0001
0000
0000
0001
0100
0000
0000
0100
1000
0000
0000
0001
0100
0000
0000
0100
,  // measure 28
1000
0000
0000
1000
0100
0000
0000
0100
0001
0000
0000
0001
0010
0000
0000
0010
,  // measure 29
0100
0000
0000
0100
1000
0000
0000
1000
0010
0000
0000
0010
0100
0000
0000
0100
,  // measure 30
0010
0000
0000
0010
1000
0000
0000
1000
0001
0000
0000
0001
0010
0000
0000
0010
,  // measure 31
0100
0000
0000
0100
1000
0000
0000
1000
0001
0000
0000
0001
0010
0000
0000
0010
,  // measure 32
0100
0000
0000
0100
0010
0000
0000
0000
0001
0000
1000
0010
1000
0000
0001
0000
,  // measure 33
1000
0010
0000
0010
0100
0000
0000
0000
0001
0000
1000
0000
0100
0010
0001
0010
,  // measure 34
0100
0000
1000
0000
0010
0000
0000
0000
1000
0000
0001
0100
0001
0000
1000
0000
,  // measure 35
0001
0100
0000
0100
0010
0000
0000
0000
1000
0000
0100
0000
0010
0001
0100
0001
,  // measure 36
0010
0000
0100
0000
1000
0000
0000
0000
1001
0000
0001
0100
0001
0000
1000
0000
,  // measure 37
0100
0010
0000
0100
0010
0000
0001
0000
0100
0010
0100
0000
0001
0000
0010
0000
,  // measure 38
0100
0010
0100
0000
1000
0000
0000
0000
0001
0000
1000
0100
1000
0000
0001
0000
,  // measure 39
0100
0010
0000
0100
0010
0000
1000
0000
0100
0000
0010
0100
0010
0000
0001
0000
,  // measure 40
0200
0000
0000
0000
0300
0000
0000
0000
0000
0000
0000
0000
0000
0000
0000
0000
0000
0000
0000
0000
0000
0000
0000
0000
0000
0000
0000
0000
0000
0000
0000
0000
0000
0000
0000
0000
0000
0000
0000
0000
0000
0000
0000
0000
0000
0000
0000
0000
0201
0000
0000
0000
0000
0000
0000
0000
0000
0000
0000
0000
0000
0000
0000
0000
0000
0000
0000
0000
0000
0000
0000
0000
0000
0000
0000
0000
0000
0000
0000
0000
0000
0000
0000
0000
0310
0000
0000
0000
0000
0000
1000
0000
0000
0000
0000
0000
0002
0000
0000
0000
0000
0000
0000
0000
0000
0000
0000
0000
0000
0000
0000
0000
0000
0000
0000
0000
0000
0000
0000
0000
0023
0000
0000
0000
0000
0000
0000
0000
0000
0000
0000
0000
0000
0000
0000
0000
0000
0000
0000
0000
0000
0000
0000
0000
0031
0000
0000
0000
0000
0000
0000
0000
0000
0000
0000
0000
0001
0000
0000
0000
0000
0000
0000
0000
0000
0000
0000
0000
0100
0000
0000
0000
0000
0000
0000
0000
0000
0000
0000
0000
0100
0000
0000
0000
0000
0000
0000
0000
0000
0000
0000
0000
,  // measure 41
0020
0000
0000
0000
2030
0000
0000
0000
3002
0000
0000
0000
0000
0000
0013
0100
0020
0000
0000
0000
0032
0000
0000
0000
0203
0000
0000
0000
0000
0000
0310
1000
,  // measure 42
0020
0000
0000
0000
0130
0000
0100
0000
0002
0000
0000
0000
0000
0000
1003
0100
2000
0000
0000
0000
3020
0000
0000
0000
1030
0000
1000
0000
0100
0000
0100
0000
,  // measure 43
0020
0000
0000
0000
0000
0000
0000
0000
0000
0000
0000
0000
0000
0000
0000
0000
0000
0000
0000
0000
0000
0000
0000
0000
0130
0000
0000
0000
0000
0000
0000
0000
0000
0000
0000
0000
0000
0000
0000
0000
0000
0000
0000
0000
0000
0000
0000
0000
2000
0000
0000
0000
0000
0000
0000
0000
0000
0000
0000
0000
0000
0000
0000
0000
0000
0000
0000
0000
0000
0000
0000
0000
0000
0000
0000
0000
0000
0000
0000
0000
0000
0000
0000
0000
3001
0000
0000
0000
0000
0000
0010
0000
0000
0000
0000
0000
0001
0000
0000
0000
0000
0000
0000
0000
1000
0000
0000
0000
0000
0000
0000
0000
0010
0000
0000
0000
0000
0000
0000
0000
2000
0000
0000
0000
0000
0000
0000
0000
0000
0000
0000
0000
0000
0000
0000
0000
0000
0000
0000
0000
0000
0000
0000
0000
3002
0000
0000
0000
0000
0000
0000
0000
0000
0000
0000
0000
0000
0000
0000
0000
0000
0000
0000
0000
0000
0000
0000
0000
0000
0000
0000
0000
0000
0000
0000
0000
0000
0000
0000
0000
0013
0000
0000
0000
0000
0000
0100
0000
0000
0000
0000
0000
,  // measure 44
0020
0000
0031
0001
1000
0000
0010
0000
0100
0000
0010
0000
1000
0000
0010
0000
,  // measure 45
0001
0010
1000
0001
0100
0001
1000
0010
,  // measure 46
0001
0010
1000
0100
0010
0100
1000
0100
,  // measure 47
0001
0100
1000
1000
0001
0001
0010
0100
,  // measure 48
1000
0000
0010
1000
0010
0100
0001
0010
,  // measure 49
1000
0010
0001
1000
0100
1000
0001
0100
,  // measure 50
1000
0100
0001
0001
1000
1000
0010
0100
,  // measure 51
0001
0000
0100
0000
0010
0000
0000
0010
0000
0000
0010
0000
1000
0000
0100
0000
,  // measure 52
0010
0000
0001
0000
1000
0000
0000
0010
1000
0000
0001
0000
0000
0001
1000
0000
,  // measure 53
0100
0000
0010
0000
0001
0000
0000
1000
0010
0000
0100
0000
0000
0100
0010
0000
,  // measure 54
1000
0000
0100
0000
0010
0000
0000
0001
0100
0000
0010
0000
0000
0010
0100
0000
,  // measure 55
0001
0000
0010
0000
0100
0000
0000
1000
0001
0000
0010
0000
0000
0100
1000
0100
,  // measure 56
1000
0010
0100
0000
0001
0000
0000
0001
1000
0000
0010
0000
0000
0010
1000
0000
,  // measure 57
0001
0000
0010
0000
0100
0000
0000
0010
0001
0000
1000
0000
0000
1000
0001
0000
,  // measure 58
0010
0100
0010
0100
1000
0000
0000
0010
0100
0000
0001
0000
0000
0001
0100
0000
,  // measure 59
0010
0000
1000
0000
0100
0000
0000
0010
0100
0000
1000
0000
0000
0001
0100
0001
,  // measure 60
0100
0001
0010
0000
0100
0010
0100
0010
0100
0000
2000
0000
0000
3020
0000
0000
,  // measure 61
0130
0000
0001
0000
0010
0100
0010
0100
0010
0000
0001
0000
1000
0010
1000
0000
,  // measure 62
0001
0100
0001
0000
1000
0001
1000
0001
1000
0000
0200
0000
0000
0320
0000
0000
,  // measure 63
0031
0000
0100
0000
0010
0100
0010
0100
0010
0000
1000
0000
0100
1000
0100
0000
,  // measure 64
0010
0001
0010
0000
0001
1000
0001
1000
0001
0000
0200
0000
0000
0320
0000
0000
,  // measure 65
1030
0000
0100
0000
0010
0100
0010
0100
0010
0000
0001
0000
0100
0001
0100
0000
,  // measure 66
0010
1000
0010
0000
1000
0001
1000
0001
1000
0000
0100
0000
0010
0100
0010
0000
,  // measure 67
0001
0000
0100
0000
0010
0100
0010
0100
0010
0000
1000
0000
0100
0010
0100
0000
,  // measure 68
0010
0001
0010
0000
0220
0000
0000
0000
0000
0000
0000
0000
0000
0000
0000
0000
,  // measure 69
0000
0000
0000
0000
,  // measure 70
0000
0000
0000
0000
,  // measure 71
0000
0330
0000
0000
;

//---------------dance-single - ----------------
#NOTES:
     dance-single:
     :
     Challenge:
     16:
     0.845,1.000,0.235,0.250,1.000:
0000
0000
0000
0000
,
0000
0000
0000
0000
,
0000
0000
0000
0000
,
0000
0000
0000
0000
,
1000
0000
0100
1000
0000
0000
0001
0000
0100
0001
0000
0000
1000
0000
0100
0000
,
0010
0000
0001
0100
0000
0000
0010
0000
1000
0100
0000
0000
0010
0000
0100
0000
,
1000
0001
1000
0001
0010
0001
0010
0001
1000
0010
1000
0010
0100
0001
0100
0001
,
0100
0000
0000
0000
0000
0000
0000
0000
0000
0100
0000
0000
0000
0000
0000
0000
0000
0000
0200
0300
0000
0000
0000
0000
0001
0000
0000
0000
0000
0000
0010
0000
0000
0000
0000
0000
0100
0000
0000
0000
0000
0000
0010
0000
0000
0001
0000
0000
,
2000
0000
0000
0010
0000
3010
0000
0000
0100
0000
0001
0000
0010
0000
0100
0000
,
0010
0000
0001
1000
0020
0000
0000
0000
0130
0000
0001
0000
0010
0000
0100
0010
,
0002
0000
0000
0100
0000
0000
0103
0000
0001
0000
1000
0000
0100
0000
1000
0010
,
0200
0000
0000
0001
0000
0000
0301
0000
1001
0000
1000
0000
0010
0000
0100
0001
,
1000
0000
1000
0000
0010
0000
0100
0001
1000
0000
1000
0000
0100
0000
0010
0001
,
1000
0000
1000
0000
0100
0000
0010
0001
1000
0000
1000
0000
0010
0000
0100
0001
,
0010
0000
0010
0000
0100
0000
1000
0001
0100
0000
0100
0000
0001
0000
0010
0000
,
0100
0000
1000
0001
0100
0000
0000
0000
1001
0000
0001
0000
0010
0000
0100
0010
,
0001
0000
0100
0001
1000
0001
0100
0001
2000
0000
0000
0000
3010
0000
0100
0001
,
0010
0000
0100
0010
0200
0000
0000
0000
1300
0000
0010
0000
1000
0000
0001
0100
,
0010
0000
1000
0001
2000
0000
0000
0000
3100
0000
0010
0000
0100
0000
1000
0010
,
0100
0000
0010
1000
0001
0000
0100
0001
0100
0000
0001
0000
1000
0000
0100
0010
,
0001
0000
0100
0001
1000
0001
0100
0001
1000
0000
0010
0000
0100
0000
0001
1000
,
0100
0000
0010
0000
0100
0000
1000
0000
0010
0000
0100
0000
0010
0000
1000
0001
,
0010
0000
0100
0010
0100
0000
1000
0010
0100
0000
0001
0000
1000
0000
0100
0010
,
0001
0000
0100
0010
0100
0000
0001
1000
0100
0000
0010
0100
0010
0000
0001
0010
,
0001
0000
0010
0100
0020
0000
0000
0000
0031
0000
1000
0010
1000
0000
0010
0100
,
0010
0000
1000
0010
2000
0000
0001
0000
3001
0000
1000
0010
1000
0000
0001
0010
,
0001
0000
1000
0010
2000
0000
0000
0000
3100
0000
0010
0100
0010
0000
0001
0100
,
0001
0000
0010
0100
0020
0000
0000
0000
0031
0000
0100
0010
1000
0000
0010
0100
,
0010
0000
0100
0010
2000
0000
0000
0000
3001
0000
1000
0100
0010
0000
0001
0100
,
0001
0000
0010
0100
2000
0000
0000
0000
3010
0000
0100
0001
0010
0000
0100
0010
,
0100
0000
0010
0001
0200
0000
0000
0000
0310
0000
1000
0100
0010
0000
0001
0100
,
0001
0000
0010
0100
1000
0000
0000
0000
0010
0000
1000
0100
0001
0100
1000
0000
,
0100
0010
0000
0010
0001
0000
0100
0000
0001
0000
1000
0010
0001
0010
1000
0100
,
0010
0001
0100
0000
0100
0000
0000
0000
0010
0000
1000
0010
0001
0010
1000
0000
,
0010
0100
0000
0100
0001
0000
0100
0000
0010
0000
1000
0100
0001
0100
1000
0010
,
0100
0001
1000
0000
1000
0000
0000
0000
1001
0000
0001
0100
0010
0000
1000
0100
,
0010
0001
0000
1000
0010
1000
0001
0000
0010
0100
1000
0000
0001
0100
1000
0100
,
0001
1000
0000
0010
1000
0000
0000
0000
0001
0000
1000
0100
0010
0000
0100
1000
,
0010
0100
0000
0001
0100
0001
1000
0000
0001
0010
1000
0010
0001
0010
0100
1000
,
0020
0000
0000
0000
0030
0000
0000
0000
0000
0000
0000
0000
0000
0000
0000
0000
0000
0000
0000
0000
0000
0000
0000
0000
0000
0000
0000
0000
0000
0000
0000
0000
0000
0000
0000
0000
0000
0000
0000
0000
0000
0000
0000
0000
0000
0000
0000
0000
0201
0000
0000
0000
0000
0000
0000
0000
0000
0000
0000
0000
0000
0000
0000
0000
0000
0000
0000
0000
0000
0000
0000
0000
0000
0000
0000
0000
0000
0000
0000
0000
0000
0000
0000
0000
0310
0000
0000
0000
0000
0000
0100
0000
0000
0000
0000
0000
0002
0000
0000
0000
0000
0000
0000
0000
0000
0000
0000
0000
0000
0000
0000
0000
0000
0000
0000
0000
0000
0000
0000
0000
2003
0000
0000
0000
0000
0000
0000
0000
0000
0000
0000
0000
0000
0000
0000
0000
0000
0000
0000
0000
0000
0000
0000
0000
3100
0000
0000
0000
0000
0000
0010
0000
0000
0000
0000
0000
0001
0000
0000
0000
0000
0000
0010
0000
0000
0000
0000
0000
0100
0000
0000
0000
0000
0000
0000
0000
0000
0000
0000
0000
1000
0000
0000
0000
0000
0000
0010
0000
0000
0000
0000
0000
,
0100
0000
0001
0010
0200
0000
0000
0000
0320
0000
0000
0000
0000
0000
0031
1000
0100
0010
0100
0010
0002
0000
0000
0000
2003
0000
0000
0000
0000
0000
3100
0010
,
0001
0000
1000
0010
0100
0000
0010
0000
2000
0000
0000
0000
0000
0000
3100
0010
0002
0000
0000
0000
0203
0000
0000
0000
0310
1000
0100
1000
0010
0000
0100
0000
,
0002
0000
0000
0000
0000
0000
0000
0000
0000
0000
0000
0000
0000
0000
0000
0000
0000
0000
0000
0000
0000
0000
0000
0000
1003
0000
0000
0000
0000
0000
0000
0000
0000
0000
0000
0000
0000
0000
0000
0000
0000
0000
0000
0000
0000
0000
0000
0000
0200
0000
0000
0000
0000
0000
0000
0000
0000
0000
0000
0000
0000
0000
0000
0000
0000
0000
0000
0000
0000
0000
0000
0000
1300
0000
0000
0000
0000
0000
0000
0000
0000
0000
0000
0000
0010
0000
0000
0000
0000
0000
0001
0000
0000
0000
0000
0000
0100
0000
0000
0000
0000
0000
0000
0000
0100
0000
0000
0000
0000
0000
0000
0000
0010
0000
0000
0000
0000
0000
0000
0000
1000
0000
0000
0000
0000
0000
0000
0000
0100
0000
0000
0000
0000
0000
0000
0000
0010
0000
0000
0000
0000
0000
0000
0000
0200
0000
0000
0000
0000
0000
0000
0000
0000
0000
0000
0000
0000
0000
0000
0000
0000
0000
0000
0000
0000
0000
0000
0000
0000
0000
0000
0000
0000
0000
0000
0000
0000
0000
0000
0000
1300
0000
0000
0000
0000
0000
0001
0000
0000
0000
0000
0000
,
0010
0000
0100
0010
0100
0000
1000
0000
0001
0000
0100
0000
0010
0000
0100
0000
0001
0000
0000
0000
1000
0000
0100
0000
0000
0000
0010
0000
0100
0000
0000
0000
,
1000
0100
0001
0100
1000
0010
1000
0010
0100
0000
0001
0010
0000
0100
0010
0000
,
0001
0100
0000
0001
1000
0100
0001
0100
1000
0000
0010
0100
0000
0001
0100
0000
,
0010
1000
0000
0001
0010
0100
0010
0001
0010
0000
0100
1000
0010
0100
0010
1000
,
0200
0000
0000
0000
0310
0001
0100
0001
0010
0000
0100
0010
0000
0001
0100
0000
,
0010
1000
0010
1000
0001
0100
1000
0100
0001
0000
0010
0100
0000
1000
0010
0000
,
0100
0001
0000
1000
0001
0010
1000
0010
0001
0100
1000
0100
0001
0010
0100
1000
,
0001
0010
0100
0000
1010
0000
0000
1010
0000
0000
1010
0000
0010
0000
0010
0000
,
0100
0000
0100
0000
1001
0000
0000
0101
0000
0000
1010
0000
0000
0010
0100
0000
,
0001
0000
0010
0000
1100
0000
0000
0011
0000
0000
1100
0000
0000
0100
0010
0000
,
0001
0000
0100
0000
0110
0000
0000
1010
0000
0000
0110
0000
0000
0010
1000
0000
,
0001
0000
0000
0000
0011
0000
0000
0110
0000
0000
0011
0000
0000
0010
0100
1000
,
0001
0100
0001
1000
0100
0000
0000
1100
0000
0000
0110
0000
0000
0010
0001
0000
,
0100
0000
0010
0000
1010
0000
0000
0110
0000
0000
0101
0000
0000
0001
1000
0000
,
0001
0100
1000
0100
0001
0000
0000
0101
0000
0000
0110
0000
0000
0010
1000
0000
,
0100
0000
0010
0000
0011
0000
0000
0110
0000
0000
1100
0000
0000
0010
0001
0100
,
0010
0100
0001
0010
0001
0100
1000
0100
0001
0000
0010
0100
0000
0100
1000
0000
,
0001
0100
0010
0100
0001
0010
1000
0010
0001
0010
0100
0000
1000
0001
0100
0001
,
1000
0001
0100
0000
0001
0010
1000
0010
0001
0000
0010
0100
0000
0100
1000
0000
,
0001
0100
0010
0100
0001
0100
1000
0100
0001
0010
0100
0000
0010
0001
1000
0001
,
0010
0001
1000
0001
1000
0100
0001
0100
1000
0000
0010
0100
0000
0100
0001
0000
,
1000
0100
0010
0100
1000
0010
0001
0010
1000
0000
0010
0100
0001
0010
0001
0100
,
1000
0100
0001
1000
0001
0100
1000
0100
0001
0010
0100
1000
0001
0010
1000
0010
,
0001
0100
0010
1000
0100
0001
0100
1000
0001
0010
0100
0000
0010
0001
0100
1000
,
0001
0010
1000
0001
0202
0000
0000
0000
0000
0000
0000
0000
0000
0000
0000
0000
,
0000
0000
0000
0000
,
0000
0000
0000
0000
,
0000
0303
0000
0000
;

//---------------dance-single - ----------------
#NOTES:
     dance-single:
     :
     Beginner:
     2:
     0.082,0.105,0.031,0.000,0.000:
0000
0000
0000
0000
,
0000
0000
0000
0000
,
0000
0000
0000
0000
,
0000
0000
0000
0000
,
1000
0000
0000
0000
,
1000
0000
0000
0000
,
0001
0000
0000
0000
,
0001
0000
0010
0000
,
0000
0000
0100
0000
,
0000
0000
0010
0000
,
0000
0000
0100
0000
,
0000
0000
1000
0000
,
0000
0000
0000
0000
,
0001
0000
0010
0000
,
0000
0000
0001
0000
,
0000
0000
0100
0000
,
0000
0000
0010
0000
,
0000
0000
0100
0000
,
0000
0000
0010
0000
,
0000
0000
1000
0000
,
0000
0000
0100
0000
,
0000
0000
1000
0000
,
0000
0000
0001
0000
,
0000
0000
1001
0000
,
0000
0000
1000
0000
,
0000
0000
0001
0000
,
0000
0000
1000
0000
,
0000
0000
0100
0000
,
0000
0000
1000
0000
,
0000
0000
0100
0000
,
0000
0000
0010
0000
,
0000
0000
0001
0000
,
0000
0000
0100
0000
,
0000
0000
0001
0000
,
0000
0000
1000
0000
,
0000
0000
0100
0000
,
0000
0000
0010
0000
,
0000
0000
0100
0000
,
0000
0000
0010
0000
,
0000
1001
0000
0001
,
0000
1000
0000
1000
,
0000
0001
0000
0001
,
0000
0010
0000
0010
,
0000
0100
0000
0000
,
0000
1000
0000
0000
,
0000
0100
0000
0000
,
0000
1000
0000
0000
,
0000
0001
0000
0000
,
0000
0100
0000
0000
,
0000
0001
0000
0000
,
0000
1001
0000
0000
,
0000
1000
0000
0000
,
0000
0100
0000
0000
,
0000
0010
0000
0000
,
0000
0100
0000
0000
,
0000
1000
0000
0000
,
0000
0001
0000
0000
,
0000
0100
0000
0000
,
0000
0001
0000
0000
,
0000
1000
0000
0000
,
0000
0100
0000
0000
,
0000
1000
0000
0000
,
0000
0001
0000
0000
,
0000
0010
0000
0000
,
0000
0001
0000
0000
,
0000
0100
0000
0000
,
0000
0010
0000
0000
,
0000
1001
0000
0000
;
