#TITLE:閃鋼のブリューナク;
#SUBTITLE:;
#ARTIST:sasakure.UK;
#TITLETRANSLIT:SENKOU NO BRIONAC;
#SUBTITLETRANSLIT:;
#ARTISTTRANSLIT:;
#CREDIT:DigiMindAxel;
#BANNER:SENKOU NO BRIONAC.png;
#BACKGROUND:SENKOU NO BRIONAC-bg.png;
#LYRICSPATH:SENKOU NO BRIONAC.lrc;
#CDTITLE:CHUNITHM.png;
#MUSIC:SENKOU NO BRIONAC.ogg;
#METERTYPE:DDR X;
#OFFSET:-0.085;
#SAMPLESTART:101.597;
#SAMPLELENGTH:12.000;
#SELECTABLE:YES;
#BPMS:0.000=140.000;
#STOPS:201.500=1.286
;
#BGCHANGES:-1.000=SENKOU NO BRIONAC.avi=1.000=1=1=0,
99999=-nosongbg-=1.000=0=0=0 // don't automatically add -songbackground-
;

//---------------dance-single - ----------------
#NOTES:
     dance-single:
     :
     Easy:
     5:
     0.232,0.257,0.295,0.115,0.108:
0000
0000
0000
0000
,
0000
0000
0000
0000
,
0000
0000
0000
0000
,
0000
0000
0000
0000
,
0000
0000
0000
1000
0000
0000
0000
0000
0000
0000
0000
0001
0000
0000
0000
0000
,
0000
0000
0000
1000
0000
0000
0000
0000
0000
0000
1001
0000
0000
0000
0000
0000
,
0000
0000
0000
0000
0010
0000
0000
0000
0000
0000
0000
0100
0000
0000
0000
0000
,
0000
0000
0000
0010
0000
0000
0000
0000
0000
0000
0110
0000
0000
0000
0000
0000
,
0000
0000
0000
0000
1000
0000
0000
0000
0000
0000
0000
0001
0000
0000
0000
0000
,
0000
0000
0000
1000
0000
0000
0000
0000
0000
0000
1001
0000
0000
0000
0000
0000
,
0000
0000
0110
0000
0000
0100
0000
0000
,
0001
0000
0000
0100
0000
0000
0110
0000
,
0000
0000
0000
2000
0000
0000
0000
0000
,
0000
3200
0000
0000
0000
0000
0000
0310
,
0000
0000
0000
0002
0000
0000
0000
0000
,
0000
2003
0000
0000
0000
0000
0000
3010
,
0000
0000
0010
0000
0000
0200
0000
0000
,
0000
0000
0000
0302
0000
0000
0000
0000
,
0000
0000
0000
1003
0000
0000
0000
0000
1000
0000
0000
0000
0000
0000
0001
0000
,
0000
1000
0000
0001
0000
1000
0000
0001
,
0000
1000
0000
0001
0000
1000
0000
0100
,
0000
1000
0000
0100
0000
1000
0000
0001
,
0000
1000
0000
0001
0000
1000
0000
0001
,
0000
1000
0000
0010
0000
0100
0000
0010
,
0000
0220
0000
0000
0000
0000
0330
0000
,
0000
1001
0000
0000
0000
0001
0000
0100
,
0000
0110
0000
0000
0000
0100
0000
1000
,
0000
1001
0000
0000
0000
0100
0000
0001
,
0000
1001
0000
0000
0000
0010
0000
0100
,
0000
0110
0000
0000
0000
0010
0000
0001
,
0000
1001
0000
0000
0000
0100
0000
1000
,
0000
1001
0000
0000
0000
0001
0000
1000
,
0000
0110
0000
0000
0000
1000
0000
0001
,
0000
0110
0000
0000
0000
0000
0000
1001
,
0000
0000
1001
0000
,
0000
0000
1001
0000
0000
0000
0000
0110
,
0000
0000
0000
0000
0000
0110
0000
0000
,
0000
0110
0000
0000
,
0000
0000
0000
1001
0000
0000
0000
0000
0000
0000
0000
1000
0000
0000
0000
0000
,
0000
0000
0000
0001
0000
0000
0000
0000
0000
0000
1001
0000
0000
0000
0000
0000
,
0000
0000
0000
0000
0100
0000
0000
0000
0000
0000
0000
0010
0000
0000
0000
0000
,
0000
0000
0000
0001
0000
0000
0000
0000
0000
0000
0110
0000
0000
0000
0000
0000
,
0000
0000
0000
0000
0010
0000
0000
0000
0000
0000
0000
1000
0000
0000
0000
0000
,
0000
0000
0000
0001
0000
0000
0000
0000
0000
0000
1001
0000
0000
0000
0000
0000
,
0000
0000
0000
0000
1001
0000
0000
0000
0000
0000
0000
0110
0000
0000
0000
0000
,
0000
0000
0000
0110
0000
0000
0000
0000
0000
0000
0000
0110
0000
0000
0000
0000
,
0000
0000
0000
0020
0000
0000
0000
0000
0000
0000
0000
0000
0000
0000
0000
0000
,
0000
0000
1030
0000
0000
0000
0000
0002
,
0000
0000
0000
0000
0000
0023
0000
0032
,
0000
0203
0000
0000
0000
0000
0000
0000
,
0000
0000
0000
0300
0001
0000
0000
0000
,
1000
0000
0100
0000
,
0000
0000
1000
0000
,
0001
0000
0100
0000
,
0000
0000
0001
0000
,
1000
0000
0100
0000
,
0000
0000
0010
0000
,
0001
0000
0100
0000
,
0000
0000
0010
0100
,
0010
0100
0001
0100
,
0001
0100
0001
1000
,
0001
1000
0100
1000
,
0100
0010
0001
0010
,
0001
0100
0010
0100
,
0010
1000
0100
1000
,
0001
1000
0100
0010
,
0001
0000
0000
0000
0000
0000
0000
1001
0000
0000
0000
0000
0000
0000
0000
0001
,
0000
0000
0000
0000
0000
0000
0000
0100
0000
0000
0000
0000
0000
0000
0110
0000
,
0000
0000
0000
0000
0000
0000
0000
0000
1001
0000
0000
0000
0000
0000
0000
1000
,
0000
0000
0000
0000
0000
0000
0000
0100
0000
0000
0000
0000
0000
0000
0110
0000
,
0000
0000
0000
0000
0000
0000
0000
0000
1001
0000
0000
0000
0000
0000
0000
0001
,
0000
0000
0000
0000
0000
0000
0000
0100
0000
0000
0000
0000
0000
0000
0110
0000
,
0000
0000
0000
0000
0000
0000
0000
0000
1001
0000
0000
0000
0000
0000
0000
0110
,
0000
0000
0000
0000
0000
0000
0000
0110
0000
0000
0000
0000
0000
0000
0000
1001
,
0000
0000
0000
0000
0000
0000
0000
0110
0000
0000
0000
0000
0000
0000
0000
0000
,
0000
0000
2000
0000
,
3100
0010
0001
1000
,
0000
0000
0000
2002
0000
0000
0000
0000
,
0000
0000
0000
0000
,
0000
0000
3003
0000
;

//---------------dance-single - ----------------
#NOTES:
     dance-single:
     :
     Medium:
     9:
     0.421,0.428,0.496,0.180,0.259:
0000
0000
0000
0000
,
0000
0000
0000
0000
,
0000
0000
0000
0000
,
0000
0000
0000
0000
,
0000
0000
0000
1001
0000
0000
0000
0000
0000
0000
0000
1001
0000
0000
0000
0000
,
0000
0000
0000
1001
0000
0000
0000
0000
0000
0000
0110
0000
0000
0010
0000
0100
,
0000
0010
0000
0000
1001
0000
0000
0000
0000
0000
0000
1001
0000
0000
0000
0000
,
0000
0000
0000
1001
0000
0000
0000
0000
0000
0000
0110
0000
0000
0010
0000
0100
,
0000
0010
0000
0000
1001
0000
0000
0000
0000
0000
0000
1001
0000
0000
0000
0000
,
0000
0000
0000
1001
0000
0000
0000
0000
0000
0000
0110
0000
0000
0100
0000
0010
,
0000
0100
0000
0000
1100
0000
0000
0000
0000
0000
0110
0000
0000
0000
0000
0000
,
0011
0000
0000
0110
0000
0000
1020
0000
,
0000
0000
0130
0002
0000
0010
0000
0013
,
0000
0200
0000
1000
0000
1300
0000
0110
,
0000
0110
0000
0020
0000
0001
0000
0031
,
0000
0200
0000
0010
0000
0310
0000
1001
,
0000
0001
0000
0000
1000
0000
0000
1000
0000
0000
0020
0000
0000
0000
1000
0000
,
0000
1030
0000
0002
0000
0100
0000
0103
,
0000
0000
0000
0010
0000
0100
0000
0000
0010
0000
0000
0100
0000
0000
0001
0000
,
0100
0001
0000
1000
0001
1000
0000
0100
,
1000
0100
0000
0010
0100
0010
0000
0001
,
1000
0001
0000
1000
0010
1000
0000
0001
,
0010
0001
0000
0010
0100
0010
0000
0100
,
1000
0100
0000
1000
0001
1000
0000
0001
,
0100
0002
0000
0000
0000
0000
0003
0000
,
0000
0201
0000
0000
0000
0310
1000
0001
,
0000
0020
0000
0000
0000
0130
1000
0001
,
0000
0200
0000
0000
0000
0301
1000
0100
,
0000
0020
0000
0000
0000
0031
0100
0010
,
0000
0200
0000
0000
0000
0301
1000
0100
,
0000
0020
0000
0000
0000
0031
0100
0010
,
0000
2000
0000
0000
0000
3001
0010
0100
,
0000
0020
0000
0000
0000
0031
1000
0010
,
0000
0000
1001
0000
0000
1001
0000
0000
0000
0000
0000
0000
0000
0000
0110
0000
,
0000
0000
0000
0000
0000
0000
0000
0000
0110
0000
0000
0110
0000
0000
0000
0000
,
0000
0000
0101
0000
0000
0000
0000
1001
,
0000
1001
0000
0000
0000
0000
0000
0000
0000
0000
1100
0000
0000
0000
0000
0000
,
0000
0000
0000
0000
0110
0000
0000
0010
0000
0100
0000
0010
0000
0000
0000
0000
,
1010
0000
0000
1001
0000
0000
0000
0000
0000
0000
0000
0101
0000
0000
0000
0000
,
0000
0000
0000
1010
0000
0000
0000
0000
0000
0000
0110
0000
0000
0100
0000
0010
,
0000
0100
0000
0000
1001
0000
0000
0000
0000
0000
0000
0101
0000
0000
0000
0000
,
0000
0000
0000
1010
0000
0000
0000
0000
0000
0000
1001
0000
0000
0001
0000
1000
,
0000
0001
0000
0000
0011
0000
0000
0000
0000
0000
0000
0110
0000
0000
0000
0000
,
0000
0000
0000
1100
0000
0000
0000
0000
0000
0000
0110
0000
0000
0100
0000
0010
,
0000
0100
0000
0000
0110
0000
0000
0000
0000
0000
0000
1001
0000
0000
1001
0000
,
0000
0000
0000
0001
0000
0100
0000
0000
0000
0000
0000
0110
0000
0000
0110
0000
,
0000
0000
0000
1200
0000
0000
0000
0000
0000
0000
0000
0000
0000
0000
0000
0000
,
0000
1300
0001
1000
,
0100
0000
0010
0000
0001
1000
0100
0010
,
0001
0200
0000
0000
0000
0000
0000
0000
,
0000
0000
0000
0300
0020
0000
0000
1000
,
1030
0000
0100
0000
0020
0000
0000
0001
,
0031
0000
1000
0000
0200
0000
0000
0010
,
0310
0000
0001
0000
0020
0000
0000
0100
,
0130
0000
1000
0000
0010
0100
0010
0000
,
0100
0001
0100
0000
0001
1000
0100
0000
,
0010
0000
0001
0000
0100
0010
0100
0000
,
0001
0100
0001
0000
0010
0100
1000
0000
,
0001
0000
0100
0000
0010
0100
0010
0100
,
0010
0100
0001
0000
1000
0001
1000
0001
,
1000
0100
0010
0000
0001
0100
0001
0100
,
0001
0010
0100
0000
1000
0100
1000
0100
,
1000
0010
0100
0000
0001
0100
0001
0100
,
0001
0010
0100
0000
0010
0001
0010
0001
,
0100
0010
1000
0000
0100
0010
0100
0010
,
0001
1000
0010
0000
0100
0001
0100
0001
,
1000
0000
0100
0000
0010
0000
0000
0110
0000
0000
0000
0000
0100
0000
0000
0101
,
0000
0000
0000
0000
0001
0000
0000
1001
0000
0000
0000
0000
0000
0000
1001
0000
,
0000
1000
0000
0001
0000
1000
0000
0000
1100
0000
0000
0000
0010
0000
0000
0110
,
0000
0000
0000
0000
0001
0000
0000
0011
0000
0000
0000
0000
0000
0000
1001
0000
,
0000
1000
0000
0001
0000
1000
0000
0000
0110
0000
0000
0000
0010
0000
0000
1010
,
0000
0000
0000
0000
0100
0000
0000
0101
0000
0000
0000
0000
0000
0000
1001
0000
,
0000
0001
0000
1000
0000
0001
0000
0000
0101
0000
0000
0000
0000
0000
0000
1100
,
0000
0000
1100
0000
0000
0000
0000
0001
0000
1000
0000
0000
0000
0000
0000
0110
,
0000
0000
0110
0000
0000
0000
0000
0102
0000
0000
0000
0000
0000
0000
0000
0000
,
0000
0000
0000
0000
0000
0000
0000
0000
1003
0000
0000
0100
0000
0010
0000
0100
,
0000
1000
0010
1000
0001
0010
0100
1000
,
0010
0000
0000
0220
0000
0000
0000
0000
,
0000
0000
0000
0000
,
0000
0000
0330
0000
;

//---------------dance-single - ----------------
#NOTES:
     dance-single:
     :
     Hard:
     13:
     0.593,0.628,0.410,0.302,0.560:
0000
0000
0000
0000
,
0000
0000
0000
0000
,
0000
0000
0000
0000
,
0000
0000
0000
0000
,
0000
0000
0000
2002
0000
0000
0000
0000
3003
0000
0000
0202
0000
0000
0000
0000
,
0303
0000
0000
2020
0000
0000
0000
0000
3030
0000
1000
0001
0000
0001
0000
0001
,
0000
0001
0100
0000
2002
0000
0000
0000
0000
3003
0000
2200
0000
0000
0000
0000
,
3300
0000
0000
0022
0000
0000
0000
0000
0033
0000
0100
1000
0000
1000
0000
1000
,
0000
1000
0010
0000
1002
0000
0000
0000
0103
0000
0000
1020
0000
0000
0000
0000
,
0130
0000
0000
0021
0000
0000
0000
0000
0130
0000
1000
0001
0000
0001
0000
0001
,
0000
0001
1000
0000
1100
0000
0000
1100
0000
0000
0110
0000
0000
0110
0000
0000
,
0011
0000
0000
0000
0000
0000
0011
0000
0000
0000
0000
0000
1001
0000
0000
0000
0000
0000
1001
0000
0000
0000
0000
0000
0110
0000
0000
0000
0100
0000
0000
0010
,
0000
0000
0000
0000
0000
0000
0000
0000
0000
0000
0000
0000
0100
0000
0000
0000
0000
0000
0000
0000
0000
0000
0000
0000
0000
0000
0000
0000
0000
0000
0001
0000
0000
0000
0000
0000
0000
0000
0000
0000
0000
0000
0000
0000
0000
0000
0000
0000
0010
0000
0000
0000
0000
0000
0000
0000
0000
0000
0000
0000
0000
0000
0000
0000
0000
0000
0100
0000
0000
0000
0000
0000
0000
0000
0000
0000
0000
0000
0000
0000
0000
0000
0000
0000
0000
0000
0000
0000
0000
0000
0000
0000
0000
0000
0000
0000
0000
0000
0000
0000
0000
0000
0000
0000
1000
0000
0000
0000
0000
0000
0000
0000
0000
0000
0000
0000
0000
0000
0000
0000
0010
0000
0000
0000
0000
0000
0000
0000
0000
0000
0000
0000
0000
0000
0000
0000
0000
0000
0000
0000
0000
0000
0000
0000
0000
0000
0000
0000
0000
0000
0000
0000
1000
0000
0000
0000
0000
0000
0000
0000
0000
0000
0000
0000
0000
0000
0000
0000
0010
0000
0000
0000
0000
0000
0000
0000
0000
0000
0000
0000
0000
0000
0000
0000
0000
0000
0000
0000
0000
0000
0000
0000
,
0000
1000
0000
0001
0000
0000
0000
0010
0000
0100
0000
0000
0000
0010
0000
0100
0000
0000
0000
1000
0000
0010
0000
0000
,
0000
0000
0000
1010
0000
0000
0000
0000
0000
1001
0000
0000
0000
0001
0000
0010
0000
0000
0000
0001
0000
0010
0000
0000
,
0000
0001
0000
1000
0000
0000
0000
0010
0000
1000
0000
0000
0000
0010
0000
1000
0000
0000
0000
0001
0000
1000
0000
0000
,
0000
0000
0000
1001
0000
0000
0000
0000
0000
0000
0000
0000
0110
0000
0000
0000
0000
0000
0000
0000
0000
0110
0000
0000
0000
0000
0000
0000
0000
0000
1001
0000
0000
0000
0000
0000
0000
0000
0010
0000
0000
0000
0100
0000
0000
0000
0000
0000
,
0000
0010
0000
0100
0000
0000
0000
0001
0000
1000
0000
0000
0000
0100
0000
0010
0000
0000
0000
0100
0000
0010
0000
0000
,
0000
0000
0001
0000
0000
0000
0000
0000
0000
0100
0000
0000
0000
0000
0000
0101
0000
0000
0000
0000
0000
0000
0000
0000
0010
0000
0000
0000
0000
0000
1000
0000
0000
0010
0000
0000
0000
0000
0000
0000
0000
0000
1000
0000
0000
0000
0000
0000
,
0001
1000
0001
1000
0001
1000
0001
1000
,
0100
1000
0100
1000
0100
1000
0001
1000
,
0001
1000
0001
1000
0001
0100
0001
0100
,
0001
0100
0001
0100
0010
0100
0010
0100
,
0010
0100
0010
1000
0100
1000
0100
0010
,
0001
0200
0000
0000
0000
0000
0300
0000
,
0000
0000
0101
0000
0000
0001
0000
0000
0001
0000
1000
0000
0100
0000
0010
0000
,
0000
0000
0100
0000
0000
0100
0000
0000
0100
0000
1000
0000
0001
0000
0010
0000
,
0000
0000
0100
0000
0000
0100
0000
0000
0100
0000
2000
0000
0000
0000
3001
0000
,
0000
0000
0010
0000
0000
0010
0000
0000
0010
0000
0100
0000
1000
0000
0001
0000
,
0000
0000
0100
0000
0000
0100
0000
0000
0100
0000
0010
0000
1000
0000
0100
0000
,
0000
0000
0010
0000
0000
0010
0000
0000
0010
0000
0100
0000
1000
0000
0010
0000
,
0000
1000
0001
0100
1000
0100
0001
1000
,
0000
0001
1000
0010
0001
0010
1000
0100
,
0010
0000
0110
0000
0000
0110
0000
0000
0000
0000
0000
0000
0000
0000
0100
0001
,
0000
0000
0000
0000
0000
0000
0000
0000
1001
0000
0000
1001
0000
0000
0000
0000
,
0000
0000
0000
0000
0100
1000
0000
0000
0000
0000
0000
0000
0000
0000
0110
0000
,
0000
0110
0000
0000
0000
0000
0000
0000
0000
0000
0001
1000
0000
0000
0000
0000
,
0000
0000
0000
0000
0010
0100
0000
0100
0000
0100
0000
0100
0000
0010
0100
0000
,
0001
1000
0000
1002
0000
0000
0000
0000
0013
0000
0000
0210
0000
0000
0000
0000
,
1300
0000
0000
2001
0000
0000
0000
0000
3010
0000
0100
0001
0000
0001
0000
0001
,
0000
0001
1000
0000
1020
0000
0000
0000
0130
0000
0000
0102
0000
0000
0000
0000
,
1003
0000
0000
2100
0000
0000
0000
0000
3010
0000
0100
0001
0000
0001
0000
0001
,
0000
0001
1000
0000
1200
0000
0000
0000
0310
0000
0000
0201
0000
0000
0000
0000
,
0310
0000
0000
2001
0000
0000
0000
0000
3100
0000
0010
0001
0000
0001
0000
0001
,
0000
0001
1000
0000
1001
0000
0000
0000
0000
0000
0000
1100
0000
0000
0110
0000
,
0000
0000
0000
0001
0000
0101
0000
0000
0000
0000
0000
1001
0000
0000
1001
0000
,
0010
0100
0000
0220
0000
0000
0000
0000
0000
0000
0000
0000
0000
0000
0000
0000
,
0330
0000
0000
0000
0100
0001
0100
0001
0000
1000
0000
1000
0000
0010
0100
0000
,
0001
0100
0010
1000
0001
1000
0100
0010
,
0001
0200
0000
0000
0000
0000
0000
0000
,
0000
0000
0000
0000
0000
0000
0300
0000
1001
0000
0000
0001
0000
0000
0100
0000
,
0010
0000
0000
0010
0000
0000
1000
0000
0100
0000
0000
0100
0000
0000
0010
0000
,
0001
0000
0000
0001
0000
0000
1000
0000
0010
0000
0000
0010
0000
0000
0100
0000
,
0001
0000
0000
0001
0000
0000
1000
0000
0100
0000
0000
0100
0000
0000
0010
0000
,
0001
0000
0000
0001
0000
0000
1000
0000
0001
0000
0100
0000
1000
0000
0100
0000
,
0001
0010
0100
0010
0001
0010
1000
0010
,
0001
0100
0010
0100
0001
1000
0001
0100
,
1000
0100
0010
1000
0001
0100
0001
1000
,
0020
0000
0000
0000
0130
0000
0000
0000
0001
0100
0001
0000
1000
0000
0001
0000
,
0010
0100
1000
0000
0010
0000
0100
0000
0001
1000
0001
0000
1000
0000
0010
0000
,
0100
0010
0100
0000
0001
0000
0010
0000
0100
1000
0010
0000
0100
0000
0001
0000
,
1000
0001
1000
0000
0010
0000
0100
0000
0001
1000
0100
0000
0010
0000
0001
0000
,
1000
0000
0001
1000
0001
1000
0001
1000
0001
0000
0100
0000
0010
0000
0100
0000
,
0001
0010
0100
0000
1000
0000
0001
0000
1000
0100
1000
0000
0001
0000
0010
0000
,
0100
1000
0100
0000
1000
0000
0001
0000
0100
0010
1000
0000
0001
0000
0010
0000
,
0100
1000
0010
0000
0100
0000
0001
0000
1000
0100
0010
0000
0001
0000
1000
0000
,
0001
0010
0100
0000
1000
0000
0001
2000
0000
0000
0000
0000
3010
0000
0100
0002
,
0000
0000
0000
0000
1003
0000
0010
0200
0000
0000
0000
0000
0301
0000
1000
0100
,
0000
0100
0000
0100
0000
0100
0010
0000
0002
0000
0000
0000
0013
0000
0100
2000
,
0000
0000
0000
0000
3010
0000
0100
0002
0000
0000
0000
0000
0013
0000
0100
1000
,
0000
1000
0000
1000
0000
1000
0010
0000
0200
0000
0000
0000
0301
0000
1000
0200
,
0000
0000
0000
0000
0310
0000
0001
0200
0000
0000
0000
0000
0310
0000
1000
0001
,
0000
0001
0000
0001
0000
0001
0100
0000
1001
0000
0001
1000
0000
0100
0000
1100
,
0000
0000
1100
0000
0010
0100
0000
0001
0000
0101
0000
0000
0000
0000
0000
1100
,
0000
0000
1100
0000
0010
0100
0000
0012
0000
0000
0000
0000
0000
0000
0000
0000
,
0000
0000
0000
0000
0000
0000
0000
0000
0103
0010
0100
0010
0000
1000
0000
1000
,
0000
0010
0100
0000
0001
0000
0100
0000
0010
0000
1000
0000
0001
0000
0100
0000
,
0100
0100
0100
2002
0000
0000
0000
0000
,
0000
0000
0000
0000
,
0000
0000
3003
0000
;

//---------------dance-single - ----------------
#NOTES:
     dance-single:
     :
     Challenge:
     15:
     0.809,0.828,0.467,0.244,1.000:
0000
0000
0000
0000
,
0000
0000
0000
0000
,
0000
0000
0000
0000
,
0000
0000
0000
0000
,
0000
0000
0000
1001
0000
1000
0100
0010
0001
1000
0010
1000
0000
0001
0010
0100
,
1000
0001
0100
0001
0000
1000
0100
0010
0001
1000
0010
1000
0000
1010
0000
1001
,
0000
0001
1000
0000
0001
0010
0100
1000
0001
0100
0010
0100
0000
0001
0010
0100
,
1000
0010
0100
0010
0000
1000
0010
0100
0001
0010
0100
1000
0000
1100
0000
1001
,
0000
0001
1000
0000
0001
0010
0100
1000
0001
0100
0010
0100
0000
0001
0100
0010
,
1000
0010
0100
0010
0000
1000
0100
0010
0001
1000
0010
1000
0000
1010
0000
1001
,
0000
0001
0100
0000
0110
0000
0000
1010
0000
0000
0110
0000
0000
1010
0000
0000
,
0110
0000
0000
0000
0000
0000
0101
0000
0000
0000
0000
0000
0110
0000
0000
0000
0000
0000
0101
0000
0000
0000
0000
0000
1001
0000
0000
0000
0001
0000
0000
1000
,
0000
0000
0000
0000
0000
0000
0000
0000
0000
0000
0000
0000
0100
0000
0000
0000
0000
0000
0000
0000
0000
0000
0000
0000
0000
0000
0000
0000
0000
0000
0001
0000
0000
0000
0000
0000
0000
0000
0000
0000
0000
0000
0000
0000
0000
0000
0000
0000
0100
0000
0000
0000
0000
0000
0000
0000
0000
0000
0000
0000
0000
0000
0000
0000
0000
0000
1000
0000
0000
0000
0000
0000
0000
0000
0000
0000
0000
0000
0000
0000
0000
0000
0000
0000
0000
0000
0000
0000
0010
0000
0000
0000
0000
0000
0000
0000
0000
0000
0000
0000
0000
0000
0000
0000
0100
0000
0000
0000
0000
0000
0000
0000
0000
0000
0000
0000
0000
0000
0000
0000
0010
0000
0000
0000
0000
0000
0000
0000
0000
0000
0000
0000
0000
0000
0000
0000
0100
0000
0000
0000
0000
0000
0000
0000
0000
0000
0000
0000
0000
0000
0000
0000
0010
0000
0000
0000
0000
0000
0000
0000
0000
0000
0000
0000
0000
0000
0000
0000
0100
0000
0000
0000
0000
0000
0000
0000
0000
0000
0000
0000
0000
0000
0000
0000
0010
0000
0000
0000
0000
0000
0000
0000
,
0000
1000
0000
0100
0000
1000
0000
0100
0000
1000
0000
0100
0000
1000
0000
0001
0000
1000
0000
0000
0000
2001
0000
0000
,
0000
0000
0000
3020
0000
0000
0000
0000
0000
0130
0000
0001
0000
0010
0000
0001
0000
0010
0000
0001
0000
0010
0000
0100
,
0000
0010
0000
0100
0000
0010
0000
0100
0000
1000
0000
0010
0000
1000
0000
0010
0000
1000
0000
0010
0000
0110
0000
0000
,
0000
0000
0000
0110
0000
0000
0000
0000
0000
0000
0000
0000
1001
0000
0000
0000
0000
0000
0000
0000
0000
1001
0000
0000
0000
0000
0000
0000
0000
0000
0100
0000
0000
0000
1000
0000
0000
0000
0100
0000
0000
0000
1000
0000
0000
0000
0100
0000
,
0000
1000
0000
0100
0000
1000
0000
0010
0000
0100
0000
0010
0000
0100
0000
0010
0000
0100
0000
0001
0000
0010
0000
0001
,
0000
0000
0010
0000
0000
0000
0000
0000
0000
0110
0000
0000
0000
0000
0000
0110
0000
0000
0000
0000
0000
0000
0000
0000
1001
0000
0000
0000
0000
0000
1000
0000
0000
0001
0000
0000
0000
0000
0000
0000
0000
0000
0100
0000
0000
0000
0000
0000
,
0020
0000
0000
1030
0000
0000
0002
0000
0000
0013
0000
0000
0200
0000
0000
1300
,
0000
0000
0020
0000
0000
0130
0000
0000
0002
0000
0000
1000
0000
0000
1003
0000
,
0000
0100
0000
0000
0020
0000
0000
0031
0000
0000
0200
0000
0000
0310
0000
0000
,
2000
0000
0000
3100
0000
0000
0020
0000
0000
0130
0000
0000
2000
0000
0000
3001
,
0000
0000
0200
0000
0000
0310
0000
0000
2000
0000
0000
3010
0000
0000
0200
0000
,
0000
0301
2000
0000
0000
0000
0000
0000
0000
0000
0000
0000
3000
0000
0000
0000
,
0000
0000
0001
0000
0100
0001
0000
0100
0001
0000
1000
0010
0000
0100
0000
0010
,
1000
0000
0001
0000
1000
0100
0000
1000
0100
0000
0010
0001
0000
0100
0000
0010
,
0000
0100
0001
0000
0010
0100
0000
0010
0100
0000
1000
0000
0001
1000
0000
0000
,
0001
0100
0001
0000
1000
0001
0000
1000
0001
0000
0010
0000
0100
1000
0000
0100
,
1000
0000
0001
0000
0100
0001
0000
0100
0001
0000
0010
0000
0100
0000
1000
0000
,
0001
0000
1000
0000
0100
1000
0000
0100
1000
0000
0001
0100
0000
0010
0000
0100
,
0001
0000
1000
0100
1000
0100
1000
0000
0100
0010
0000
0100
0010
0001
0000
0100
,
0010
0000
1000
0000
0100
1000
0000
0100
1000
0000
0010
0100
0000
0010
0000
0100
,
0001
0000
1001
0000
0000
1001
0000
0000
0000
0000
0000
0000
0000
0000
0010
0010
,
0000
0000
0000
0000
0000
0000
0000
0000
0110
0000
0000
0110
0000
0000
0000
0000
,
0000
0000
0000
0000
0100
0100
0000
0000
0000
0000
0000
0000
0000
0000
1001
0000
,
0000
1001
0000
0000
0000
0000
0000
0000
0000
0000
0010
0010
0000
0000
0000
0000
,
0000
0000
0000
0000
1000
0001
0000
0010
0000
0100
0000
2000
0000
0001
3001
0000
,
0100
0010
0000
0110
0000
0100
0010
0001
0010
0100
1000
0010
0000
0100
0001
0010
,
0100
1000
0100
0010
0000
0100
1000
0001
0100
0010
1000
0100
0000
1100
0000
1100
,
0000
1000
0001
0000
1001
0000
0010
0001
0010
0100
1000
0010
0000
0100
0001
1000
,
0100
0010
0001
0100
0000
0010
1000
0001
0010
0100
1000
0001
0000
0101
0000
0101
,
0000
0100
0010
0000
0110
0000
0100
1000
0010
0100
0001
0010
0000
0100
1000
0100
,
0010
0001
0100
0010
0000
0100
0001
0010
0001
0100
0010
1000
0000
1010
0000
1010
,
0000
1000
0001
0000
1001
0000
0100
0010
0000
1000
0000
1100
0000
0000
1100
0000
,
0010
0100
0001
0010
0000
0011
0000
0001
1000
0001
1000
0100
0000
0000
1100
0000
,
0010
0100
0000
0220
0000
0000
0000
0000
0000
0000
0000
0000
0000
0000
0000
0000
,
0000
0000
0330
0000
0010
0001
0100
0010
0000
0110
0000
1010
0000
1000
0001
0010
,
1000
0010
0001
0010
1000
0010
0001
0100
0010
1000
0200
0000
0000
0000
0000
0000
,
0300
2002
0000
0000
0000
0000
0000
0000
,
0000
0000
0000
0000
0000
0000
3003
0000
0200
0000
0000
0001
0000
0000
0301
0000
,
2000
0000
0000
0100
0000
0000
3100
0000
0020
0000
0000
0001
0000
0000
0031
0000
,
0200
0000
0000
1000
0000
0000
1300
0000
0020
0000
0000
0100
0000
0000
0130
0000
,
0002
0000
0000
0010
0000
0000
0013
0000
0200
0000
0000
0010
0000
0000
0310
0000
,
0002
0000
0000
1000
0000
0000
1003
0000
0001
0000
0100
0000
0001
0000
1000
0000
,
0010
0100
0001
1000
0100
1000
0001
0010
,
0100
1000
0001
0100
0010
0100
0001
0100
,
1000
0100
0001
1000
0001
0010
1000
0010
,
0001
0000
1000
0000
0010
0000
1000
0000
0001
0000
0100
0010
0100
0010
1000
0100
,
1000
0100
0010
0001
0100
0010
0100
0000
0010
0000
1000
0001
1000
0001
1000
0010
,
1000
0010
0100
0001
0100
0001
1000
0000
0001
0000
0100
0001
0100
0001
1000
0100
,
0010
0000
0100
1000
0100
1000
0001
0100
0010
0000
1000
0001
1000
0001
0010
0100
,
1000
0000
0001
0100
0010
0100
0001
0100
0010
0000
0100
0001
0100
0001
1000
0100
,
1000
0100
0010
0001
0100
0010
0100
0000
0001
0000
0010
0100
0010
0100
1000
0010
,
1000
0010
0100
0001
0100
0010
1000
0000
0001
0000
0100
0001
0100
0001
0010
0100
,
1000
0000
0010
1000
0010
1000
0100
0010
0001
0000
0100
0010
0100
0010
1000
0001
,
0010
0000
0100
1000
0100
1000
0010
0100
0000
0001
1000
0100
1000
0010
0100
0001
,
0000
0010
0100
1000
0001
0010
0100
1000
0000
0001
1000
0010
0100
0001
0010
0100
,
0000
1100
0000
1100
0000
1000
0001
0000
1001
0000
0010
0001
0010
0001
0100
0010
,
0000
0100
0001
0010
0100
1000
0001
0100
0000
0010
1000
0100
0010
0001
0100
0001
,
0000
0101
0000
0101
0000
0100
0010
0000
0110
0000
0100
1000
0010
0100
0001
0010
,
0000
0100
0010
0001
1000
0010
0100
0010
0000
0100
0001
0010
0100
1000
0001
0010
,
0000
0011
0000
0011
0000
0001
1000
0000
1001
0000
0001
0100
0000
0010
0000
1001
,
0000
0000
1001
0000
1000
0001
0010
0100
0000
0110
0000
0010
1000
0010
1000
0001
,
0000
0000
0101
0000
0100
0010
0000
1002
0000
0000
0000
0000
0000
0000
0000
0000
,
0000
0000
0000
0000
0000
0000
0000
0000
1003
0100
0010
0001
0000
0101
0000
0110
,
0000
0010
1000
0100
1000
0001
0010
1000
0010
0001
1000
0100
1000
0010
0200
0000
,
0000
0000
0300
0220
0000
0000
0000
0000
,
0000
0000
0000
0000
,
0000
0000
0330
0000
;

//---------------dance-double - ----------------
#NOTES:
     dance-double:
     :
     Easy:
     6:
     0.232,0.257,0.309,0.093,0.108:
00000000
00000000
00000000
00000000
,
00000000
00000000
00000000
00000000
,
00000000
00000000
00000000
00000000
,
00000000
00000000
00000000
00000000
,
00000000
00000000
00000000
10000000
00000000
00000000
00000000
00000000
00000000
00000000
00000000
00010000
00000000
00000000
00000000
00000000
,
00000000
00000000
00000000
10000000
00000000
00000000
00000000
00000000
00000000
00000000
01100000
00000000
00000000
00000000
00000000
00000000
,
00000000
00000000
00000000
00000000
00001000
00000000
00000000
00000000
00000000
00000000
00000000
00010000
00000000
00000000
00000000
00000000
,
00000000
00000000
00000000
00001000
00000000
00000000
00000000
00000000
00000000
00000000
00011000
00000000
00000000
00000000
00000000
00000000
,
00000000
00000000
00000000
00000000
00010000
00000000
00000000
00000000
00000000
00000000
00000000
00000001
00000000
00000000
00000000
00000000
,
00000000
00000000
00000000
00010000
00000000
00000000
00000000
00000000
00000000
00000000
00000110
00000000
00000000
00000000
00000000
00000000
,
00000000
00000000
00001001
00000000
00000000
00000010
00000000
00000000
,
00000100
00000000
00000000
00010000
00000000
00000000
00011000
00000000
,
00000000
00000000
00000000
02000000
00000000
00000000
00000000
00000000
,
00000000
03020000
00000000
00000000
00000000
00000000
00000000
10030000
,
00000000
00000000
00000000
00200000
00000000
00000000
00000000
00000000
,
00000000
02300000
00000000
00000000
00000000
00000000
00000000
03001000
,
00000000
00000000
00001000
00000000
00000000
00020000
00000000
00000000
,
00000000
00000000
00000000
00030020
00000000
00000000
00000000
00000000
,
00000000
00000000
00000000
00000130
00000000
00000000
00000000
00000000
00000100
00000000
00000000
00000000
00000000
00000000
00000001
00000000
,
00000000
00000010
00000000
00000001
00000000
00000010
00000000
00000001
,
00000000
00000010
00000000
00000001
00000000
00000100
00000000
00000010
,
00000000
00000100
00000000
00000010
00000000
00000100
00000000
00000010
,
00000000
00000100
00000000
00000010
00000000
00010000
00000000
00000010
,
00000000
00010000
00000000
00000010
00000000
00010000
00000000
00000010
,
00000000
00022000
00000000
00000000
00000000
00000000
00033000
00000000
,
00000000
01100000
00000000
00000000
00000000
01000000
00000000
00010000
,
00000000
10010000
00000000
00000000
00000000
01000000
00000000
10000000
,
00000000
10010000
00000000
00000000
00000000
01000000
00000000
00100000
,
00000000
01100000
00000000
00000000
00000000
00001000
00000000
00010000
,
00000000
00011000
00000000
00000000
00000000
00010000
00000000
00000010
,
00000000
00000110
00000000
00000000
00000000
00000100
00000000
00000001
,
00000000
00001001
00000000
00000000
00000000
00000010
00000000
00000100
,
00000000
00000110
00000000
00000000
00000000
00010000
00000000
00001000
,
00000000
00011000
00000000
00000000
00000000
00000000
00000000
01100000
,
00000000
00000000
01100000
00000000
,
00000000
00000000
01100000
00000000
00000000
00000000
00000000
10010000
,
00000000
00000000
00000000
00000000
00000000
10010000
00000000
00000000
,
00000000
10010000
00000000
00000000
,
00000000
00000000
00000000
01100000
00000000
00000000
00000000
00000000
00000000
00000000
00000000
01000000
00000000
00000000
00000000
00000000
,
00000000
00000000
00000000
00100000
00000000
00000000
00000000
00000000
00000000
00000000
01100000
00000000
00000000
00000000
00000000
00000000
,
00000000
00000000
00000000
00000000
00001000
00000000
00000000
00000000
00000000
00000000
00000000
00010000
00000000
00000000
00000000
00000000
,
00000000
00000000
00000000
00001000
00000000
00000000
00000000
00000000
00000000
00000000
00011000
00000000
00000000
00000000
00000000
00000000
,
00000000
00000000
00000000
00000000
00000010
00000000
00000000
00000000
00000000
00000000
00000000
00000100
00000000
00000000
00000000
00000000
,
00000000
00000000
00000000
00000010
00000000
00000000
00000000
00000000
00000000
00000000
00000110
00000000
00000000
00000000
00000000
00000000
,
00000000
00000000
00000000
00000000
00001001
00000000
00000000
00000000
00000000
00000000
00000000
00001001
00000000
00000000
00000000
00000000
,
00000000
00000000
00000000
00001001
00000000
00000000
00000000
00000000
00000000
00000000
00000000
00001001
00000000
00000000
00000000
00000000
,
00000000
00000000
00000000
00001001
00000000
00000000
00000000
00000000
00000000
00000000
00000000
00000000
00000000
00000000
00000000
00000000
,
00000000
00000020
00000000
00000130
,
00000001
00000010
00000100
00000000
,
00000000
00021000
00000000
00000000
00000000
00000000
00000000
00000000
,
00000000
00000000
00000000
00030000
00001000
00000000
00000000
00000000
,
01000000
00000000
00100000
00000000
,
00000000
00000000
01000000
00000000
,
00100000
00000000
10000000
00000000
,
00000000
00000000
01000000
00000000
,
00100000
00000000
00010000
00000000
,
00000000
00000000
00001000
00000000
,
00010000
00000000
00001000
00000000
,
00000000
00000000
00010000
00000100
,
00010000
00000100
00000010
00000001
,
00000010
00000001
00000100
00000010
,
00000100
00000010
00010000
00000100
,
00010000
00000100
00001000
00010000
,
00001000
00010000
01000000
00100000
,
01000000
00100000
10000000
01000000
,
00100000
01000000
10000000
00001000
,
00010000
00000000
00000000
00000000
00000000
00000000
00000000
00011000
00000000
00000000
00000000
00000000
00000000
00000000
00000000
00010000
,
00000000
00000000
00000000
00000000
00000000
00000000
00000000
00000010
00000000
00000000
00000000
00000000
00000000
00000000
00000110
00000000
,
00000000
00000000
00000000
00000000
00000000
00000000
00000000
00000000
00001001
00000000
00000000
00000000
00000000
00000000
00000000
00000001
,
00000000
00000000
00000000
00000000
00000000
00000000
00000000
00000100
00000000
00000000
00000000
00000000
00000000
00000000
00000110
00000000
,
00000000
00000000
00000000
00000000
00000000
00000000
00000000
00000000
00011000
00000000
00000000
00000000
00000000
00000000
00000000
00001000
,
00000000
00000000
00000000
00000000
00000000
00000000
00000000
00100000
00000000
00000000
00000000
00000000
00000000
00000000
01100000
00000000
,
00000000
00000000
00000000
00000000
00000000
00000000
00000000
00000000
10010000
00000000
00000000
00000000
00000000
00000000
00000000
10010000
,
00000000
00000000
00000000
00000000
00000000
00000000
00000000
10010000
00000000
00000000
00000000
00000000
00000000
00000000
00000000
01100000
,
00000000
00000000
00000000
00000000
00000000
00000000
00000000
10010000
00000000
00000000
00000000
00000000
00000000
00000000
00000000
00000000
,
00000000
00000000
02000000
00000000
,
03010000
10000000
01000000
00100000
,
00000000
00000000
00000000
00022000
00000000
00000000
00000000
00000000
,
00000000
00000000
00000000
00000000
,
00000000
00000000
00033000
00000000
;

//---------------dance-double - ----------------
#NOTES:
     dance-double:
     :
     Medium:
     9:
     0.415,0.428,0.496,0.086,0.259:
00000000
00000000
00000000
00000000
,
00000000
00000000
00000000
00000000
,
00000000
00000000
00000000
00000000
,
00000000
00000000
00000000
00000000
,
00000000
00000000
00000000
10010000
00000000
00000000
00000000
00000000
00000000
00000000
00000000
10010000
00000000
00000000
00000000
00000000
,
00000000
00000000
00000000
10010000
00000000
00000000
00000000
00000000
00000000
00000000
10010000
00000000
00000000
10000000
00000000
00010000
,
00000000
10000000
00000000
00000000
01100000
00000000
00000000
00000000
00000000
00000000
00000000
01100000
00000000
00000000
00000000
00000000
,
00000000
00000000
00000000
01100000
00000000
00000000
00000000
00000000
00000000
00000000
01100000
00000000
00000000
00100000
00000000
01000000
,
00000000
00001000
00000000
00000000
00011000
00000000
00000000
00000000
00000000
00000000
00000000
00011000
00000000
00000000
00000000
00000000
,
00000000
00000000
00000000
00011000
00000000
00000000
00000000
00000000
00000000
00000000
00011000
00000000
00000000
00010000
00000000
00000100
,
00000000
00000010
00000000
00000000
00000110
00000000
00000000
00000000
00000000
00000000
00000101
00000000
00000000
00000000
00000000
00000000
,
00000110
00000000
00000000
00010010
00000000
00000000
00021000
00000000
,
00000000
00000000
00000000
00030010
00000000
00000100
00000000
00000001
,
00000000
00000100
00000000
00001000
00000000
00000100
00000000
00001001
,
00000000
00001001
00000000
00000001
00000000
00000010
00000000
00000100
,
00000000
00010000
00000000
00001000
00000000
01000000
00000000
01100000
,
00000000
00100000
00000000
00000000
01000000
00000000
00000000
01000000
00000000
00000000
00010000
00000000
00000000
00000000
10000000
00000000
,
00000000
01000000
00000000
00010000
00000000
01000000
00000000
10000000
,
00000000
00000000
00000000
00010000
00000000
00010000
00000000
00000000
01000000
00000000
00000000
01000000
00000000
00000000
00001000
00000000
,
00010000
00001000
00000000
00010000
00000010
00010000
00000000
00000100
,
00000010
00000100
00000000
00010000
00000010
00010000
00000000
00000001
,
00000010
00000001
00000000
00000010
00000100
00000010
00000000
00000100
,
00010000
00000100
00000000
00010000
00001000
00010000
00000000
00001000
,
01000000
00001000
00000000
01000000
00100000
01000000
00000000
00010000
,
10000000
00020000
00000000
00000000
00000000
00000000
00000000
00030000
,
00000000
01100000
00000000
01000000
00000000
01000000
00100000
10000000
,
00000000
00010000
00000000
00010000
00000000
00010000
01000000
00001000
,
00000000
00010000
00000000
00010000
00000000
00010000
00000100
00000010
,
00000000
00000001
00000000
00000001
00000000
00000001
00000100
00000010
,
00000000
00001000
00000000
00001000
00000000
00001000
00000010
00010000
,
00000000
00001000
00000000
00001000
00000000
00001000
00100000
01000000
,
00000000
10000000
00000000
10000000
00000000
10000000
00100000
01000000
,
00000000
00100000
00000000
00100000
00000000
00100000
01000000
00001000
,
00000000
00000000
00011000
00000000
00000000
00011000
00000000
00000000
00000000
00000000
00000000
00000000
00000000
00000000
00000110
00000000
,
00000000
00000000
00000000
00000000
00000000
00000000
00000000
00000000
00000101
00000000
00000000
00000101
00000000
00000000
00000000
00000000
,
00000000
00000000
00000110
00000000
00000000
00000000
00000000
00011000
,
00000000
00011000
00000000
00000000
00000000
00000000
00000000
00000000
00000000
00000000
01001000
00000000
00000000
00000000
00000000
00000000
,
00000000
00000000
00000000
00000000
01100000
00000000
00000000
00100000
00000000
01000000
00000000
00100000
00000000
00000000
00000000
00000000
,
01100000
00000000
00000000
10010000
00000000
00000000
00000000
00000000
00000000
00000000
00000000
11000000
00000000
00000000
00000000
00000000
,
00000000
00000000
00000000
01100000
00000000
00000000
00000000
00000000
00000000
00000000
00101000
00000000
00000000
00001000
00000000
00010000
,
00000000
00001000
00000000
00000000
00011000
00000000
00000000
00000000
00000000
00000000
00000000
00010010
00000000
00000000
00000000
00000000
,
00000000
00000000
00000000
00000110
00000000
00000000
00000000
00000000
00000000
00000000
00000101
00000000
00000000
00000001
00000000
00001000
,
00000000
00000001
00000000
00000000
00001001
00000000
00000000
00000000
00000000
00000000
00000000
00000101
00000000
00000000
00000000
00000000
,
00000000
00000000
00000000
00000110
00000000
00000000
00000000
00000000
00000000
00000000
00010010
00000000
00000000
00010000
00000000
00001000
,
00000000
00010000
00000000
00000000
00011000
00000000
00000000
00000000
00000000
00000000
00000000
01100000
00000000
00000000
01100000
00000000
,
00000000
00000000
00000000
00100000
00000000
00100000
00000000
00000000
00000000
00000000
00000000
10010000
00000000
00000000
10010000
00000000
,
00000000
00000000
00000000
02200000
00000000
00000000
00000000
00000000
00000000
00000000
00000000
00000000
00000000
00000000
00000000
00000000
,
03300000
01000000
00100000
10000000
,
01000000
00000000
00100000
00000000
00001000
00010000
00000100
00000010
,
00000001
00000200
00000000
00000000
00000000
00000000
00000000
00000000
,
00000000
00000000
00000000
00000300
00000002
00000000
00000000
00000010
,
00000013
00000000
00000100
00000000
00020000
00000000
00000000
00001000
,
00031000
00000000
01000000
00000000
00200000
00000000
00000000
10000000
,
10300000
00000000
00010000
00000000
00200000
00000000
00000000
00001000
,
00301000
00000000
00010000
00000000
00000010
00010000
00000010
00000000
,
00000100
00000010
00000100
00000000
00000010
00000100
00000001
00000000
,
00000010
00000000
00000100
00000000
00010000
00001000
00010000
00000000
,
00001000
01000000
00001000
00000000
01000000
00100000
10000000
00000000
,
00100000
00000000
01000000
00000000
00001000
00010000
00001000
00010000
,
00001000
00010000
00000010
00000000
00000100
00000001
00000100
00000001
,
00000010
00000100
00010000
00000000
00001000
00100000
00001000
00100000
,
00001000
01000000
00100000
00000000
01000000
00100000
01000000
00100000
,
10000000
01000000
00100000
00000000
00001000
00010000
00001000
00010000
,
00000010
00000100
00000001
00000000
00000010
00000100
00000010
00000100
,
00010000
00001000
01000000
00000000
00100000
10000000
00100000
10000000
,
01000000
00100000
00001000
00000000
00010000
00000010
00010000
00000010
,
00000100
00000000
00000001
00000000
00000010
00000000
00000000
00000011
00000000
00000000
00000000
00000000
00000100
00000000
00000000
00000110
,
00000000
00000000
00000000
00000000
00010000
00000000
00000000
00011000
00000000
00000000
00000000
00000000
00000000
00000000
01100000
00000000
,
00000000
01000000
00000000
00100000
00000000
01000000
00000000
00000000
10010000
00000000
00000000
00000000
00100000
00000000
00000000
10100000
,
00000000
00000000
00000000
00000000
01000000
00000000
00000000
01100000
00000000
00000000
00000000
00000000
00000000
00000000
00011000
00000000
,
00000000
00001000
00000000
00010000
00000000
00001000
00000000
00000000
00010010
00000000
00000000
00000000
00000100
00000000
00000000
00000110
,
00000000
00000000
00000000
00000000
00000001
00000000
00000000
00000011
00000000
00000000
00000000
00000000
00000000
00000000
00000110
00000000
,
00000000
00000010
00000000
00000100
00000000
00000010
00000000
00000000
00001001
00000000
00000000
00000000
00000000
00000000
00000000
01010000
,
00000000
00000000
01010000
00000000
00000000
00000000
00000000
00100000
00000000
01000000
00000000
00000000
00000000
00000000
00000000
10010000
,
00000000
00000000
10010000
00000000
00000000
00000000
00000000
01200000
00000000
00000000
00000000
00000000
00000000
00000000
00000000
00000000
,
00000000
00000000
00000000
00000000
00000000
00000000
00000000
00000000
01300000
00000000
00000000
00010000
00000000
10000000
00000000
00010000
,
00000000
10000000
01000000
00100000
00001000
00010000
00000100
00000010
,
00000001
00000000
00000000
00002002
00000000
00000000
00000000
00000000
,
00000000
00000000
00000000
00000000
,
00000000
00000000
00003003
00000000
;

//---------------dance-double - ----------------
#NOTES:
     dance-double:
     :
     Hard:
     13:
     0.589,0.628,0.402,0.309,0.564:
00000000
00000000
00000000
00000000
,
00000000
00000000
00000000
00000000
,
00000000
00000000
00000000
00000000
,
00000000
00000000
00000000
00000000
,
00000000
00000000
00000000
20020000
00000000
00000000
00000000
00000000
30030000
00000000
00000000
00220000
00000000
00000000
00000000
00000000
,
00330000
00000000
00000000
22000000
00000000
00000000
00000000
00000000
33000000
00000000
00001000
00010000
00000000
00010000
00000000
00010000
,
00000000
00010000
00000010
00000000
00000220
00000000
00000000
00000000
00000000
00000330
00000000
00000202
00000000
00000000
00000000
00000000
,
00000303
00000000
00000000
00002020
00000000
00000000
00000000
00000000
00003030
00000000
00010000
00001000
00000000
00001000
00000000
00001000
,
00000000
00001000
01000000
00000000
01200000
00000000
00000000
00000000
10300000
00000000
00000000
20100000
00000000
00000000
00000000
00000000
,
30001000
00000000
00000000
00102000
00000000
00000000
00000000
00000000
00013000
00000000
00000010
00000100
00000000
00000100
00000000
00000100
,
00000000
00000100
00000001
00000000
00001001
00000000
00000000
00001001
00000000
00000000
00010100
00000000
00000000
00010100
00000000
00000000
,
00011000
00000000
00000000
00000000
00000000
00000000
00011000
00000000
00000000
00000000
00000000
00000000
01001000
00000000
00000000
00000000
00000000
00000000
01001000
00000000
00000000
00000000
00000000
00000000
01100000
00000000
00000000
00000000
00100000
00000000
00000000
10000000
,
00000000
00000000
00000000
00000000
00000000
00000000
00000000
00000000
00000000
00000000
00000000
00000000
01000000
00000000
00000000
00000000
00000000
00000000
00000000
00000000
00000000
00000000
00000000
00000000
00000000
00000000
00000000
00000000
00000000
00000000
00100000
00000000
00000000
00000000
00000000
00000000
00000000
00000000
00000000
00000000
00000000
00000000
00000000
00000000
00000000
00000000
00000000
00000000
01000000
00000000
00000000
00000000
00000000
00000000
00000000
00000000
00000000
00000000
00000000
00000000
00000000
00000000
00000000
00000000
00000000
00000000
10000000
00000000
00000000
00000000
00000000
00000000
00000000
00000000
00000000
00000000
00000000
00000000
00000000
00000000
00000000
00000000
00000000
00000000
00000000
00000000
00000000
00000000
00000000
00000000
00000000
00000000
00000000
00000000
00000000
00000000
00000000
00000000
00000000
00000000
00000000
00000000
00000000
00000000
00100000
00000000
00000000
00000000
00000000
00000000
00000000
00000000
00000000
00000000
00000000
00000000
00000000
00000000
00000000
00000000
10000000
00000000
00000000
00000000
00000000
00000000
00000000
00000000
00000000
00000000
00000000
00000000
00000000
00000000
00000000
00000000
00000000
00000000
00000000
00000000
00000000
00000000
00000000
00000000
00000000
00000000
00000000
00000000
00000000
00000000
00000000
00000000
00100000
00000000
00000000
00000000
00000000
00000000
00000000
00000000
00000000
00000000
00000000
00000000
00000000
00000000
00000000
00000000
10000000
00000000
00000000
00000000
00000000
00000000
00000000
00000000
00000000
00000000
00000000
00000000
00000000
00000000
00000000
00000000
00000000
00000000
00000000
00000000
00000000
00000000
00000000
00000000
,
00000000
01000000
00000000
00100000
00000000
00000000
00000000
00001000
00000000
00010000
00000000
00000000
00000000
00001000
00000000
00010000
00000000
00000000
00000000
00000010
00000000
00010000
00000000
00000000
,
00000000
00000000
00000000
00010010
00000000
00000000
00000000
00000000
00000000
00000110
00000000
00000000
00000000
00000100
00000000
00000001
00000000
00000000
00000000
00000100
00000000
00000001
00000000
00000000
,
00000000
00000010
00000000
00000100
00000000
00000000
00000000
00010000
00000000
00000100
00000000
00000000
00000000
00010000
00000000
00000100
00000000
00000000
00000000
00001000
00000000
00010000
00000000
00000000
,
00000000
00000000
00000000
00011000
00000000
00000000
00000000
00000000
00000000
00000000
00000000
00000000
01001000
00000000
00000000
00000000
00000000
00000000
00000000
00000000
00000000
01001000
00000000
00000000
00000000
00000000
00000000
00000000
00000000
00000000
01100000
00000000
00000000
00000000
00000000
00000000
00000000
00000000
00100000
00000000
00000000
00000000
10000000
00000000
00000000
00000000
00000000
00000000
,
00000000
00100000
00000000
10000000
00000000
00000000
00000000
01000000
00000000
00100000
00000000
00000000
00000000
00001000
00000000
00100000
00000000
00000000
00000000
00001000
00100000
00000000
00000000
00000000
,
00000000
00000000
00001000
00000000
00000000
00000000
00000000
00000000
00000000
00010000
00000000
00000000
00000000
00000000
00000000
00010000
00000000
00000000
00000000
00000000
00000000
00000000
00000000
00000000
00000010
00000000
00000000
00000000
00000000
00000000
00000100
00000000
00000000
00000010
00000000
00000000
00000000
00000000
00000000
00000000
00000000
00000000
00001000
00000000
00000000
00000000
00000000
00000000
,
00000001
00001000
00000001
00001000
00000001
00001000
00000001
00001000
,
00000010
00010000
00000010
00010000
00000010
00010000
00001000
00010000
,
00001000
00010000
00001000
00010000
00001000
01000000
00100000
01000000
,
00100000
01000000
00100000
01000000
00010000
10000000
00010000
10000000
,
00010000
10000000
00010000
01000000
00100000
01000000
00100000
01000000
,
00100000
20000000
00000000
00000000
00000000
00000000
00000000
30000000
,
00000000
00000000
10010000
00000000
00000000
00010000
00000000
00000000
00010000
00000000
10000000
00000000
01000000
00000000
00100000
00000000
,
00000000
00000000
00001000
00000000
00000000
00001000
00000000
00000000
00001000
00000000
00010000
00000000
00000010
00000000
00000100
00000000
,
00000000
00000000
00000001
00000000
00000000
00000001
00000000
00000000
00000001
00000000
00000020
00000000
00000000
00000000
00000130
00000000
,
00000000
00000000
00001000
00000000
00000000
00001000
00000000
00000000
00001000
00000000
00000010
00000000
00010000
00000000
00001000
00000000
,
00000000
00000000
00100000
00000000
00000000
00100000
00000000
00000000
00100000
00000000
01000000
00000000
10000000
00000000
00010000
00000000
,
00000000
00000000
10000000
00000000
00000000
10000000
00000000
00000000
10000000
00000000
00100000
00000000
01000000
00000000
00001000
00000000
,
00000000
00010000
00000010
00000100
00000010
00010000
00000100
00000010
,
00000000
00000001
00000010
00000100
00000010
00000001
00000100
00000010
,
00000000
00000000
00011000
00000000
00000000
00011000
00000000
00000000
00000000
00000000
00000000
00000000
00000000
00000000
01000000
00100000
,
00000000
00000000
00000000
00000000
00000000
00000000
00000000
00000000
00011000
00000000
00000000
00011000
00000000
00000000
00000000
00000000
,
00000000
00000000
00000000
00000000
00000010
00000100
00000000
00000000
00000000
00000000
00000000
00000000
00000000
00000000
00011000
00000000
,
00000000
00011000
00000000
00000000
00000000
00000000
00000000
00000000
00000000
00000000
00100000
01000000
00000000
00000000
00000000
00000000
,
00000000
00000000
00000000
00000000
10000000
00010000
00000000
00010000
00000000
00010000
00000000
00010000
00000000
10000000
00010000
00000000
,
00100000
01000000
00000000
01200000
00000000
00000000
00000000
00000000
00310000
00000000
00000000
10020000
00000000
00000000
00000000
00000000
,
01030000
00000000
00000000
02100000
00000000
00000000
00000000
00000000
03001000
00000000
00010000
00000010
00000000
00000010
00000000
00000010
,
00000000
00000010
00000100
00000000
00000102
00000000
00000000
00000000
00010003
00000000
00000000
00012000
00000000
00000000
00000000
00000000
,
01003000
00000000
00000000
02100000
00000000
00000000
00000000
00000000
03010000
00000000
10000000
00100000
00000000
00100000
00000000
00100000
,
00000000
00100000
01000000
00000000
01002000
00000000
00000000
00000000
00013000
00000000
00000000
00010020
00000000
00000000
00000000
00000000
,
00000130
00000000
00000000
00000102
00000000
00000000
00000000
00000000
00000013
00000000
00000100
00010000
00000000
00010000
00000000
00010000
,
00000000
00010000
00001000
00000000
00011000
00000000
00000000
00000000
00000000
00000000
00000000
01001000
00000000
00000000
01100000
00000000
,
00000000
00000000
00000000
10000000
00000000
11000000
00000000
00000000
00000000
00000000
00000000
01100000
00000000
00000000
01100000
00000000
,
10000000
00010000
00000000
20020000
00000000
00000000
00000000
00000000
00000000
00000000
00000000
00000000
00000000
00000000
00000000
00000000
,
30030000
00000000
00000000
00000000
00010000
00100000
00010000
00100000
00000000
00001000
00000000
00001000
00000000
00010000
00000010
00000000
,
00000100
00000001
00000010
00000100
00000010
00000001
00000100
00000010
,
00010000
00002000
00000000
00000000
00000000
00000000
00000000
00000000
,
00000000
00000000
00000000
00000000
00000000
00000000
00003000
00000000
01100000
00000000
00000000
01000000
00000000
00000000
00100000
00000000
,
10000000
00000000
00000000
10000000
00000000
00000000
01000000
00000000
00100000
00000000
00000000
00100000
00000000
00000000
00001000
00000000
,
00010000
00000000
00000000
00010000
00000000
00000000
00000100
00000000
00000010
00000000
00000000
00000010
00000000
00000000
00000001
00000000
,
00000100
00000000
00000000
00000100
00000000
00000000
00000010
00000000
00010000
00000000
00000000
00010000
00000000
00000000
00001000
00000000
,
00100000
00000000
00000000
00100000
00000000
00000000
01000000
00000000
00100000
00000000
00010000
00000000
10000000
00000000
00100000
00000000
,
01000000
00010000
10000000
01000000
00100000
00001000
00010000
00000100
,
00000010
00000001
00001000
00000100
00000010
00000100
00001000
00000001
,
00000100
00000001
00010000
00001000
00100000
01000000
00100000
00001000
,
02000000
00000000
00000000
00000000
03100000
00000000
00000000
00000000
10000000
00100000
10000000
00000000
01000000
00000000
00100000
00000000
,
00001000
00010000
00000010
00000000
00010000
00000000
00000100
00000000
00000010
00000001
00000010
00000000
00000100
00000000
00010000
00000000
,
00001000
00010000
00001000
00000000
00100000
00000000
01000000
00000000
10000000
01000000
00100000
00000000
00001000
00000000
00010000
00000000
,
00000010
00000100
00000010
00000000
00001000
00000000
00000001
00000000
00000010
00000100
00001000
00000000
00010000
00000000
01000000
00000000
,
00100000
00000000
10000000
00010000
10000000
00010000
10000000
00010000
10000000
00000000
01000000
00000000
00100000
00000000
01000000
00000000
,
10000000
00010000
01000000
00000000
00010000
00000000
00001000
00000000
00000010
00000100
00000010
00000000
00001000
00000000
00000001
00000000
,
00000010
00000001
00000010
00000000
00000100
00000000
00001000
00000000
00010000
01000000
00100000
00000000
01000000
00000000
00010000
00000000
,
10000000
01000000
00100000
00000000
01000000
00000000
10000000
00000000
00010000
01000000
00001000
00000000
00010000
00000000
00000100
00000000
,
00000010
00000100
00001000
00000000
00000001
00000000
00000100
00000002
00000000
00000000
00000000
00000000
00000013
00000000
00000100
00020000
,
00000000
00000000
00000000
00000000
00031000
00000000
01000000
00200000
00000000
00000000
00000000
00000000
10300000
00000000
00010000
00100000
,
00000000
00100000
00000000
00100000
00000000
00100000
00001000
00000000
00020000
00000000
00000000
00000000
00030010
00000000
00000100
00000002
,
00000000
00000000
00000000
00000000
00000013
00000000
00000100
00020000
00000000
00000000
00000000
00000000
00031000
00000000
00100000
01000000
,
00000000
01000000
00000000
01000000
00000000
01000000
10000000
00000000
00020000
00000000
00000000
00000000
00130000
00000000
00000100
00002000
,
00000000
00000000
00000000
00000000
00003010
00000000
00000100
00000002
00000000
00000000
00000000
00000000
00000013
00000000
00000100
00010000
,
00000000
00010000
00000000
00010000
00000000
00010000
00001000
00000000
01001000
00000000
01000000
00100000
00000000
10000000
00000000
10100000
,
00000000
00000000
10010000
00000000
00010000
10000000
00000000
00100000
00000000
01100000
00000000
00000000
00000000
00000000
00000000
01001000
,
00000000
00000000
01001000
00000000
00001000
00010000
00000000
00010200
00000000
00000000
00000000
00000000
00000000
00000000
00000000
00000000
,
00000000
00000000
00000000
00000000
00000000
00000000
00000000
00000000
00001300
00000001
00000010
00000100
00000000
00010000
00000000
00010000
,
00000000
00001000
01000000
00000000
00100000
00000000
01000000
00000000
00001000
00000000
00100000
00000000
01000000
00000000
20000000
00000000
,
00000000
00000000
30000000
02200000
00000000
00000000
00000000
00000000
,
00000000
00000000
00000000
00000000
,
00000000
00000000
03300000
00000000
;

//---------------dance-double - ----------------
#NOTES:
     dance-double:
     :
     Challenge:
     15:
     0.782,0.828,0.438,0.086,1.000:
00000000
00000000
00000000
00000000
,
00000000
00000000
00000000
00000000
,
00000000
00000000
00000000
00000000
,
00000000
00000000
00000000
00000000
,
00000000
00000000
00000000
10010000
00000000
10000000
01000000
00100000
00010000
10000000
01000000
10000000
00000000
00010000
00100000
01000000
,
10000000
00001000
00100000
00001000
00000000
00010000
00000100
00000010
00000100
00010000
00000010
00000100
00000000
00000110
00000000
00000110
,
00000000
00000100
00000001
00000000
00000100
00000001
00000100
00000010
00001000
00000100
00010000
00001000
00000000
00000100
00000010
00000001
,
00000100
00000010
00001000
00000100
00000000
00010000
00001000
00100000
01000000
10000000
01000000
00100000
00000000
01100000
00000000
01100000
,
00000000
00100000
01000000
00000000
10000000
01000000
00100000
01000000
10000000
00001000
01000000
00001000
00000000
00100000
01000000
10000000
,
01000000
00100000
00001000
00010000
00000000
00000100
00000010
00000001
00000010
00000100
00010000
00000010
00000000
00000110
00000000
00000110
,
00000000
00000100
00000001
00000000
00001001
00000000
00000000
00010010
00000000
00000000
00011000
00000000
00000000
01001000
00000000
00000000
,
01100000
00000000
00000000
00000000
00000000
00000000
11000000
00000000
00000000
00000000
00000000
00000000
10010000
00000000
00000000
00000000
00000000
00000000
01100000
00000000
00000000
00000000
00000000
00000000
01001000
00000000
00000000
00000000
00001000
00000000
00000000
00010000
,
00000000
00000000
00000000
00000000
00000000
00000000
00000000
00000000
00000000
00000000
00000000
00000000
00000100
00000000
00000000
00000000
00000000
00000000
00000000
00000000
00000000
00000000
00000000
00000000
00000000
00000000
00000000
00000000
00000000
00000000
00000010
00000000
00000000
00000000
00000000
00000000
00000000
00000000
00000000
00000000
00000000
00000000
00000000
00000000
00000000
00000000
00000000
00000000
00000001
00000000
00000000
00000000
00000000
00000000
00000000
00000000
00000000
00000000
00000000
00000000
00000000
00000000
00000000
00000000
00000000
00000000
00000100
00000000
00000000
00000000
00000000
00000000
00000000
00000000
00000000
00000000
00000000
00000000
00000000
00000000
00000000
00000000
00000000
00000000
00000000
00000000
00000000
00000000
00000010
00000000
00000000
00000000
00000000
00000000
00000000
00000000
00000000
00000000
00000000
00000000
00000000
00000000
00000000
00000000
00000100
00000000
00000000
00000000
00000000
00000000
00000000
00000000
00000000
00000000
00000000
00000000
00000000
00000000
00000000
00000000
00000010
00000000
00000000
00000000
00000000
00000000
00000000
00000000
00000000
00000000
00000000
00000000
00000000
00000000
00000000
00000000
00000100
00000000
00000000
00000000
00000000
00000000
00000000
00000000
00000000
00000000
00000000
00000000
00000000
00000000
00000000
00000000
00000010
00000000
00000000
00000000
00000000
00000000
00000000
00000000
00000000
00000000
00000000
00000000
00000000
00000000
00000000
00000000
00000100
00000000
00000000
00000000
00000000
00000000
00000000
00000000
00000000
00000000
00000000
00000000
00000000
00000000
00000000
00000000
00000001
00000000
00000000
00000000
00000000
00000000
00000000
00000000
,
00000000
00000010
00000000
00000001
00000000
00000010
00000000
00000001
00000000
00000010
00000000
00000001
00000000
00010000
00000000
00000100
00000000
00010000
00000000
00000000
00000000
00012000
00000000
00000000
,
00000000
00000000
00000000
02003000
00000000
00000000
00000000
00000000
00000000
03100000
00000000
10000000
00000000
01000000
00000000
10000000
00000000
01000000
00000000
10000000
00000000
01000000
00000000
00100000
,
00000000
00001000
00000000
00100000
00000000
00001000
00000000
00100000
00000000
00010000
00000000
00001000
00000000
00010000
00000000
00001000
00000000
00010000
00000000
00001000
00000000
00000010
00000000
00000000
,
00000000
00000000
00000000
00000110
00000000
00000000
00000000
00000000
00000000
00000000
00000000
00000000
00000100
00000000
00000000
00000000
00000000
00000000
00000000
00000000
00000000
00000101
00000000
00000000
00000000
00000000
00000000
00000000
00000000
00000000
00000001
00000000
00000000
00000000
00001000
00000000
00000000
00000000
00000001
00000000
00000000
00000000
00001000
00000000
00000000
00000000
00000001
00000000
,
00000000
00001000
00000000
00000001
00000000
00000100
00000000
00000001
00000000
00000100
00000000
00000001
00000000
00000100
00000000
00000001
00000000
00010000
00000000
00001000
00000000
00010000
00000000
00001000
,
00000000
00000000
00010000
00000000
00000000
00000000
00000000
00000000
00000000
00001000
00000000
00000000
00000000
00000000
00000000
00101000
00000000
00000000
00000000
00000000
00000000
00000000
00000000
00000000
01000000
00000000
00000000
00000000
00000000
00000000
01000000
00000000
00000000
00100000
00000000
00000000
00000000
00000000
00000000
00000000
00000000
00000000
10000000
00000000
00000000
00000000
00000000
00000000
,
01000000
00000000
00000000
00010000
00000000
00000000
01000000
00000000
00000000
10000000
00000000
00000000
00100000
00000000
00000000
01000000
,
00000000
00000000
00001000
00000000
00000000
00010000
00000000
00000000
00000010
00000000
00000000
00000100
00000000
00000000
00000100
00000000
,
00000000
00000001
00000000
00000000
00000010
00000000
00000000
00001000
00000000
00000000
00000010
00000000
00000000
00000001
00000000
00000000
,
00000100
00000000
00000000
00000010
00000000
00000000
00001000
00000000
00000000
00010000
00000000
00000000
01000000
00000000
00000000
10000000
,
00000000
00000000
01000000
00000000
00000000
00010000
00000000
00000000
00100000
00000000
00000000
01000000
00000000
00000000
00100000
00000000
,
00000000
00001000
00020000
00000000
00000000
00000000
00000000
00000000
00000000
00000000
00000000
00000000
00030000
00000000
00000000
00000000
,
00000000
00000000
00000010
00000000
00000100
00000001
00000000
00000100
00000001
00000000
00000010
00000100
00000000
00010000
00000000
00000100
,
00000010
00000000
00000001
00000000
00010000
00000010
00000000
00010000
00000010
00000000
00010000
00001000
00000000
01000000
00000000
00100000
,
00000000
01000000
00001000
00000000
00100000
01000000
00000000
00100000
01000000
00000000
10000000
00000000
00100000
01000000
00000000
00000000
,
00001000
00010000
00001000
00000000
00010000
00000010
00000000
00010000
00000010
00000000
00000100
00000000
00000001
00000010
00000000
00000001
,
00000010
00000000
00000100
00000000
00010000
00001000
00000000
00010000
00001000
00000000
01000000
00000000
00100000
00000000
01000000
00000000
,
00001000
00000000
00100000
00000000
01000000
10000000
00000000
01000000
10000000
00000000
00100000
01000000
00000000
00001000
00000000
01000000
,
00100000
00000000
10000000
00010000
10000000
00010000
10000000
00000000
01000000
10000000
00000000
01000000
10000000
00100000
00000000
01000000
,
00001000
00000000
00010000
00000000
00000100
00000010
00000000
00000100
00000010
00000000
00000001
00000100
00000000
00000010
00000000
00000100
,
00000001
00000000
00001001
00000000
00000000
00001001
00000000
00000000
00000000
00000000
00000000
00000000
00000000
00000000
00000010
00000010
,
00000000
00000000
00000000
00000000
00000000
00000000
00000000
00000000
00011000
00000000
00000000
00011000
00000000
00000000
00000000
00000000
,
00000000
00000000
00000000
00000000
01000000
01000000
00000000
00000000
00000000
00000000
00000000
00000000
00000000
00000000
01100000
00000000
,
00000000
01100000
00000000
00000000
00000000
00000000
00000000
00000000
00000000
00000000
00001000
00001000
00000000
00000000
00000000
00000000
,
00000000
00000000
00000000
00000000
00010000
00000010
00000000
00000100
00000000
00000010
00000000
00000100
00000000
00000001
00001000
00000000
,
00000001
00001000
00000000
00001001
00000000
00000001
00000010
00000100
00000010
00000001
00000100
00000010
00000000
00001000
00000100
00000010
,
00000100
00010000
00001000
00010000
00000000
00001000
01000000
00100000
01000000
00001000
01000000
00100000
00000000
01100000
00000000
01100000
,
00000000
00100000
10000000
00000000
10010000
00000000
10000000
00100000
01000000
00100000
10000000
00100000
00000000
01000000
00001000
00010000
,
00001000
01000000
00001000
00010000
00000000
00000100
00000010
00000001
00000010
00000100
00010000
00001000
00000000
00011000
00000000
00011000
,
00000000
00001000
01000000
00000000
01100000
00000000
00100000
01000000
10000000
01000000
00100000
00001000
00000000
00010000
00000010
00000100
,
00000010
00010000
00000010
00000100
00000000
00000001
00000010
00000100
00000010
00000001
00000100
00000010
00000000
00000110
00000000
00000110
,
00000000
00000010
00001000
00000000
00001001
00000000
00000001
00000010
00000000
00000100
00000000
00000110
00000000
00000000
00011000
00000000
,
00001000
01000000
00100000
01000000
00000000
01100000
00000000
00100000
10000000
01000000
00100000
01000000
00000000
00000000
10100000
00000000
,
10000000
00010000
00000000
20020000
00000000
00000000
00000000
00000000
00000000
00000000
00000000
00000000
00000000
00000000
00000000
00000000
,
00000000
00000000
30030000
00000000
10000000
01000000
00100000
00001000
00000000
00011000
00000000
00010010
00000000
00000010
00000100
00000001
,
00000010
00000100
00000010
00000001
00000100
00000010
00001000
00000100
00010000
00001000
00020000
00000000
00000000
00000000
00000000
00000000
,
00030000
02002000
00000000
00000000
00000000
00000000
00000000
00000000
,
00000000
00000000
00000000
00000000
00000000
00000000
03003000
00000000
00100000
00000000
00000000
00100000
00000000
00000000
00100000
00000000
,
10000000
00000000
00000000
10000000
00000000
00000000
10000000
00000000
01000000
00000000
00000000
01000000
00000000
00000000
01000000
00000000
,
00100000
00000000
00000000
00100000
00000000
00000000
00100000
00000000
00001000
00000000
00000000
00001000
00000000
00000000
00001000
00000000
,
00010000
00000000
00000000
00010000
00000000
00000000
00010000
00000000
00000100
00000000
00000000
00000100
00000000
00000000
00000100
00000000
,
00000010
00000000
00000000
00000010
00000000
00000000
00000010
00000000
00000001
00000000
00000100
00000000
00000010
00000000
00000100
00000000
,
00000001
00000010
00001000
00000010
00000001
00000100
00000010
00010000
,
00001000
01000000
00100000
00010000
00100000
01000000
00001000
10000000
,
00100000
10000000
00001000
00100000
01000000
00100000
00001000
00010000
,
00000010
00000000
00000001
00000000
00000010
00000000
00010000
00000000
00000100
00000000
00000010
00000001
00000010
00000001
00000100
00000010
,
00000100
00000010
00010000
00001000
00010000
00001000
01000000
00000000
00100000
00000000
10000000
00100000
10000000
00100000
10000000
00010000
,
10000000
00010000
10000000
01000000
00100000
00010000
01000000
00000000
00001000
00000000
00010000
00000100
00010000
00000100
00000010
00000001
,
00000100
00000000
00000010
00000100
00000010
00000100
00000001
00000010
00000100
00000000
00010000
00001000
00010000
00001000
01000000
00100000
,
10000000
00000000
01000000
00100000
00010000
00100000
01000000
00100000
00010000
00000000
10000000
00100000
10000000
00100000
01000000
00001000
,
01000000
00001000
00010000
00000100
00000010
00000100
00010000
00000000
00000001
00000000
00000010
00000001
00000010
00000001
00000100
00000010
,
00000100
00000010
00010000
00001000
00100000
01000000
00100000
00000000
00001000
00000000
01000000
00100000
01000000
00100000
10000000
01000000
,
00100000
00000000
00001000
00100000
00001000
00100000
00010000
00001000
00010000
00000000
00001000
00000010
00001000
00000010
00000100
00000001
,
00000010
00000000
00000100
00010000
00000100
00010000
00001000
01000000
00000000
00100000
10000000
01000000
00100000
01000000
10000000
00100000
,
00000000
01000000
00001000
01000000
00100000
01000000
00001000
01000000
00000000
00001000
00010000
00000100
00000010
00000100
00010000
00001000
,
00000000
00011000
00000000
00011000
00000000
00010000
00000010
00000000
00000110
00000000
00000100
00000001
00000100
00000001
00000010
00000100
,
00000000
00010000
00001000
00010000
00001000
01000000
00100000
10000000
00000000
01000000
00100000
01000000
00100000
00001000
00010000
00001000
,
00000000
00011000
00000000
00011000
00000000
00010000
00000010
00000000
00000110
00000000
00000100
00000010
00000001
00000010
00000100
00010000
,
00000000
00001000
10000000
00100000
01000000
00010000
01000000
00100000
00000000
10000000
01000000
00100000
01000000
10000000
00100000
01000000
,
00000000
01100000
00000000
01100000
00000000
01000000
00001000
00000000
00011000
00000000
00010000
00000010
00000000
00000100
00000000
00000110
,
00000000
00000000
00000110
00000000
00000100
00000010
00000001
00001000
00000000
00001100
00000000
00010000
00001000
00010000
00001000
00100000
,
00000000
00000000
01100000
00000000
00100000
10000000
00000000
10020000
00000000
00000000
00000000
00000000
00000000
00000000
00000000
00000000
,
00000000
00000000
00000000
00000000
00000000
00000000
00000000
00000000
00130000
01000000
10000000
00100000
00000000
01100000
00000000
10010000
,
00000000
10000000
01000000
00010000
01000000
10000000
00100000
01000000
00100000
10000000
00100000
00010000
00100000
10000000
00002000
00000000
,
00000000
00000000
00003000
00020200
00000000
00000000
00000000
00000000
,
00000000
00000000
00000000
00000000
,
00000000
00000000
00030300
00000000
;

//---------------dance-single - ----------------
#NOTES:
     dance-single:
     :
     Beginner:
     3:
     0.119,0.167,0.129,0.000,0.104: // measure 1
0000
0000
0000
0000
,  // measure 2
0000
0000
0000
0000
,  // measure 3
0000
0000
0000
0000
,  // measure 4
0000
0000
0000
0000
,  // measure 5
0000
0000
0000
1000
0000
0000
0000
0000
0000
0000
0000
0001
0000
0000
0000
0000
,  // measure 6
0000
0000
0000
1000
0000
0000
0000
0000
0000
0000
0000
0000
0000
0000
0000
0000
,  // measure 7
0000
0000
0000
0000
0001
0000
0000
0000
0000
0000
0000
1000
0000
0000
0000
0000
,  // measure 8
0000
0000
0000
0001
0000
0000
0000
0000
0000
0000
0000
0000
0000
0000
0000
0000
,  // measure 9
0000
0000
0000
0000
1000
0000
0000
0000
0000
0000
0000
0001
0000
0000
0000
0000
,  // measure 10
0000
0000
0000
1000
0000
0000
0000
0000
0000
0000
0000
0000
0000
0000
0000
0000
,  // measure 11
0000
0100
0000
0000
,  // measure 12
0000
0000
0000
0110
,  // measure 13
0000
0000
0000
0010
0000
0000
0000
0000
,  // measure 14
0000
0100
0000
0000
0000
0000
0000
0010
,  // measure 15
0000
0000
0000
1000
0000
0000
0000
0000
,  // measure 16
0000
0001
0000
0000
0000
0000
0000
1000
,  // measure 17
0000
0000
0000
0000
0000
0100
0000
0000
,  // measure 18
0000
0000
0000
1000
0000
0000
0000
0000
,  // measure 19
0000
0100
0000
0000
0000
0000
0000
1001
,  // measure 20
0000
0000
0000
0000
,  // measure 21
0000
0001
0000
0000
0000
0000
0000
0000
,  // measure 22
0000
1000
0000
0000
0000
0000
0000
0000
,  // measure 23
0000
0001
0000
0000
0000
0000
0000
0000
,  // measure 24
0000
1000
0000
0000
0000
0000
0000
0000
,  // measure 25
0000
0001
0000
0000
0000
0000
0000
0000
,  // measure 26
0000
1001
0000
0000
0000
1000
0000
0000
,  // measure 27
0000
0001
0000
0000
0000
0000
0000
0000
,  // measure 28
0000
1001
0000
0000
0000
0001
0000
0000
,  // measure 29
0000
1000
0000
0000
0000
0000
0000
0000
,  // measure 30
0000
0110
0000
0000
0000
0100
0000
0000
,  // measure 31
0000
0010
0000
0000
0000
0000
0000
0000
,  // measure 32
0000
0110
0000
0000
0000
0010
0000
0000
,  // measure 33
0000
0100
0000
0000
0000
0000
0000
0000
,  // measure 34
0000
1001
0000
0000
0000
0000
0000
0001
,  // measure 35
0000
0000
0110
0000
,  // measure 36
0000
0000
0100
0000
0000
0000
0000
1001
,  // measure 37
0000
0000
0000
0000
0000
0001
0000
0000
,  // measure 38
0000
0000
0000
0000
0000
0010
0000
0000
0000
0000
0000
0000
0000
0000
0000
0000
,  // measure 39
0000
0000
0000
1001
0000
0000
0000
0000
0000
0000
0000
0001
0000
0000
0000
0000
,  // measure 40
0000
0000
0000
1000
0000
0000
0000
0000
0000
0000
0000
0000
0000
0000
0000
0000
,  // measure 41
0000
0000
0000
0000
0001
0000
0000
0000
0000
0000
0000
1000
0000
0000
0000
0000
,  // measure 42
0000
0000
0000
0001
0000
0000
0000
0000
0000
0000
0000
0000
0000
0000
0000
0000
,  // measure 43
0000
0000
0000
0000
1000
0000
0000
0000
0000
0000
0000
0001
0000
0000
0000
0000
,  // measure 44
0000
0000
0000
1000
0000
0000
0000
0000
0000
0000
0000
0000
0000
0000
0000
0000
,  // measure 45
0000
0000
0000
0000
1001
0000
0000
0000
0000
0000
0000
0010
0000
0000
0000
0000
,  // measure 46
0000
0000
0000
0000
0000
0110
0000
0000
0000
0000
0000
0100
0000
0000
0000
0000
,  // measure 47
0000
0000
0000
1001
0000
0000
0000
0000
0000
0000
0000
0000
0000
0000
0000
0000
,  // measure 48
0000
1000
0000
0000
,  // measure 49
0000
0000
0000
0000
,  // measure 50
0000
0001
0000
0000
0000
0000
0000
0000
,  // measure 51
0000
0000
1001
0000
,  // measure 52
0000
0000
1000
0000
,  // measure 53
0000
0000
0001
0000
,  // measure 54
0000
0000
1000
0000
,  // measure 55
0000
0000
0001
0000
,  // measure 56
0000
0000
0100
0000
,  // measure 57
0000
0000
0001
0000
,  // measure 58
0000
0000
0010
0000
,  // measure 59
0000
0000
0100
0000
,  // measure 60
1000
0000
0100
0000
,  // measure 61
0000
0000
1000
0000
,  // measure 62
0001
0000
1000
0000
,  // measure 63
0000
0000
0001
0000
,  // measure 64
0100
0000
0001
0000
,  // measure 65
0000
0000
1000
0000
,  // measure 66
0001
0000
1000
0000
,  // measure 67
0000
0000
0000
0000
0000
0000
0000
1001
0000
0000
0000
0000
0000
0000
0000
1000
,  // measure 68
0000
0000
0000
0000
0000
0000
0000
0001
0000
0000
0000
0000
0000
0000
0000
0000
,  // measure 69
0000
0000
0000
0000
0000
0000
0000
0000
1000
0000
0000
0000
0000
0000
0000
0001
,  // measure 70
0000
0000
0000
0000
0000
0000
0000
1000
0000
0000
0000
0000
0000
0000
0000
0000
,  // measure 71
0000
0000
0000
0000
0000
0000
0000
0000
0010
0000
0000
0000
0000
0000
0000
0100
,  // measure 72
0000
0000
0000
0000
0000
0000
0000
0010
0000
0000
0000
0000
0000
0000
0000
0000
,  // measure 73
0000
0000
0000
0000
0000
0000
0000
0000
0110
0000
0000
0000
0000
0000
0000
0010
,  // measure 74
0000
0000
0000
0000
0000
0000
0000
0000
0000
0000
0000
0000
0000
0000
0000
1001
,  // measure 75
0000
0000
0000
0000
0000
0000
0000
1000
0000
0000
0000
0000
0000
0000
0000
0000
,  // measure 76
0000
0000
0001
0000
,  // measure 77
0000
0000
0100
0000
0000
0000
0000
0010
,  // measure 78
0000
0000
0000
0110
0000
0000
0000
0000
;
