#TITLE:SELECT?;
#SUBTITLE:;
#ARTIST:茅原実里;
#TITLETRANSLIT:;
#SUBTITLETRANSLIT:;
#ARTISTTRANSLIT:MINORI CHIHARA;
#CREDIT:DigiMindAxel;
#BANNER:SELECT.png;
#BACKGROUND:SELECT-bg.png;
#LYRICSPATH:SELECT.lrc;
#CDTITLE:DigiMindAxel original simfile.png;
#MUSIC:SELECT.ogg;
#METERTYPE:DDR X;
#OFFSET:-2.403;
#SAMPLESTART:55.278;
#SAMPLELENGTH:12.000;
#SELECTABLE:YES;
#BPMS:0.000=68.000;
#STOPS:;
#BGCHANGES:-3.000=SELECT.avi=1.000=1=1=0,
99999=-nosongbg-=1.000=0=0=0 // don't automatically add -songbackground-
;

//---------------dance-single - ----------------
#NOTES:
     dance-single:
     :
     Beginner:
     1:
     0.088,0.092,0.072,0.000,0.000:
0000
0000
0000
0000
,
0000
0000
0000
0000
,
0000
0000
0000
0000
,
0001
0000
0000
0100
0000
0000
0001
0000
,
0000
0000
0000
0000
1000
0000
0000
0001
,
0000
1000
0000
0000
,
0001
0000
0000
0010
0000
0000
0100
0000
,
0000
1000
0000
0000
0010
0000
0000
0000
,
0000
0000
0100
0000
0000
0010
0000
0000
,
1001
0000
0000
0010
,
0000
0000
1001
0000
,
0000
0000
0100
0000
0000
0010
0000
0000
,
1001
0000
0000
1000
,
0000
0000
0000
0000
0001
0000
0000
0010
,
0000
0100
0000
0000
,
1001
0000
0000
1000
0000
0000
0010
0000
,
0000
1000
0000
0000
0100
0000
0000
0010
,
0000
0000
0001
0000
0000
1000
0000
0000
,
0010
0000
0000
0100
0000
0000
0001
0000
,
0000
0100
0000
0000
0100
0000
0000
0010
,
0000
0000
0010
0000
0000
0100
0000
0000
,
1001
0000
0000
0001
0000
0000
1000
0000
,
0000
0001
0000
0000
0100
0000
0000
0001
,
0000
0000
1000
0000
0000
0100
0000
0000
,
1001
0000
0000
0001
0000
0000
0010
0000
,
0000
0010
0000
0000
0100
0000
0000
0100
,
0000
0000
1000
0000
0000
0001
0000
0000
,
1001
0000
0000
1000
,
0000
0000
0001
0000
,
0000
0010
0000
0000
,
0100
0000
0000
1000
0000
0000
0010
0000
,
0000
0100
0000
0000
1001
0000
0000
0001
,
0000
0000
1000
0000
0000
0010
0000
0000
,
1001
0000
0000
0000
;

//---------------dance-single - ----------------
#NOTES:
     dance-single:
     :
     Medium:
     5:
     0.195,0.205,0.080,0.152,0.000:
0000
0000
0000
0000
,
0000
0000
0000
0000
,
0000
0000
0000
0000
,
1000
0001
1000
0100
0010
0100
2000
0000
,
0001
3001
0000
0000
0100
0001
0100
0010
,
0100
0010
2000
0000
0001
3001
0000
0100
,
0001
0000
0100
0010
0000
1000
0100
0000
,
1000
0001
0000
0000
0010
0100
1000
0001
,
0000
1000
0002
0000
0100
0103
0000
0000
,
1001
0001
0100
0100
0010
0010
2000
0000
,
0001
3001
0000
0000
1001
1000
0010
0010
,
0100
0100
0002
0000
1000
1003
0000
0010
,
0100
0000
0001
0010
0000
0000
0001
0010
,
0100
0000
1000
0100
0010
0100
1000
0002
,
0000
0200
0000
0303
,
1002
0000
0100
0103
0000
0000
0010
1000
,
0100
0010
0000
0000
0001
0100
0010
0100
,
0000
0001
1000
0000
0100
1000
0000
0000
,
2001
0000
0010
3010
0000
0100
0010
0100
,
0001
0000
0000
0000
0010
0100
1000
0001
,
0000
0100
0001
0000
1000
0100
0000
0000
,
1002
0000
0010
0013
0000
0000
0100
1000
,
0010
0100
0000
0000
0001
1000
0100
0010
,
0000
0001
0100
0000
0001
1000
0000
0000
,
2001
0000
0100
3100
0000
0000
0010
0001
,
0100
0010
0000
0000
0100
0001
0010
0100
,
0000
1000
0010
0000
0100
0001
0000
0000
,
2001
0000
0000
3200
,
0000
0000
0320
0000
,
0000
0000
0032
0000
0000
0000
0000
0103
,
0110
0000
0000
1001
0000
0000
0002
0000
,
0000
2003
0000
0000
3010
0000
0000
0000
,
1000
0100
0010
0001
0000
0100
0000
0000
,
2002
0000
0000
0000
,
0000
3003
0000
0000
;

//---------------dance-single - ----------------
#NOTES:
     dance-single:
     :
     Hard:
     7:
     0.338,0.343,0.248,0.384,0.064:
0000
0000
0000
0000
,
0000
0000
0000
0000
,
0000
0000
0000
0000
,
1000
0000
0000
1000
0000
0000
0001
0000
0100
0010
0000
0000
0010
0000
0000
1000
0000
0000
0200
0000
0000
0000
0000
0000
,
0010
0000
0000
0310
0000
0000
0000
0000
0000
0000
0000
0000
0001
0000
0000
0001
0000
0000
1000
0000
0100
0010
0000
0000
,
0010
0001
0200
0000
0010
0310
0000
2000
,
3020
0000
0230
0302
0000
2003
3020
0000
,
0230
0302
0000
0003
1000
0010
0001
0010
,
0000
2000
3002
0000
0103
0010
1000
0100
,
1001
0001
0110
0100
0001
0010
0200
0000
,
1300
0000
0001
0100
0000
0000
0010
0000
0000
0100
0000
0000
1001
0000
0000
0001
0000
0000
0110
0000
0000
0100
0000
0000
,
0001
0000
0000
0010
0000
0000
0200
0000
0000
0000
0000
0000
0310
0000
0001
0100
0000
0000
0010
0000
0000
1000
0000
1000
,
0100
0010
0001
0200
0010
0310
1000
0100
,
0010
0002
1000
1003
0001
0100
1000
0100
,
0001
1000
0020
0000
0000
0200
0000
0330
,
2001
0000
3001
0010
0100
1100
0010
0010
,
0100
0100
0001
0010
1100
1000
0010
0200
,
0000
0302
2003
0000
3200
0320
0001
0031
,
1001
0100
0010
0001
0100
0110
1000
1000
,
0010
0010
1000
0100
0011
0001
0100
0020
,
0000
2030
3002
0000
0203
0320
1000
1030
,
1001
0000
0000
0001
0000
0000
0100
0000
0000
0101
0000
0000
0001
0000
0000
1000
0100
1000
0010
0000
0000
0100
0000
0000
,
0001
0000
0000
1000
0000
0000
0100
0000
0000
0010
0001
0010
0100
0000
0000
1000
0000
0000
0010
0000
0000
0110
0000
0000
,
0100
0000
0000
0001
0000
1000
0200
0000
0000
0010
0000
0000
0320
0000
0000
0032
0000
0000
1000
0000
0000
1003
0000
0000
,
0101
0000
0000
0001
0000
0000
1000
0000
0000
1100
0000
0000
0010
0000
0000
0001
0100
0001
1000
0000
0000
0100
0000
0000
,
0010
0000
0000
0100
0000
0000
1000
0000
0000
0010
0100
0010
1000
0000
0000
0001
0000
0000
0100
0000
0000
0101
0000
0000
,
0001
0000
0000
1000
0000
0010
0200
0000
0000
0001
0000
0000
0302
0000
0000
2003
0000
0000
0100
0000
0000
3100
0000
0000
,
0202
0000
0303
2002
0000
3003
2200
0000
,
0000
3300
0010
0001
0102
0000
0000
1000
,
1003
0000
2010
0000
0000
0001
3001
0100
,
0110
0000
1001
0000
0000
0000
1001
0000
0110
0000
0000
0010
0200
0000
0000
0000
,
0000
0301
0010
0100
1100
1001
0000
1001
,
1100
0010
0201
0010
0310
2000
0000
3000
,
2001
0000
0100
0200
0000
0000
0000
0000
,
0000
3300
0000
0000
;

//---------------dance-single - ----------------
#NOTES:
     dance-single:
     :
     Easy:
     2:
     0.127,0.123,0.096,0.064,0.000:
0000
0000
0000
0000
,
0000
0000
0000
0000
,
0000
0000
0000
0000
,
1001
0000
0000
0001
0000
0000
0100
0000
,
0010
1000
0000
0000
0001
0000
0000
0010
,
0000
0000
0001
0000
0100
0010
0000
0000
,
1000
0000
0000
0010
0000
0000
0100
0000
,
0000
0001
0000
0000
0010
0000
0000
0100
,
0000
0000
1000
0000
0000
0010
0000
0000
,
1001
0000
0000
1001
0000
0000
0010
0000
,
0000
0100
0000
0000
1001
0000
0000
1001
,
0000
0000
0100
0000
0000
0010
0000
0000
,
0001
1000
0000
1000
0000
0000
0100
0010
,
0000
0010
0000
0000
0001
0000
0000
0100
,
0000
0020
0000
0030
,
1001
0000
0001
1000
0000
0000
0100
0000
,
0000
1000
0000
0000
0001
0000
0000
0100
,
0000
0000
0110
0000
0000
0110
0000
0000
,
1001
0000
0001
1000
0000
0000
0100
0000
,
0000
0010
0000
0000
0001
0000
0000
0100
,
0000
0000
0010
0000
0100
0020
0000
0000
,
1030
0000
0001
0100
0000
0000
0001
0000
,
0000
1000
0000
0000
0001
0000
0000
0010
,
0000
0000
0100
0000
1000
0001
0000
0000
,
0110
0000
0000
0010
0000
0000
1000
0000
,
0000
0100
0000
0000
0010
0000
0000
0100
,
0000
0000
1000
0000
0001
1000
0000
0000
,
2001
0000
0000
3200
,
0000
0000
0320
0000
,
0000
0000
0032
0000
0000
0000
0000
1003
,
0100
0000
0010
0100
0000
0000
1000
0000
,
0000
0001
0100
0001
1000
0000
0000
0000
,
0100
0010
0001
0000
0000
0100
0000
0000
,
2002
0000
0000
0000
,
0000
3003
0000
0000
;

//---------------dance-double - ----------------
#NOTES:
     dance-double:
     :
     Easy:
     3:
     0.141,0.164,0.096,0.064,0.000: // measure 1
00000000
00000000
00000000
00000000
,  // measure 2
00000000
00000000
00000000
00000000
,  // measure 3
00000000
00000000
00000000
00000000
,  // measure 4
10010000
00000000
00000000
10000000
00000000
00000000
01000000
00000000
,  // measure 5
00100000
01000000
00000000
00000000
00100000
00000000
00000000
00001000
,  // measure 6
00000000
00000000
00010000
00000000
00001000
00010000
00000000
00000000
,  // measure 7
00000200
00000000
00000000
00000010
00000000
00000000
00000010
00000000
,  // measure 8
00000000
00000310
00000000
00000000
00001000
00000000
00000000
00000001
,  // measure 9
00000000
00000000
00000200
00000000
00000000
00000301
00000000
00000000
,  // measure 10
00000110
00000000
00000000
00000110
00000000
00000000
00001000
00000000
,  // measure 11
00000000
00010000
00000000
00000000
01100000
00000000
00000000
01100000
,  // measure 12
00000000
00000000
10000000
00000000
00000000
00010000
00000000
00000000
,  // measure 13
10000000
00100000
10000000
00100000
00000000
00000000
01000000
00001000
,  // measure 14
01000000
00001000
00000000
00000000
00010000
00000010
00010000
00000010
,  // measure 15
00000000
00000000
00000100
00000001
00000100
00000001
00000000
00000000
,  // measure 16
00001001
00000000
00000001
00001000
00000000
00000000
00000010
00000000
,  // measure 17
00000000
00010000
00000000
00000000
00001000
00000000
00000000
01000000
,  // measure 18
00000000
00000000
00100000
01000000
00000000
00100000
01000000
00000000
,  // measure 19
10010000
00000000
10000000
00010000
00000000
00000000
00100000
00000000
,  // measure 20
00000000
01000000
00000000
00000000
10000000
00000000
00000000
00100000
,  // measure 21
00000000
00000000
01000000
00000000
00001000
00010000
00000000
00000000
,  // measure 22
00011000
00000000
00010000
00001000
00000000
00000000
00010000
00000000
,  // measure 23
00000000
00000010
00000000
00000000
00000100
00000000
00000000
00000001
,  // measure 24
00000000
00000010
00000100
00000000
00000010
00000100
00000000
00000000
,  // measure 25
00011000
00000000
00010000
00001000
00000000
00000000
00100000
00000000
,  // measure 26
00000000
01000000
00000000
00000000
10000000
00000000
00000000
00100000
,  // measure 27
00000000
01000000
00010000
00000000
01000000
00010000
00000000
00000000
,  // measure 28
20010000
00000000
00000000
32000000
,  // measure 29
00000000
00000000
03200000
00000000
,  // measure 30
00000000
00000000
00302000
00000000
00000000
00000000
00000000
00010000
,  // measure 31
00013000
00000000
00000010
00000010
00000000
00000000
00000110
00000000
,  // measure 32
00000000
00000100
00000010
00000001
00000100
00000000
00000000
00000000
,  // measure 33
00000010
00010000
00000100
00000000
00000000
00010000
00000000
00000000
,  // measure 34
00022000
00000000
00000000
00000000
,  // measure 35
00000000
00033000
00000000
00000000
;

//---------------dance-double - ----------------
#NOTES:
     dance-double:
     :
     Medium:
     5:
     0.195,0.205,0.080,0.152,0.000: // measure 1
00000000
00000000
00000000
00000000
,  // measure 2
00000000
00000000
00000000
00000000
,  // measure 3
00000000
00000000
00000000
00000000
,  // measure 4
10000000
01000000
10000000
00100000
01000000
00100000
20000000
00000000
,  // measure 5
00010000
30010000
00000000
00000000
01000000
00001000
01000000
00001000
,  // measure 6
00010000
00001000
00020000
00000000
00000100
00030100
00000000
00000010
,  // measure 7
00000001
00000000
00000010
00000100
00000000
00010000
00001000
00000000
,  // measure 8
01000000
00100000
00000000
00000000
10000000
01000000
00100000
00010000
,  // measure 9
00000000
01000000
00002000
00000000
00010000
00013000
00000000
00000000
,  // measure 10
00000110
00000010
00000100
00000100
00000001
00000010
00000200
00000000
,  // measure 11
00010000
00010300
00000000
00000000
00011000
00001000
01000000
01000000
,  // measure 12
00100000
10000000
00002000
00000000
00100000
00103000
00000000
00001000
,  // measure 13
00010000
00000000
00000100
00000010
00000000
00000000
00000001
00000100
,  // measure 14
00000001
00010000
00000000
00001000
01000000
00100000
01000000
00002000
,  // measure 15
00000000
00020000
00000000
00033000
,  // measure 16
00020010
00000000
00000010
00030010
00000000
00000000
00000100
00000001
,  // measure 17
00000010
00000100
00000000
00000000
00010000
00001000
01000000
00100000
,  // measure 18
00000000
10000000
01000000
00000000
00100000
01000000
00000000
00000000
,  // measure 19
10020000
00000000
01000000
01030000
00000000
00001000
00010000
00000100
,  // measure 20
00000010
00000000
00000000
00000000
00000001
00000100
00000001
00000010
,  // measure 21
00000000
00000100
00010000
00000000
00001000
00010000
00000000
00000000
,  // measure 22
01002000
00000000
10000000
10003000
00000000
00000000
00100000
01000000
,  // measure 23
00001000
00010000
00000000
00000000
00000100
00000010
00000001
00000100
,  // measure 24
00000000
00000001
00010000
00000000
00001000
01000000
00000000
00000000
,  // measure 25
02100000
00000000
00010000
03010000
00000000
00000000
10000000
01000000
,  // measure 26
00100000
01000000
00000000
00000000
10000000
00100000
01000000
00001000
,  // measure 27
00000000
00010000
00001000
00000000
00000010
00000100
00000000
00000000
,  // measure 28
00001002
00000000
00000000
00000023
,  // measure 29
00000000
00000000
00000230
00000000
,  // measure 30
00000000
00000000
00020300
00000000
00000000
00000000
00000000
00031000
,  // measure 31
00011000
00000000
00000000
01100000
00000000
00000000
00200000
00000000
,  // measure 32
00000000
02300000
00000000
00000000
13000000
00000000
00000000
00000000
,  // measure 33
00100000
01000000
00010000
00001000
00000000
00000010
00000000
00000000
,  // measure 34
00000220
00000000
00000000
00000000
,  // measure 35
00000000
00000330
00000000
00000000
;

//---------------dance-double - ----------------
#NOTES:
     dance-double:
     :
     Hard:
     7:
     0.341,0.343,0.256,0.392,0.064: // measure 1
00000000
00000000
00000000
00000000
,  // measure 2
00000000
00000000
00000000
00000000
,  // measure 3
00000000
00000000
00000000
00000000
,  // measure 4
10000000
00000000
00000000
10000000
00000000
00000000
00100000
00000000
00100000
01000000
00000000
00000000
01000000
00000000
00000000
00010000
00000000
00000000
00002000
00000000
00000000
00000000
00000000
00000000
,  // measure 5
00010000
00000000
00000000
00013000
00000000
00000000
00000000
00000000
00000000
00000000
00000000
00000000
00100000
00000000
00000000
00100000
00000000
00000000
01000000
00000000
01000000
10000000
00000000
00000000
,  // measure 6
10000000
00100000
02000000
00000000
00001000
03001000
00000000
00020000
,  // measure 7
00030200
00000000
00002300
00003020
00000000
00000230
00000302
00000000
,  // measure 8
00000023
00000230
00000000
00000300
00001000
00010000
00100000
01000000
,  // measure 9
00000000
20000000
30020000
00000000
10030000
01000000
00100000
00010000
,  // measure 10
00011000
00001000
00000110
00000010
00000100
00000001
00000020
00000000
,  // measure 11
00000130
00000000
00001000
00010000
00000000
00000000
00100000
00000000
00000000
01000000
00000000
00000000
10010000
00000000
00000000
10000000
00000000
00000000
10100000
00000000
00000000
00100000
00000000
00000000
,  // measure 12
01000000
00000000
00000000
00010000
00000000
00000000
00002000
00000000
00000000
00000000
00000000
00000000
00003100
00000000
00000010
00000001
00000000
00000000
00000100
00000000
00000000
00000001
00000000
00000001
,  // measure 13
00001000
00000100
00010000
00002000
01000000
01003000
00100000
10000000
,  // measure 14
01000000
00200000
00001000
00301000
00010000
00000100
00000010
00000001
,  // measure 15
00000010
00000100
00002000
00000000
00000000
00020000
00000000
00033000
,  // measure 16
02100000
00000000
03100000
10000000
00100000
01100000
00001000
00001000
,  // measure 17
00010000
00010000
00000100
00000010
00001001
00001000
00000010
00020000
,  // measure 18
00000000
00032000
02003000
00000000
03200000
20300000
00010000
30010000
,  // measure 19
10010000
01000000
00100000
00010000
00001000
00000110
00000010
00000010
,  // measure 20
00000100
00000100
00000001
00000010
00010100
00010000
00001000
02000000
,  // measure 21
00000000
03002000
00023000
00000000
00032000
00203000
01000000
01300000
,  // measure 22
10010000
00000000
00000000
10000000
00000000
00000000
00100000
00000000
00000000
01100000
00000000
00000000
01000000
00000000
00000000
00001000
00010000
00001000
00010000
00000000
00000000
00000100
00000000
00000000
,  // measure 23
00000010
00000000
00000000
00000001
00000000
00000000
00000100
00000000
00000000
00000010
00000100
00000010
00000100
00000000
00000000
00000001
00000000
00000000
00000100
00000000
00000000
00000110
00000000
00000000
,  // measure 24
00000010
00000000
00000000
00010000
00000000
00001000
00200000
00000000
00000000
01000000
00000000
00000000
02300000
00000000
00000000
23000000
00000000
00000000
00010000
00000000
00000000
30010000
00000000
00000000
,  // measure 25
10010000
00000000
00000000
01000000
00000000
00000000
00100000
00000000
00000000
00011000
00000000
00000000
00001000
00000000
00000000
00010000
00000010
00010000
00000010
00000000
00000000
00000100
00000000
00000000
,  // measure 26
00000001
00000000
00000000
00000100
00000000
00000000
00000001
00000000
00000000
00000010
00000100
00000010
00000100
00000000
00000000
00010000
00000000
00000000
00001000
00000000
00000000
01100000
00000000
00000000
,  // measure 27
00100000
00000000
00000000
01000000
00000000
10000000
00020000
00000000
00000000
00100000
00000000
00000000
00230000
00000000
00000000
02300000
00000000
00000000
10000000
00000000
00000000
13000000
00000000
00000000
,  // measure 28
02002000
00000000
03003000
00022000
00000000
00033000
00020020
00000000
,  // measure 29
00000000
00030030
00000100
00000001
00020001
00000000
00000000
00001000
,  // measure 30
00031000
00000000
02100000
00000000
00000000
10000000
13000000
00010000
,  // measure 31
10010000
00000000
01100000
00000000
00000000
00000000
01100000
00000000
10010000
00000000
00000000
00100000
02000000
00000000
00000000
00000000
,  // measure 32
00000000
03001000
00010000
00000100
00000110
00000101
00000000
00010010
,  // measure 33
00011000
01000000
01200000
10000000
10300000
20020000
00000000
30030000
,  // measure 34
02100000
00000000
00001000
00002000
00000000
00000000
00000000
00000000
,  // measure 35
00000000
03003000
00000000
00000000
;
