#TITLE:SEITEN NO TERIYAKI;
#SUBTITLE:;
#ARTIST:Kobaryo;
#TITLETRANSLIT:;
#SUBTITLETRANSLIT:;
#ARTISTTRANSLIT:;
#CREDIT:DigiMindAxel;
#BANNER:SEITEN NO TERIYAKI.png;
#BACKGROUND:SEITEN NO TERIYAKI-bg.png;
#LYRICSPATH:;
#CDTITLE:REFLEC BEAT.png;
#MUSIC:SEITEN NO TERIYAKI.ogg;
#METERTYPE:DDR X;
#OFFSET:-8.791;
#SAMPLESTART:9.688;
#SAMPLELENGTH:12.000;
#SELECTABLE:YES;
#BPMS:0.000=273.000,68.000=136.500,84.000=273.000,145.000=136.500,173.000=273.000,213.000=136.500,225.000=273.000,297.000=136.500,309.000=273.000;
#STOPS:86.000=0.220
,89.000=0.220
,92.000=0.220
,355.000=0.220
,362.000=0.220
;
#BGCHANGES:;

//---------------dance-single - ----------------
#NOTES:
     dance-single:
     :
     Easy:
     6:
     0.259,0.394,0.127,0.209,0.000:
2000
0000
0000
0000
,
3001
0000
1000
0000
,
0001
1000
0001
0000
,
0100
0000
0001
0000
,
1000
0100
1000
0000
,
0001
0000
1000
0000
,
0010
1000
0010
0000
,
0100
0000
0001
0000
,
1001
0000
0000
0000
,
1000
0000
0010
0000
,
0100
0010
0100
0000
,
0001
0000
1000
0000
,
0100
1000
0100
1000
,
0001
0000
0100
0000
,
0010
0100
0010
0000
,
1000
0000
0001
0000
,
1001
0000
0000
0000
,
0200
0000
0320
0000
,
0130
0000
0110
0000
,
0020
0000
0230
0000
,
0310
0000
0110
0000
,
2000
0000
0000
3002
,
0000
0000
2003
0000
,
0000
3002
0000
0000
,
0000
1003
0000
0000
,
0000
1001
0000
0000
,
0000
1001
0000
0000
,
0000
1001
0000
0000
,
0000
0002
0000
0000
,
0000
0000
0000
0000
,
0000
0000
0000
0000
,
0000
0000
0000
0000
,
0003
0200
0000
0000
,
0000
0000
0000
0000
,
0000
0300
0000
0000
,
0000
0000
0000
0000
,
0000
0001
0000
1000
,
0000
0100
0000
0010
,
0000
0001
0000
1000
,
0000
0000
0010
0000
0000
0000
0000
0110
,
0000
0000
0100
0000
,
0001
0000
1000
0000
,
0100
0000
0010
0000
,
0001
0200
0000
0000
,
0000
0000
0000
0000
,
0000
0310
0000
0000
,
0000
0000
0000
0000
,
0000
0010
0000
0000
,
0000
0000
0000
0000
,
0000
0010
0000
0000
,
0000
0000
0000
0000
,
0000
0010
0000
0000
,
0000
0000
0000
0000
,
0000
2000
0000
0000
,
0000
3002
0000
0203
,
0000
0301
0000
1000
,
0000
0100
0000
0000
,
0000
0000
0000
0000
,
0000
1000
0000
0001
,
0000
0100
0001
0100
,
0000
0001
0000
1000
,
0000
0100
1000
0100
,
0000
0010
0000
0001
,
0000
0100
0010
0100
,
0000
0001
0000
1000
,
0100
0010
0001
0100
,
0000
0010
0100
0010
,
0000
1000
0010
1000
,
0000
0001
1000
0001
,
0000
0010
0001
0010
,
0000
0002
0000
0000
,
0000
2003
0000
0000
,
0000
3020
0000
0230
,
0000
0310
0000
0000
,
0000
0220
0000
0000
,
0000
0330
0000
0000
,
0000
2002
0000
0000
,
0000
0000
0000
0000
,
0000
3003
0000
0000
,
0000
0001
1000
0001
,
0000
1000
0100
1000
,
0000
0010
0100
0010
,
0000
0100
0001
0100
,
0000
0001
1000
0001
,
0000
1000
0100
1000
,
0000
0001
1000
0001
,
0000
0100
0001
0100
,
0000
0001
1000
0001
,
1000
0001
1000
0010
,
0100
0001
0100
0001
,
0100
0001
1000
1001
,
0000
0000
0000
0000
,
0000
0000
0000
0110
,
0000
0000
0000
0000
,
0000
0000
0000
0110
,
0000
0000
0000
0000
,
0000
0000
1001
0000
;

//---------------dance-single - ----------------
#NOTES:
     dance-single:
     :
     Medium:
     10:
     0.461,0.700,0.245,0.354,0.005:
1000
0001
1000
0001
,
1001
1000
0100
0010
,
0001
0100
0010
0100
,
0001
0010
0100
1000
,
0100
0010
0001
1000
,
0010
0100
0001
0100
,
0010
1000
0100
0010
,
0100
1000
0010
0100
,
0110
0000
0000
0010
0000
0000
0010
0000
,
1000
0100
0010
0100
,
1000
0001
0100
0001
,
1000
0100
0010
0001
,
0010
0100
1000
0100
,
0010
0001
0100
0001
,
0010
0100
1000
0001
,
0100
0001
0010
0100
,
0110
0000
0000
0100
0000
0000
0100
0000
,
0002
0103
0020
0130
,
2002
0000
0000
3003
2002
0000
0000
3003
,
2000
3100
0020
0130
,
2002
0000
0000
3003
2002
0000
0000
3003
,
0101
0000
0000
0100
0000
0000
1010
0000
,
0000
0010
0000
0000
0110
0000
0000
0100
,
0000
0000
0110
0000
0000
0010
0000
0000
,
0000
0000
1000
0000
0000
0100
0000
0000
,
0010
0000
0100
0000
0000
1000
0000
0000
,
0001
0000
0100
0000
0000
0010
0000
0000
,
1000
0100
0010
0001
,
0010
0002
0000
2003
,
0000
3002
0000
2003
,
0000
3002
0000
2003
,
0000
3002
0000
2003
,
0000
3001
0010
0100
,
1000
0001
0010
0100
,
1000
0002
0000
0000
,
0000
0000
0000
0000
,
0003
0110
0100
0001
,
0010
0100
1000
0001
,
1000
0100
1000
0010
,
0100
0000
0001
0000
1000
0000
0000
1001
,
0000
1001
0000
0000
0200
0000
0000
0000
0310
0000
0000
0000
1000
0000
0010
0000
,
1000
0000
0001
0000
1000
0000
0100
1000
,
0100
0000
0010
0000
0001
0000
0100
0010
,
0100
0001
2000
0000
0000
0000
0000
0000
,
0000
0000
0000
0000
,
3000
2002
0000
0000
,
0000
3003
0000
0000
,
0000
0202
0000
0000
,
0000
0303
0000
0000
,
0000
0220
0000
0000
,
0000
0330
0000
0000
,
0000
2200
0000
0000
,
0000
3300
0000
0000
,
0000
0020
0000
0000
,
0000
0230
0000
0302
,
0000
1003
0100
0010
,
0001
2000
0000
0000
,
0000
3001
1000
0001
,
1000
0001
0100
0001
,
0100
0001
0100
0001
,
1000
0001
1000
0001
,
1000
0001
1000
0001
,
1000
0100
1000
0100
,
1000
0100
1000
0100
,
1000
0010
0100
0010
,
0100
0010
0100
0010
,
0100
0001
1000
0001
,
1000
0001
1000
0001
,
1000
0010
1000
0010
,
1000
0010
0100
0010
,
0100
0000
0001
0000
0000
1000
0000
0000
,
0100
0000
0000
0010
0000
0000
0001
0000
,
1000
1001
0000
1001
,
0000
1000
0001
1000
,
0001
0000
1001
0000
0000
0100
0000
0000
,
1001
0000
0000
1000
0001
0000
0010
0000
,
0100
0220
0000
0000
,
0000
0000
0000
0000
,
0330
1000
0001
1000
,
0001
1000
0100
1000
,
0010
0100
0001
0010
,
0100
1000
0001
0100
,
0001
1000
0100
0010
,
0001
1000
0010
0100
,
0010
1000
0100
0010
,
0001
0100
0010
0100
,
0001
0010
0100
1000
,
0010
0100
0001
1000
,
0100
1000
0001
0100
,
0001
1000
0100
1000
,
0001
0010
0100
2002
,
0000
0000
0000
0000
,
0000
0000
3003
0101
,
0000
0000
0100
0000
0000
0001
0000
0000
,
1000
0000
0000
0110
,
0000
0000
0000
0000
,
0000
0000
1001
0000
;

//---------------dance-single - ----------------
#NOTES:
     dance-single:
     :
     Hard:
     13:
     0.724,0.875,0.535,0.335,0.127:
1000
1000
1000
1000
,
1001
0000
0101
0000
0100
0010
0100
0002
,
0000
0000
1003
0100
1000
0000
1100
0000
,
0010
0001
0100
0010
0000
0100
0000
0000
,
0001
1000
0001
0000
1000
0001
1000
0000
,
1001
0000
1010
0000
0010
0100
0010
0200
,
0000
0000
0301
0100
0001
0000
1000
0000
,
0001
0000
0100
0010
0000
0100
0010
0000
,
1000
0001
0000
0001
0000
0001
1000
0000
,
1100
0000
0110
0000
0010
0001
0010
0002
,
0000
0000
0103
0010
0100
0000
0010
0000
,
1000
0100
1000
0010
0000
0100
0000
0000
,
0001
1000
0001
0000
1000
0001
1000
0000
,
1010
0000
0110
0000
0100
1000
0100
2000
,
0000
0000
3010
0100
0010
0000
0100
0000
,
0001
0000
0010
0100
0000
0010
0100
0000
,
1000
0001
0000
0001
0000
0001
1000
0000
,
0010
0010
0100
0000
0010
0010
1000
0000
,
1001
0000
1000
0001
0000
1000
0001
0000
0110
0000
0010
0100
0000
0010
0100
0000
,
1000
1000
0100
0000
0010
0010
0001
0000
,
1001
0000
1000
0001
0000
1000
0001
0000
0110
0000
0100
0010
0000
0100
0010
0000
,
1000
0100
0010
0001
1000
0000
0001
0010
,
0100
1000
0001
0000
1000
0100
0010
0001
,
0100
0000
0001
0010
0001
0010
0100
1000
,
0010
0000
0100
0001
0010
0100
1000
0000
,
1001
0000
0010
0100
1000
0001
0100
0000
,
0110
0000
1000
0100
0010
0001
0100
0000
,
0110
0000
1000
0001
1000
0000
0001
1000
,
0001
0010
0100
0010
,
0100
1000
0010
1000
,
0010
0100
0001
0100
,
0001
1000
0100
1000
,
0100
0000
0010
0001
0000
0100
0010
0000
,
1000
0001
1000
0000
0001
1000
0001
1000
,
0001
0220
0000
0000
,
0000
0000
0000
0000
,
0330
0000
0000
0000
1020
0000
0000
0000
0130
0000
0001
0100
0000
0002
0000
0000
,
1003
0000
0000
0000
0020
0000
0000
0000
0130
0000
0001
0010
0000
0002
0000
0000
,
1003
0000
0000
0000
0002
0000
0000
0000
0013
0000
0100
1000
0000
0020
0000
0000
,
0130
0000
0002
0000
1003
0001
1000
1100
,
0000
0011
0000
0000
2001
0000
0000
0000
3001
0000
0100
0001
0000
0100
0000
0001
,
1000
0000
0000
0000
0100
0000
0010
0000
1001
0000
0000
0000
0001
0100
0000
0001
,
1000
1001
0000
0000
0110
0100
0002
1000
,
1003
0110
0102
0000
0000
0000
0000
0000
,
0000
1003
1000
1000
,
1000
2002
0000
0000
,
0000
3003
0000
0000
,
0001
1000
0002
0000
0000
0000
0000
0000
,
0000
0000
0003
0000
0000
0000
1000
0001
,
1000
0001
2000
0000
0000
0000
0000
0000
,
0000
3001
0000
0000
0000
0000
0000
0000
,
0100
0010
0200
0000
0000
0000
0010
0000
,
0000
0010
0000
0000
0310
0000
0100
0000
,
0010
0000
0000
0000
1000
0000
1000
0000
0001
0100
0000
0001
0000
0100
0000
0000
,
0000
0000
0001
1000
0002
0000
0000
0000
0100
0000
0000
0100
0000
0203
0000
0000
,
0000
0000
0010
0000
0310
0000
0000
1000
0000
0000
0100
0000
0000
0010
0000
0000
,
0001
1000
1002
0000
0000
0000
0000
0000
,
0000
1003
1000
1000
,
1000
0000
1001
0000
1001
0000
0001
0100
,
0000
0001
0000
1000
0100
0000
0010
0001
,
0010
0000
0110
0000
0100
0000
0001
1000
,
0000
0100
0000
1000
0100
0000
0010
0100
,
0010
0000
1001
0000
0001
0000
0100
0001
,
0000
1001
0000
0000
1000
0010
1000
0010
,
0100
0010
0100
0000
0001
1000
0100
1000
,
0100
0010
0000
0000
0001
0000
0100
0000
,
0001
0000
1001
0000
1001
0000
0010
0100
,
0000
0001
0000
0100
0010
0000
1000
0001
,
1000
0000
1010
0000
1010
0000
0100
0001
,
0000
1000
0000
0100
1000
0000
0010
0100
,
0010
0100
0002
0000
0000
0203
0000
0000
,
0302
0000
0000
2003
0000
0000
3100
0000
,
0010
0011
0000
0011
,
0000
1001
1001
1001
,
1001
0000
1000
0100
1000
0000
0001
0100
,
0001
0000
0010
0100
1000
0100
0010
0001
,
0100
0010
2002
0000
0000
0000
0000
0000
,
0000
0000
0000
0000
,
3003
1000
1000
1000
,
1000
0000
1001
0000
0011
0000
0100
1000
,
0100
2000
0000
0000
3010
0100
0001
0000
,
0001
0000
0110
0000
0101
0000
0010
1000
,
0010
0200
0000
0000
0301
1000
0100
0000
,
0010
0000
0101
0000
0110
0000
0010
0001
,
0100
0020
0000
0000
1030
0100
0010
0000
,
0001
0000
0100
0001
0100
0001
0010
0100
,
0010
0100
1000
0001
1000
0001
0100
0001
,
0100
0000
1001
0000
1100
0000
0100
0010
,
0100
0010
1000
0100
0010
0001
1000
0000
,
1100
0000
1001
0000
0001
0100
0001
0100
,
0001
0010
0100
0010
0001
0000
1001
0000
,
1000
0000
0001
0000
1000
0020
0000
0000
,
0130
0001
1000
1001
,
0001
0000
1010
0000
0010
0200
0000
0000
,
0310
0010
0010
2002
,
0000
0000
0000
0000
,
0000
3003
0110
0000
;

//---------------dance-single - ----------------
#NOTES:
     dance-single:
     :
     Challenge:
     16:
     0.948,1.000,0.562,0.218,0.326: // measure 1
0100
0000
0100
0000
0100
0010
0100
0010
,  // measure 2
1001
0000
1001
0000
0001
0100
0010
0100
,  // measure 3
0001
1000
0100
0001
0100
1000
0001
0000
,  // measure 4
0010
0100
1000
0001
0000
0101
0000
0100
,  // measure 5
0001
0010
1000
0010
0001
0010
0100
0000
,  // measure 6
1001
0000
1001
0000
1000
0010
0100
0010
,  // measure 7
1000
0100
0001
0100
1000
0010
0100
0000
,  // measure 8
0001
0010
0100
2000
0000
3001
0010
0001
,  // measure 9
0100
0110
0000
0110
0000
0010
0100
0001
,  // measure 10
1001
0000
1001
0000
1000
0001
0010
0001
,  // measure 11
1000
0010
0001
0010
1000
0100
0010
0000
,  // measure 12
0100
0001
1000
0100
0000
0110
0000
0010
,  // measure 13
0001
0100
1000
0100
0001
0010
0100
0000
,  // measure 14
1001
0000
1001
0000
0001
1000
0100
1000
,  // measure 15
0001
0100
1000
0100
0001
0010
0100
0000
,  // measure 16
0010
0001
1000
0100
0010
0001
0100
0010
,  // measure 17
0100
0101
0000
0101
0000
0100
0001
1000
,  // measure 18
0100
0100
1010
0000
0100
0100
0011
0000
,  // measure 19
1001
0000
1000
0010
0000
0010
1000
0000
0110
0000
0001
0010
0000
0010
0001
0000
,  // measure 20
0100
0000
0010
0100
0010
0000
0100
0000
0001
0000
1000
0100
1000
0000
0001
0000
,  // measure 21
1001
0000
0100
0010
0000
0100
0010
0000
0101
0000
0010
1000
0000
0010
1000
0010
,  // measure 22
1000
0100
0010
0001
0101
0000
0010
1000
,  // measure 23
0100
0010
0011
0000
0001
0100
0010
0100
,  // measure 24
0101
0000
0010
0100
0001
0010
0100
1000
,  // measure 25
1001
0000
0000
0000
0100
0000
0010
0000
1000
0000
0100
0000
0010
0000
0001
0100
,  // measure 26
0001
0000
0000
0000
1000
0000
0100
0000
0010
0000
0001
0000
0100
0000
0010
0100
,  // measure 27
0010
0000
0000
0000
0100
0000
0001
0000
0010
0000
0100
0000
1000
0000
0001
0100
,  // measure 28
0001
0000
0100
0001
0010
0100
1000
0100
,  // measure 29
0010
0001
0100
0010
0100
0000
0100
0010
,  // measure 30
0100
0000
0001
1000
0001
0000
0001
1000
,  // measure 31
0001
0000
1000
0010
1000
0000
1000
0010
,  // measure 32
1000
0000
0100
0010
0100
0000
0100
0010
,  // measure 33
0100
0000
1000
0010
0100
0001
1000
0001
,  // measure 34
0010
0000
0100
1000
0001
0010
0100
1000
,  // measure 35
0001
2002
0000
0000
,  // measure 36
0000
0000
0000
0000
,  // measure 37
3003
0000
0000
0000
0120
0000
0000
0000
0130
0000
0001
1000
0000
0001
0000
1000
,  // measure 38
0001
0000
0010
0000
0200
0000
0000
0000
1300
0000
0010
0100
0000
0010
0000
0100
,  // measure 39
0010
0000
1000
0001
2000
0000
0000
0000
3100
0000
0010
0001
0000
0100
0000
0001
,  // measure 40
0010
0100
2000
0000
3010
0100
0001
0101
,  // measure 41
0000
0110
0000
0000
1020
0000
0000
0000
0130
0000
0001
1000
0000
0100
0000
1000
,  // measure 42
0010
0000
0110
0000
0100
0010
0001
0010
0100
0000
1000
0000
0001
0100
0000
0010
,  // measure 43
0100
0000
0101
0000
1000
0000
0100
0000
0110
0000
0010
0000
0001
0100
0010
0000
,  // measure 44
1000
1001
1002
0000
0000
0000
0000
0000
,  // measure 45
0000
0103
0100
0100
,  // measure 46
0100
0000
0110
0000
0010
0000
1000
0001
,  // measure 47
0000
1000
0000
0100
0000
0000
0000
0000
,  // measure 48
0010
0001
0010
0000
0001
0000
0000
0000
0001
0000
0000
0000
0100
0000
0010
0000
,  // measure 49
0000
1000
0000
0001
0000
0000
1000
0001
,  // measure 50
1000
0001
1000
0000
0001
0000
0000
0000
0001
0000
0000
0000
0100
0000
0001
0000
,  // measure 51
0000
2001
0000
0000
0000
3001
0000
0100
,  // measure 52
0010
0100
0010
0000
1000
0000
0000
0000
0000
0000
0001
0000
1000
0000
0010
0000
,  // measure 53
0100
0001
0000
1000
0001
1000
0001
1000
,  // measure 54
0001
0000
0010
0000
0100
0000
0100
0000
1000
0001
0000
0100
0000
0100
0000
0000
,  // measure 55
0000
0000
0010
0100
0001
0000
0001
0000
1000
0100
0000
0120
0000
2030
0000
0000
,  // measure 56
0000
0000
3001
0000
0100
0001
1000
0100
0000
0000
1000
0001
0000
0001
0100
0000
,  // measure 57
0010
0010
2001
0000
0000
0000
0000
0000
,  // measure 58
0000
3100
0100
0100
,  // measure 59
0100
0000
1001
0000
1001
0000
0001
0100
,  // measure 60
1000
0100
0001
0010
0100
1000
0001
0100
,  // measure 61
0001
0100
0001
0000
1000
0000
0000
0000
1001
0000
0000
0000
1000
0000
0010
0000
,  // measure 62
0001
0010
1000
0100
0010
0001
0100
0010
,  // measure 63
1000
0010
1000
0000
0001
0000
0000
0000
1001
0000
0000
0000
0100
0000
0010
0000
,  // measure 64
0001
2001
0000
0000
3001
0010
1000
0010
,  // measure 65
0001
1000
0001
0000
1000
0000
0000
0000
0100
0000
0010
0000
0001
0000
0100
0000
,  // measure 66
1000
0100
0000
0001
0010
0001
0100
0010
,  // measure 67
1000
0001
1000
0000
0001
0000
0000
0000
1001
0000
0000
0000
1000
0000
0010
0000
,  // measure 68
0001
0010
1000
0100
0010
0001
1000
0001
,  // measure 69
0100
0001
0100
0000
0010
0000
0000
0000
0110
0000
0000
0000
1000
0000
0010
0000
,  // measure 70
0001
0010
1000
0001
0010
0001
0100
0001
,  // measure 71
1000
0001
0010
0100
1000
0010
0000
0010
,  // measure 72
0100
0000
0001
1000
0000
1000
0100
0010
,  // measure 73
0100
2020
3030
0202
,  // measure 74
0303
0000
1001
0000
1001
0000
1001
0010
,  // measure 75
0100
0000
1000
0000
0002
0000
0100
0000
0203
0000
0010
0000
0310
1000
0100
0000
,  // measure 76
0010
0000
0010
0000
0001
0000
0100
0000
1000
0000
0100
0000
0001
1000
0010
0000
,  // measure 77
0010
0100
2002
0000
0000
0000
0000
0000
,  // measure 78
0000
0000
0000
0000
,  // measure 79
3003
0000
0100
0000
0100
0000
0100
0010
,  // measure 80
0100
0010
1001
0000
1001
0000
0001
0010
,  // measure 81
1000
0000
0010
0000
0001
0000
1000
0000
0001
0100
0001
0000
0100
0000
0010
0100
,  // measure 82
0010
1000
1001
0000
1001
0000
1000
0010
,  // measure 83
0001
0000
0010
0000
1000
0000
0001
0000
0100
0001
0100
0000
0001
0000
1000
0100
,  // measure 84
1000
0010
0110
0000
0110
0000
0001
0010
,  // measure 85
1000
0000
0010
0000
0001
0000
1000
0000
0100
1000
0100
0000
0010
0000
0001
0100
,  // measure 86
0001
1000
0010
0100
0010
1000
0001
0010
,  // measure 87
1000
0010
0001
0010
0100
0010
0001
1000
,  // measure 88
0010
0000
1000
0000
0001
0010
0001
0010
0001
0000
1000
0000
0100
0000
0001
0000
,  // measure 89
1000
0000
0010
0000
0001
0000
1000
0000
0010
0100
0010
0100
0010
0000
0000
0000
,  // measure 90
1000
0010
1000
0010
1000
0000
0001
0000
0100
0000
1000
0000
0001
0000
0010
0000
,  // measure 91
1000
0000
0001
0000
0100
0001
0100
0001
0100
0000
0000
0000
1001
0000
0000
0000
,  // measure 92
0001
0000
0000
0000
0100
0000
0001
0000
0010
0000
0100
0000
0000
0000
1000
0001
,  // measure 93
1000
0001
1000
0010
0100
0000
1001
0000
,  // measure 94
0001
0000
0110
0010
0100
1000
0000
0000
,  // measure 95
0001
0000
0100
0000
0001
1000
0001
1000
0001
0000
0000
0000
1001
0000
0000
0000
,  // measure 96
1000
0000
0000
0000
0100
0000
0010
0000
0001
0000
0100
0000
0000
0000
0010
1000
,  // measure 97
0010
1000
0001
0000
2002
0000
0000
0000
,  // measure 98
3003
0000
0000
0000
;

//---------------dance-double - ----------------
#NOTES:
     dance-double:
     :
     Easy:
     6:
     0.288,0.394,0.163,0.154,0.000:
00000000
00000000
00000000
00000000
,
10000000
00010000
10000000
00000000
,
00010000
10000000
00010000
00000000
,
01000000
00100000
01000000
00000000
,
00100000
01000000
00100000
00000000
,
10000000
01000000
10000000
00000000
,
00010000
00100000
00010000
00000000
,
01000000
00100000
01000000
00000000
,
10010000
00000000
00000000
00000000
,
00001000
00010000
00001000
00000000
,
00010000
00001000
00010000
00000000
,
00000001
00000100
00000001
00000000
,
00001000
00000010
00001000
00000010
,
00010000
00001000
00010000
00000000
,
00001000
00010000
00001000
00000000
,
01000000
00100000
01000000
00010000
,
10010000
00000000
00000000
00000000
,
02000000
00000000
03200000
00000000
,
01300000
00000000
01100000
00000000
,
00002000
00000000
00023000
00000000
,
00031000
00000000
00011000
00000000
,
00001001
00000000
00000000
00000110
,
00000000
00000000
00001001
00000000
,
00000000
00000110
00000000
00000000
,
00000000
00000010
00000100
00000010
,
00000000
00001000
00000001
00001000
,
00000000
00000001
00000010
00000001
,
00000000
00001000
00000010
00001000
,
00000100
00020000
00000000
00000000
,
00000000
00000000
00000000
00000000
,
00000000
00000000
00000000
00000000
,
00000000
00000000
00000000
00000000
,
00030000
00002000
00000000
00000000
,
00000000
00000000
00000000
00000000
,
00000000
00003000
00000000
00000000
,
00000000
00000000
00000000
00000000
,
00000000
00100000
00000000
01000000
,
00000000
10000000
00000000
01000000
,
00000000
00100000
00000000
00010000
,
00000000
00000000
01000000
00000000
00000000
00000000
00000000
01100000
,
00000000
00000000
01000000
00000000
,
00010000
00000000
10000000
00000000
,
01000000
00000000
00100000
00000000
,
00001000
00020000
00000000
00000000
,
00000000
00000000
00000000
00000000
,
00000000
00031000
00000000
00000000
,
00000000
00000000
00000000
00000000
,
00000000
00011000
00000000
00000000
,
00000000
00000000
00000000
00000000
,
00000000
00000110
00000000
00000000
,
00000000
00000000
00000000
00000000
,
00000000
00000110
00000000
00000000
,
00000000
00000000
00000000
00000000
,
00000000
00000002
00000000
00000000
,
00000000
00000023
00000000
00000230
,
00000000
00010300
00000000
00001000
,
00000000
02000000
00000000
00000000
,
00000000
00000000
00000000
03000000
,
00000000
00010000
00000000
10000000
,
00000000
01000000
00100000
01000000
,
00000000
10000000
00000000
00010000
,
00000000
00100000
01000000
00100000
,
00000000
00001000
00000000
00010000
,
00000000
00000010
00000100
00000010
,
00000000
00001000
00000000
00000001
,
00000010
00000100
00010000
00001000
,
00000000
00100000
01000000
00100000
,
00000000
00010000
01000000
00010000
,
00000000
10000000
01000000
00100000
,
00001000
00010000
00000010
00010000
,
00000000
00000002
00000000
00000000
,
00000000
00000203
00000000
00000000
,
00000000
00000302
00000000
00002003
,
00000000
00003001
00000000
00000000
,
00000000
00000110
00000000
00000100
,
00000000
00000010
00000000
00010000
,
00000000
00022000
00000000
00000000
,
00000000
00000000
00000000
00000000
,
00000000
00033000
00000000
00000000
,
00000000
00001000
01000000
00001000
,
00000000
10000000
01000000
10000000
,
00000000
00100000
01000000
00100000
,
01000000
00001000
00010000
00001000
,
00000000
00010000
00000010
00010000
,
00000010
00000100
00000010
00000000
,
00000100
00000001
00000100
00000001
,
00000010
00000100
00001000
00000100
,
00000000
00010000
00001000
00010000
,
00001000
00100000
01000000
10000000
,
01000000
00100000
01000000
00100000
,
00001000
00010000
00000010
00000110
,
00000000
00000000
00000000
00000000
,
00000000
00000000
00000000
00001001
,
00000000
00000000
00000000
00000000
,
00000000
00000000
00000000
00000110
,
00000000
00000000
00000000
00000000
,
00000000
00000000
00011000
00000000
;

//---------------dance-double - ----------------
#NOTES:
     dance-double:
     :
     Medium:
     10:
     0.488,0.700,0.435,0.363,0.005:
20000000
00000000
00000000
30000000
,
10010000
00010000
10000000
01000000
,
00100000
00010000
01000000
00001000
,
00010000
00000100
00000010
00000100
,
00010001
00000001
00000010
00000100
,
00000010
00000001
00000100
00000010
,
00011000
00010000
00001000
01000000
,
00100000
01000000
00001000
10000000
,
10100000
00000000
00000000
10100000
00000000
00000000
00100000
01000000
,
00100000
10000000
01000000
00100000
,
01000000
10000000
00010000
00100000
,
00011000
00001000
00010000
00000100
,
00000010
00000001
00001000
00000100
,
00001001
00000001
00000010
00000100
,
00010000
00001000
01000000
00100000
,
01000000
00001000
00010000
01000000
,
01100000
00000000
00000000
01100000
00000000
00000000
10000000
00010000
,
10000000
11000000
00100000
00110000
,
00022000
00000000
00000000
00033000
00020200
00000000
00000000
00030300
,
00000010
00000011
00000100
00000110
,
00022000
00000000
00000000
00033000
02002000
00000000
00000000
03003000
,
01100000
00000000
00000000
00100000
00000000
00000000
11000000
00000000
,
00000000
10000000
00000000
00000000
01010000
00000000
00000000
01000000
,
00000000
00000000
01001000
00000000
00000000
00001000
00000000
00000000
,
00000000
00000000
00011000
00000000
00000000
00010000
00000000
00000000
,
00000100
00000000
00000110
00000000
00000000
00000010
00000000
00000000
,
00000001
00000000
00000101
00000000
00000000
00000100
00000000
00000000
,
00000010
00010010
00010000
00001000
,
00100000
02000000
00000000
23000000
,
00000000
32000000
00000000
23000000
,
00000000
30020000
00000000
02030000
,
00000000
03020000
00000000
02030000
,
00000000
03010000
00100000
01000000
,
10000000
01000000
00100000
00001000
,
00010000
00022000
00000000
00000000
,
00000000
00000000
00000000
00000000
,
00033000
00000000
00000110
00000000
00000100
00000000
00000001
00000100
,
00000001
00000000
00000110
00000000
00000010
00000000
00010000
00000100
,
00010000
00000000
00011000
00000000
00001000
00000000
01000000
00100000
,
01000000
00000000
10010000
00000000
10000000
00000000
00000000
01100000
,
00000000
01100000
00000000
00000000
02000000
00000000
00000000
00000000
03010000
00000000
00000000
00000000
10000000
00000000
01000000
00000000
,
00100000
00000000
00001000
00000000
00010000
00000000
00000100
00000010
,
00000001
00000000
00000100
00000000
00000010
00000000
00010000
00001000
,
00010000
00001000
02000000
00000000
00000000
00000000
00000000
00000000
,
00000000
00000000
00000000
00000000
,
03000000
02200000
00000000
00000000
,
00000000
03300000
00000000
00000000
,
00000000
02020000
00000000
00000000
,
00000000
03030000
00000000
00000000
,
00000000
20020000
00000000
00000000
,
00000000
30030000
00000000
00000000
,
00000000
22000000
00000000
00000000
,
00000000
33000000
00000000
00000000
,
00000000
20000000
00000000
00000000
,
00000000
30020000
00000000
00230000
,
00000000
00000000
01300000
10000000
01000000
00000000
10000000
01000000
,
00100000
10002000
00000000
00000000
,
00000000
00023000
00000000
00000000
,
00000000
00030100
00000010
00000100
,
00000010
00000001
00000100
00000001
,
00000100
00000010
00010000
00000010
,
00010000
00001000
01000000
00001000
,
01000000
00010000
10000000
00010000
,
10000000
01000000
00100000
01000000
,
00100000
00001000
00010000
00001000
,
00010000
00000100
00000010
00000100
,
00000010
00000001
00000100
00000001
,
00000100
00000001
00010000
00000001
,
00010000
00001000
01000000
00001000
,
01000000
00100000
01000000
00100000
,
01000000
00000000
00010000
00000000
00000000
00100000
00000000
00000000
,
00001000
00000000
00000000
00010000
00000000
00000000
00000100
00000000
,
00000010
00001001
00000000
00001001
,
00000000
00001001
00000001
00001000
,
00000001
00000000
00001001
00000000
00000000
00001000
00000000
00000000
,
00001100
00000000
00000000
00010000
00001000
00010000
00001000
01000000
,
00100000
20020000
00000000
00000000
,
00000000
00000000
00000000
00000000
,
30030000
00000000
00000000
00000000
,
00000000
00010000
00100000
01000000
,
10000000
01000000
00100000
00001000
,
00010000
00000100
00000010
00000001
,
00000010
00000100
00010000
00001000
,
00100000
01000000
00100000
00001000
,
10000000
00100000
10000000
00001000
,
00010000
00000100
00000010
00000100
,
00010000
00001000
01000000
00100000
,
01000000
00001000
00010000
00000100
,
00000010
00000100
00010000
00001000
,
00100000
01000000
10000000
01000000
,
00100000
00001000
00010000
00000220
,
00000000
00000000
00000000
00000000
,
00000000
00000000
00000330
00000101
,
00000000
00000000
00000100
00000000
00000000
00000010
00000000
00000000
,
00011000
00000000
00000000
20200000
,
00000000
00000000
00000000
00000000
,
00000000
30300000
01100000
00000000
;

//---------------dance-double - ----------------
#NOTES:
     dance-double:
     :
     Hard:
     13:
     0.724,0.875,0.535,0.335,0.127:
10000000
10000000
10000000
10000000
,
10010000
00000000
10010000
00000000
00010000
01000000
00010000
20000000
,
00000000
00000000
31000000
00100000
01000000
00000000
10010000
00000000
,
10000000
01000000
00100000
00001000
00000000
00001000
00000000
00000000
,
00010000
00000010
00010000
00000000
00000010
00000100
00000010
00000000
,
00001001
00000000
00001001
00000000
00000001
00000100
00000001
00002000
,
00000000
00000000
00003010
00000100
00000010
00000000
00001000
00000000
,
00010000
00000000
00100000
01000000
00000000
00100000
01000000
00000000
,
10000000
00100000
00000000
00100000
00000000
00100000
10000000
00000000
,
10010000
00000000
10010000
00000000
10000000
01000000
10000000
00020000
,
00000000
00000000
00130000
01000000
00100000
00000000
00001000
00000000
,
00010000
00000010
00010000
00000001
00000000
00000001
00000000
00000000
,
00000010
00000100
00000010
00000000
00000100
00000010
00000100
00000000
,
00001001
00000000
00001001
00000000
00000001
00000010
00000001
00002000
,
00000000
00000000
00003010
00000100
00000010
00000000
00001000
00000000
,
00010000
00000000
01000000
00100000
00000000
01000000
00100000
00000000
,
00010000
01000000
00000000
01000000
00000000
01000000
00010000
00000000
,
10000000
10000000
01000000
00000000
00100000
00100000
01000000
00000000
,
10010000
00000000
10000000
00010000
00000000
10000000
00010000
00000000
01001000
00000000
00001000
01000000
00000000
00001000
01000000
00000000
,
00010000
00010000
00001000
00000000
00000010
00000010
00000100
00000000
,
00001001
00000000
00000001
00001000
00000000
00000001
00001000
00000000
00010100
00000000
00010000
00000100
00000000
00010000
00000100
00000000
,
00010000
00001000
01000000
00100000
01000000
00000000
00100000
10000000
,
00010000
00100000
00010000
00000000
10000000
00100000
10000000
01000000
,
00100000
00000000
00001000
00010000
00001000
00010000
00000100
00000010
,
00000001
00000000
00000100
00000001
00000010
00000100
00010000
00000000
,
00011000
00000000
00001000
00100000
01000000
00100000
00001000
00000000
,
00011000
00000000
01000000
00100000
10000000
01000000
00100000
00000000
,
01100000
00000000
00001000
00010000
00001000
00000000
00010000
00000010
,
00010000
00000100
00000010
00000001
,
00010000
00000100
00000010
00000001
,
00000100
00000010
00000100
00000010
,
00010000
00001000
00010000
00001000
,
01000000
00000000
00100000
01000000
00000000
00100000
01000000
00000000
,
00010000
10000000
00010000
00000000
10000000
01000000
10000000
01000000
,
10000000
20020000
00000000
00000000
,
00000000
00000000
00000000
00000000
,
30030000
00000000
00000000
00000000
21000000
00000000
00000000
00000000
30010000
00000000
01000000
00100000
00000000
00200000
00000000
00000000
,
01300000
00000000
00000000
00000000
00002000
00000000
00000000
00000000
00013000
00000000
00000010
00000100
00000000
00000200
00000000
00000000
,
00000301
00000000
00000000
00000000
00000020
00000000
00000000
00000000
00000130
00000000
00001000
00010000
00000000
00020000
00000000
00000000
,
00031000
00000000
00200000
00000000
01300000
10000000
00010000
10010000
,
00000000
10010000
00000000
00000000
02100000
00000000
00000000
00000000
03001000
00000000
00010000
00000010
00000000
00000010
00000000
00010000
,
00000010
00000000
00000000
00000000
00000100
00000000
00000001
00000000
00001001
00000000
00000000
00000000
00000100
00000001
00000000
00000001
,
00010000
00011000
00000000
00000000
01100000
00100000
20000000
00010000
,
30010000
10010000
01200000
00000000
00000000
00000000
00000000
00000000
,
00000000
01300000
01000000
01000000
,
01000000
02200000
00000000
00000000
,
00000000
03300000
00000000
00000000
,
00001000
00010000
00002000
00000000
00000000
00000000
00000000
00000000
,
00000000
00000000
00003000
00000000
00000000
00000000
00010000
00000010
,
00010000
00000010
00020000
00000000
00000000
00000000
00000000
00000000
,
00000000
00030001
00000000
00000000
00000000
00000000
00000000
00000000
,
00000100
00000001
00000200
00000000
00000000
00000000
00000010
00000000
,
00000000
00000010
00000000
00000000
00000310
00000000
00000100
00000000
,
00000010
00000000
00000000
00000000
00010000
00000000
00010000
00000000
00001000
01000000
00000000
00100000
00000000
01000000
00000000
00000000
,
00000000
00000000
00100000
01000000
00200000
00000000
00000000
00000000
10000000
00000000
00000000
10000000
00000000
20300000
00000000
00000000
,
00000000
00000000
00010000
00000000
30010000
00000000
00000000
01000000
00000000
00000000
00001000
00000000
00000000
00010000
00000000
00000000
,
00000100
00000010
00000210
00000000
00000000
00000000
00000000
00000000
,
00000000
00000310
00000010
00000010
,
00000010
00000000
00001001
00000000
00001001
00000000
00001000
00000010
,
00000000
00010000
00000000
00001000
00100000
00000000
01000000
00100000
,
01000000
00000000
10010000
00000000
00010000
00000000
00100000
01000000
,
00000000
00100000
00000000
00001000
00010000
00000000
00000010
00010000
,
00000010
00000000
00000110
00000000
00000100
00000000
00000001
00001000
,
00000000
00001100
00000000
00000000
00010000
00001000
00010000
00001000
,
00100000
01000000
00100000
00000000
00010000
01000000
00100000
01000000
,
00010000
10000000
00000000
00000000
01000000
00000000
00100000
00000000
,
01000000
00000000
10010000
00000000
10010000
00000000
00010000
01000000
,
00000000
00001000
00000000
00010000
00000100
00000000
00000010
00000001
,
00000010
00000000
00001001
00000000
00001001
00000000
00000001
00000100
,
00000000
00000010
00000000
00010000
00001000
00000000
00100000
01000000
,
00100000
01000000
20000000
00000000
00000000
30020000
00000000
00000000
,
00230000
00000000
00000000
02300000
00000000
00000000
03100000
00000000
,
00001000
00011000
00000000
00011000
,
00000000
00010001
00010001
00010001
,
00010001
00000000
00000001
00000100
00000001
00000000
00000100
00000010
,
00000100
00000000
00000001
00000100
00001000
00000100
00000001
00000010
,
00000100
00001000
00022000
00000000
00000000
00000000
00000000
00000000
,
00000000
00000000
00000000
00000000
,
00033000
01000000
01000000
01000000
,
01000000
00000000
10010000
00000000
10010000
00000000
00010000
01000000
,
00010000
20000000
00000000
00000000
31000000
00100000
00001000
00000000
,
00010000
00000000
00000110
00000000
00000110
00000000
00000010
00000001
,
00000010
00000200
00000000
00000000
00010300
00001000
00100000
00000000
,
01000000
00000000
10010000
00000000
10010000
00000000
00010000
00100000
,
00010000
20000000
00000000
00000000
31000000
00100000
00001000
00000000
,
00010000
00000000
00000100
00000010
00000100
00000010
00000001
00000100
,
00000001
00000100
00000001
00001000
00000001
00001000
00000100
00010000
,
00001000
00000000
01100000
00000000
01100000
00000000
01000000
10000000
,
00100000
01000000
00001000
00010000
00000100
00000010
00000001
00000000
,
00000110
00000000
00000110
00000000
00000100
00000001
00000010
00000100
,
00010000
00001000
00100000
01000000
00100000
00000000
01100000
00000000
,
01000000
00000000
00100000
00000000
01000000
00020000
00000000
00000000
,
10030000
00100000
01000000
00011000
,
00010000
00000000
00000110
00000000
00000010
00000200
00000000
00000000
,
00000301
00000001
00000001
00002002
,
00000000
00000000
00000000
00000000
,
00000000
00003003
00000110
00000000
;

//---------------dance-double - ----------------
#NOTES:
     dance-double:
     :
     Challenge:
     16:
     0.948,1.000,0.571,0.218,0.326:
01000000
00000000
01000000
00000000
01000000
00100000
01000000
00100000
,
10010000
00000000
10010000
00000000
10000000
00100000
10000000
00010000
,
00100000
01000000
00100000
00001000
00010000
00000100
00010000
00000000
,
00000100
00000010
00000001
00000100
00000000
00000110
00000000
00000010
,
00000001
00000100
00001000
00000100
00000001
00000010
00000100
00000000
,
00001001
00000000
00001001
00000000
00000001
00000100
00000001
00001000
,
00000100
00000010
00000100
00010000
00001000
01000000
00001000
00000000
,
00100000
01000000
10000000
00200000
00000000
01300000
00100000
01000000
,
00001000
00011000
00000000
00011000
00000000
00010000
00000010
00000100
,
00000110
00000000
00000110
00000000
00000010
00000001
00000010
00001000
,
00000010
00000001
00010000
00000100
00010000
00001000
00100000
00000000
,
01000000
10000000
00100000
01000000
00000000
01100000
00000000
00100000
,
01000000
00100000
10000000
01000000
00010000
01000000
10000000
00000000
,
01100000
00000000
01100000
00000000
00100000
10000000
00100000
00010000
,
00100000
10000000
01000000
00100000
00001000
00010000
00000010
00000000
,
00000100
00000001
00000100
00000001
00000010
00000100
00000010
00000100
,
00010000
00011000
00000000
00011000
00000000
00001000
00100000
01000000
,
10000000
10000000
01100000
00000000
00010000
00010000
01001000
00000000
,
00011000
00000000
00010000
00000010
00000000
00000010
00000100
00000000
00000011
00000000
00000100
00000010
00000000
00000010
00010000
00000000
,
00001000
00000000
01000000
00100000
01000000
00000000
01000000
00000000
00010000
00000000
10000000
01000000
10000000
00000000
10000000
00000000
,
01100000
00000000
00010000
01000000
00000000
01000000
00001000
00000000
00010010
00000000
00000100
00000010
00000000
00000010
00001000
00000100
,
00001000
00000001
00000010
00000100
00011000
00000000
00100000
01000000
,
10000000
00100000
01001000
00000000
00010000
00000010
00000100
00000001
,
00000110
00000000
00000100
00000010
00000001
00000010
00000100
00010000
,
00011000
00000000
00000000
00000000
00001000
00000000
01000000
00000000
00100000
00000000
01000000
00000000
00001000
00000000
10000000
01000000
,
10000000
00000000
00000000
00000000
01000000
00000000
00100000
00000000
00001000
00000000
00010000
00000000
00000010
00000000
00000100
00000010
,
00000100
00000000
00000000
00000000
00000001
00000000
00000010
00000000
00000100
00000000
00000010
00000000
00000001
00000000
00010000
00000100
,
00010000
00000000
00001000
01000000
00100000
01000000
00001000
00100000
,
10000000
00100000
00001000
00010000
00001000
00000000
00010000
00000100
,
00010000
00000000
00000010
00000100
00000010
00000000
00000100
00000001
,
00000100
00000000
00000001
00001000
00000001
00000000
00010000
00000100
,
00010000
00000000
00001000
00010000
00001000
00000000
00100000
01000000
,
00100000
00000000
00010000
10000000
00010000
00100000
01000000
10000000
,
00100000
00000000
01000000
00010000
10000000
01000000
00100000
00001000
,
00010000
00000220
00000000
00000000
,
00000000
00000000
00000000
00000000
,
00000330
00000000
00000000
00000000
00002001
00000000
00000000
00000000
00003001
00000000
00000100
00000001
00000000
00000100
00000000
00000001
,
00001000
00000000
00000100
00000000
00020000
00000000
00000000
00000000
00031000
00000000
01000000
00100000
00000000
01000000
00000000
00100000
,
10000000
00000000
01000000
00100000
02000000
00000000
00000000
00000000
13000000
00000000
00010000
00100000
00000000
00010000
00000000
00100000
,
00001000
00010000
00000200
00000000
00000310
00000001
00000100
00000110
,
00000000
00010010
00000000
00000000
00012000
00000000
00000000
00000000
00103000
00000000
01000000
10000000
00000000
00100000
00000000
10000000
,
01000000
00000000
01100000
00000000
00010000
00001000
00010000
00001000
00000100
00000000
00000010
00000000
00000001
00000100
00000000
00000010
,
00010000
00000000
00011000
00000000
01000000
00000000
00100000
00000000
10010000
00000000
10000000
00000000
01000000
00100000
00001000
00000000
,
00010000
00010010
00000120
00000000
00000000
00000000
00000000
00000000
,
00000000
00000130
00000100
00000100
,
00000100
00000000
00001001
00000000
00000001
00000000
00000100
00000001
,
00000000
00000010
00000000
00000100
00000000
00000000
00000000
00000000
,
00010000
00001000
00010000
00000000
00001000
00000000
00000000
00000000
00001000
00000000
00000000
00000000
00100000
00000000
01000000
00000000
,
00000000
10000000
00000000
00100000
00000000
00000000
01000000
00100000
,
01000000
00100000
01000000
00000000
00100000
00000000
00000000
00000000
00100000
00000000
00000000
00000000
10000000
00000000
00001000
00000000
,
00000000
00021000
00000000
00000000
00000000
00030010
00000000
00000100
,
00000001
00000100
00000001
00000000
00000100
00000000
00000000
00000000
00000000
00000000
00000001
00000000
00000010
00000000
00000100
00000000
,
00010000
00001000
00000000
01000000
00100000
01000000
00100000
01000000
,
00100000
00000000
10000000
00000000
00010000
00000000
00010000
00000000
01000000
00100000
00000000
01000000
00000000
01000000
00000000
00000000
,
00000000
00000000
00001000
00010000
00000010
00000000
00000010
00000000
00000100
00000001
00000000
00001001
00000000
00002100
00000000
00000000
,
00000000
00000000
00003010
00000000
00010000
00001000
00100000
01000000
00000000
00000000
10000000
00100000
00000000
00100000
01000000
00000000
,
00001000
00001000
00010020
00000000
00000000
00000000
00000000
00000000
,
00000000
00000130
00000100
00000100
,
00000100
00000000
00001001
00000000
00001001
00000000
00000001
00000010
,
00000001
00010000
00000010
00000100
00000010
00010000
00001000
00100000
,
01000000
00100000
01000000
00000000
10000000
00000000
00000000
00000000
10010000
00000000
00000000
00000000
10000000
00000000
00100000
00000000
,
10000000
00001000
00100000
01000000
00100000
00001000
00010000
00000100
,
00000010
00000001
00000010
00000000
00000100
00000000
00000000
00000000
00000110
00000000
00000000
00000000
00000100
00000000
00000001
00000000
,
00010000
00012000
00000000
00000000
00103000
01000000
10000000
01000000
,
00100000
01000000
00100000
00000000
00010000
00000000
00000000
00000000
10000000
00000000
00100000
00000000
00010000
00000000
00100000
00000000
,
10000000
00002000
00000000
00013000
00000100
00000010
00000001
00000100
,
00000010
00000100
00000010
00000000
00001000
00000000
00000000
00000000
00001001
00000000
00000000
00000000
00000001
00000000
00000100
00000000
,
00000001
00000000
00000100
00000010
00000100
00010000
00001000
01000000
,
00100000
01000000
00100000
00000000
10000000
00000000
00000000
00000000
10010000
00000000
00000000
00000000
10000000
00000000
01000000
00000000
,
10000000
00001000
01000000
00100000
01000000
00001000
00010000
00000100
,
00000001
00000100
00010000
00000010
00000100
00000001
00000000
00000001
,
00010000
00000000
00010000
00001000
00000000
00001000
01000000
00100000
,
01000000
22000000
33000000
00220000
,
00330000
00000000
01100000
00000000
01100000
00000000
01100000
10000000
,
01000000
00000000
00100000
00000000
00002000
00000000
00010000
00000000
00023000
00000000
00000010
00000000
00030010
00000100
00000001
00000000
,
00000010
00000000
00000010
00000000
00000100
00000000
00010000
00000000
00001000
00000000
01000000
00000000
00010000
00100000
01000000
00000000
,
01000000
10000000
02200000
00000000
00000000
00000000
00000000
00000000
,
00000000
00000000
00000000
00000000
,
03300000
00000000
01000000
00000000
01000000
00000000
01000000
00100000
,
01000000
00100000
10010000
00000000
10010000
00000000
00100000
10000000
,
01000000
00000000
10000000
00000000
00100000
00000000
01000000
00000000
00001000
00010000
00001000
00000000
00010000
00000000
00000010
00010000
,
00000010
00000100
00000110
00000000
00000110
00000000
00000100
00000001
,
00000010
00000000
00000001
00000000
00000100
00000000
00000010
00000000
00010000
00001000
00010000
00000000
00001000
00000000
01000000
00010000
,
01000000
00010000
10010000
00000000
10010000
00000000
00100000
01000000
,
10000000
00000000
01000000
00000000
00100000
00000000
00001000
00000000
00010000
00000100
00010000
00000000
00000100
00000000
00000010
00000001
,
00000010
00000100
00001000
00000001
00000100
00000001
00010000
00001000
,
01000000
10000000
01000000
00001000
00100000
01000000
10000000
00001000
,
00010000
00000000
00000010
00000000
00000100
00000010
00000100
00000010
00000100
00000000
00000001
00000000
00001000
00000000
00000100
00000000
,
00000010
00000000
00000001
00000000
00010000
00000000
00001000
00000000
01000000
00100000
01000000
00100000
01000000
00000000
00000000
00000000
,
00010000
10000000
00010000
10000000
00010000
00000000
00100000
00000000
00010000
00000000
01000000
00000000
00100000
00000000
10000000
00000000
,
01000000
00000000
00100000
00000000
00001000
00010000
00001000
00010000
00001000
00000000
00000000
00000000
00011000
00000000
00000000
00000000
,
00010000
00000000
00000000
00000000
00000100
00000000
00000010
00000000
00000001
00000000
00001000
00000000
00000000
00000000
00000001
00000100
,
00000001
00000010
00000100
00010000
00001000
00000000
00011000
00000000
,
00001000
00000000
01100000
01000000
00100000
10000000
00000000
00000000
,
01000000
00000000
00100000
00000000
00001000
01000000
00001000
01000000
00001000
00000000
00000000
00000000
00011000
00000000
00000000
00000000
,
00010000
00000000
00000000
00000000
00000100
00000000
00000010
00000000
00000001
00000000
00000100
00000000
00000000
00000000
00000010
00000100
,
00000010
00010000
00001000
00000000
02002000
00000000
00000000
00000000
,
03003000
00000000
00000000
00000000
;

//---------------dance-single - ----------------
#NOTES:
     dance-single:
     :
     Beginner:
     3:
     0.144,0.219,0.136,0.000,0.000:
0000
0000
0000
0000
,
1001
0000
0000
0000
,
1000
0000
0001
0000
,
1000
0000
0000
0000
,
0001
0000
1000
0000
,
0001
0000
0000
0000
,
0100
0000
0010
0000
,
0100
0000
0000
0000
,
0110
0000
0000
0000
,
0010
0000
1000
0000
,
0010
0000
0000
0000
,
1000
0000
0001
0000
,
1000
0000
0000
0000
,
0001
0000
0100
0000
,
0001
0000
0000
0000
,
1000
0000
0001
0000
,
1000
0000
0000
0000
,
1001
0000
0000
0000
,
0010
0000
0010
0000
,
0100
0000
0000
0000
,
0100
0000
0100
0000
,
0110
0000
0000
0010
,
0000
0000
0010
0000
,
0000
0010
0000
0000
,
0000
0100
0000
0000
,
0000
0100
0000
0000
,
0000
0100
0000
0000
,
0000
0100
0000
0000
,
0000
0001
0000
0000
,
0000
0000
0000
0000
,
0000
0000
0000
0000
,
0000
0000
0000
0000
,
0000
1000
0000
0000
,
0000
0000
0000
0000
,
0000
1001
0000
0000
,
0000
0000
0000
0000
,
0000
0100
0000
0000
,
0000
0010
0000
0000
,
0000
0100
0000
0000
,
0000
0010
0000
0000
,
0000
0000
1001
0000
,
0000
1000
0000
0000
,
0000
0001
0000
0000
,
0000
1000
0000
0000
,
0000
0000
0000
0000
,
0000
1001
0000
0000
,
0000
0000
0000
0000
,
0000
0001
0000
0000
,
0000
0000
0000
0000
,
0000
0001
0000
0000
,
0000
0000
0000
0000
,
0000
1000
0000
0000
,
0000
0000
0000
0000
,
0000
1000
0000
0000
,
0000
0110
0000
0000
,
0000
0010
0000
0000
,
0000
0100
0000
0000
,
0000
0000
0000
0000
,
0000
0110
0000
0000
,
0000
0100
0000
0000
,
0000
0010
0000
0000
,
0000
1000
0000
0000
,
0000
0001
0000
0000
,
0000
1000
0000
0000
,
0000
0100
0000
0000
,
0000
0010
0000
0000
,
0000
0001
0000
0000
,
0000
0100
0000
0000
,
0000
0001
0000
0000
,
0000
0100
0000
0000
,
0000
0010
0000
0000
,
0000
0000
0000
0000
,
0000
0010
0000
0000
,
0000
0000
0000
0000
,
0000
0110
0000
0000
,
0000
0000
0000
0000
,
0000
1001
0000
0000
,
0000
0000
0000
0000
,
0000
0000
0000
0000
,
0000
1001
0000
0000
,
0000
1000
0000
0001
,
0000
1000
0000
0000
,
0000
0100
0000
1000
,
0000
0010
0000
0000
,
0000
0100
0000
0001
,
0000
0010
0000
0000
,
0000
0100
0000
0010
,
0000
0100
0000
1000
,
0000
0100
0000
1000
,
0001
0000
1000
0000
,
0001
0000
0100
0010
,
0000
0000
0000
0000
,
0000
0000
0000
0110
,
0000
0000
0000
0000
,
0000
0000
0000
1001
,
0000
0000
0000
0000
,
0000
0000
1001
0000
;
