#TITLE:サヨナラ・ヘヴン;
#SUBTITLE:(かめりあ's NEKOMATAelectroRMX);
#ARTIST:かめりあ;
#TITLETRANSLIT:SAYONARA HEAVEN;
#SUBTITLETRANSLIT:(Camellia's NEKOMATAelectroRMX);
#ARTISTTRANSLIT:Camellia;
#CREDIT:DigiMindAxel;
#BANNER:SAYONARA HEAVEN (Camellia's NEKOMATAelectroRMX).png;
#BACKGROUND:SAYONARA HEAVEN (Camellia's NEKOMATAelectroRMX)-bg.png;
#LYRICSPATH:;
#CDTITLE:SOUND VOLTEX.png;
#MUSIC:SAYONARA HEAVEN (Camellia's NEKOMATAelectroRMX).ogg;
#METERTYPE:DDR X;
#OFFSET:-8.155;
#SAMPLESTART:79.740;
#SAMPLELENGTH:12.000;
#SELECTABLE:YES;
#BPMS:0.000=150.000;
#STOPS:;
#BGCHANGES:;

//---------------dance-single - ----------------
#NOTES:
     dance-single:
     :
     Easy:
     4:
     0.208,0.253,0.108,0.283,0.000:
1000
0000
1000
0000
,
1000
0000
1000
0000
,
0001
0000
0001
0000
,
2001
0000
0000
0000
,
3200
0000
1300
0000
,
0020
0000
0130
0000
,
0002
0000
2003
0000
,
3002
0000
0103
0000
,
0020
0000
0130
0000
,
0002
0000
1003
0000
,
0001
1000
0001
0000
,
2002
0000
0000
0000
,
0000
0000
0000
0000
,
3003
0000
0000
0000
,
0000
0000
0000
0000
,
0220
0000
0000
0000
,
0000
0000
0000
0000
,
0330
0000
0000
0000
,
0000
0000
1000
0000
,
1001
0000
0001
0000
,
1000
0100
1000
0000
,
1001
0000
0001
0000
,
0100
0010
0100
0000
,
1001
0000
1000
0000
,
0001
0100
0001
0000
,
1001
0000
1000
0000
,
0100
0010
0100
0000
,
2000
0000
3010
0000
,
0200
0000
0301
0000
,
2000
0000
3001
0000
,
1000
0001
1000
0000
,
0020
0000
1030
0000
,
0002
0000
0013
0000
,
0001
1000
0001
0000
,
0200
0000
0310
0000
,
2000
0000
0000
0000
,
3002
0000
0000
0000
,
2003
0000
0000
0000
,
3001
0001
0001
0000
,
0200
0000
0000
0000
,
0320
0000
0000
0000
,
0230
0000
0000
0000
,
0310
0000
0100
0000
,
0110
0000
0000
0000
,
1001
0000
0000
0000
,
0001
0000
0001
0000
,
1000
0000
1000
0000
,
0100
0000
0010
0000
,
0001
0100
0001
0000
,
1000
0000
1000
0000
,
0001
0000
0001
0000
,
0010
0000
0100
0000
,
1000
0100
1000
0000
,
0001
0000
0001
0000
,
0100
0000
0100
0000
,
0001
0000
1000
0100
,
1000
0100
1000
0000
,
1001
0000
1001
0000
,
1001
0000
0000
0000
,
0010
0000
0100
0010
,
0200
0000
0000
0301
,
2000
0000
3001
0000
,
2000
0000
3100
0010
,
0002
0000
0203
0000
,
0302
0000
1003
0000
,
0002
0000
2003
0000
,
3020
0000
0130
0001
,
2000
0000
3000
1001
;

//---------------dance-single - ----------------
#NOTES:
     dance-single:
     :
     Medium:
     8:
     0.451,0.452,0.324,0.449,0.000:
1000
0000
1000
0000
,
1000
0000
1000
0001
,
0100
0100
0100
0110
,
1002
0000
0000
0013
,
0200
0000
2300
3020
,
0230
0000
0302
2003
,
3001
1000
0001
0000
0100
0010
0100
0000
,
0002
0000
2003
3020
,
0230
0000
0302
2003
,
3200
0000
0320
0032
,
1003
0010
1000
0010
0100
0000
0100
0000
,
1001
0010
0100
1000
,
0001
0010
0100
1000
,
0002
0000
0000
0000
,
0000
0000
0000
0003
,
1001
0100
0010
0001
,
1000
0100
0010
0001
,
2000
0000
0000
0000
,
0000
0000
0000
0000
3010
0100
0010
0000
,
1001
0000
1000
0001
0100
0000
0100
0000
,
0001
0010
0100
0000
1000
0010
1000
0000
,
1001
0000
1000
0001
0010
0000
0100
0010
,
0100
0000
1000
0100
0010
0000
0010
0000
,
1001
0000
0001
0010
0100
0000
1000
0010
,
1000
0000
0010
0100
0001
0000
0001
0000
,
1001
0000
1000
0001
0100
0000
0010
0100
,
0010
0000
1000
0001
0010
0000
0010
0000
,
1100
0000
1100
0000
1001
0000
0001
0100
,
0001
0000
0100
0010
1000
0000
1000
0000
,
1001
0110
0101
0101
,
1100
0000
1100
0000
0100
0010
0100
0000
,
1001
1001
1100
1100
,
0010
0001
0100
0000
0010
0100
0010
0000
,
1001
1001
0011
0011
,
0100
1000
0010
0000
1010
0000
1001
0000
,
0002
0000
0000
0000
0000
1000
1003
0000
,
0200
0000
0000
0000
0000
1000
1300
0000
,
0020
0000
0000
0000
0000
0100
0130
0000
,
0002
0023
0230
2300
,
3010
0000
0210
0000
0000
0010
0310
0000
,
1000
0000
1002
0000
0000
1000
1003
0000
,
0010
0100
0010
0000
1000
0100
0010
0000
,
0001
0100
1000
0100
,
1001
1001
1100
1100
,
0012
0000
0103
0000
,
0010
0000
0010
0100
0010
0000
1000
0100
,
0010
0000
0010
0001
0010
0000
0001
0000
,
1000
0000
1000
0010
1000
0000
0100
0010
,
0100
0010
0001
0010
0001
0000
0100
0000
,
0010
0000
0010
1000
0010
0000
1000
0001
,
0010
0000
0010
0100
0010
0000
0001
0000
,
0010
0000
0010
0100
0010
0000
0001
0100
,
0001
0100
0010
0100
0010
0000
1000
0000
,
0100
0000
0100
0010
0100
0000
1000
0001
,
0100
0000
0100
0010
0100
0000
0001
0000
,
0010
0000
0010
0100
0010
0000
0100
1000
,
0100
1000
0010
0100
0010
0000
0100
0000
,
2002
3003
2002
3003
,
2002
3003
2002
3003
,
1000
0000
1000
0100
0010
0000
0001
0100
,
0002
0000
0000
0013
,
0200
0000
2300
3002
,
0203
0000
0302
0023
,
0130
1000
0100
1000
0020
0000
0230
0000
,
0302
0000
2003
3200
,
0320
0000
0032
2003
,
3020
0000
0000
0000
0130
0001
0100
0000
,
0001
1000
0001
1000
0100
0000
0220
0000
,
0330
0000
0000
0000
;

//---------------dance-single - ----------------
#NOTES:
     dance-single:
     :
     Hard:
     11:
     0.542,0.481,0.249,0.233,0.121:
1000
0000
1000
0001
0100
0000
1000
0001
,
0100
0000
1000
0001
0100
0000
0001
1000
,
0001
0000
0001
0010
0100
0010
0001
0000
,
0102
0010
0103
0110
,
2100
0000
0010
0000
3100
0010
0001
0000
,
0200
0001
0320
0100
,
1030
0100
0010
0001
1000
0100
0010
0001
,
0200
0010
0301
0110
,
1020
0100
1030
0110
,
0102
0010
0103
0110
,
0100
0000
1000
0000
0010
0000
0100
0000
0001
1000
0001
0000
1000
0000
1000
0000
,
0020
1000
1000
0100
,
0100
0000
0001
0000
0031
0000
1000
0010
,
0100
0000
0000
0200
0000
0000
0000
0000
0001
0000
0000
0000
0001
0000
0000
0000
,
0010
0010
1000
1300
,
1002
1000
1000
0010
,
0010
0000
0100
0000
0103
0000
0010
1000
,
0001
0000
0000
0002
0000
0000
0000
0000
0100
0000
0000
0000
0100
0000
0000
0000
,
0010
0000
0000
0000
0013
0000
0000
0000
0100
1000
0100
1000
0100
0000
0000
0000
,
1001
0000
1000
0100
1000
0010
1000
0100
,
1000
0001
0010
0100
1000
0010
1000
0002
,
0010
0000
0000
0013
0000
0000
0000
0000
0100
0000
1000
0000
0100
0000
1000
0000
,
0001
0100
0010
0100
0001
0100
0010
0000
,
1000
0100
0010
0100
1000
0001
0100
0001
,
1000
0100
1000
0010
1000
0001
0010
0200
,
1000
0000
0000
1300
0000
0000
0000
0000
0001
0000
0100
0000
0001
0000
1000
0000
,
0100
1000
0001
0010
0100
0000
1100
0000
,
1000
0000
0000
1000
0000
0000
0010
0000
0100
0000
0000
0100
0000
0000
0001
0000
,
0010
0000
1000
0000
0010
0000
0001
0000
0100
0000
0000
0100
0000
0000
0002
0000
,
1000
0000
0000
1003
0000
0000
0001
0000
0010
0000
0000
0010
0000
0000
0100
0000
,
1000
0000
0000
1000
0000
0000
0010
0000
0100
0000
0000
0000
0000
0000
0001
1000
,
0001
0000
0000
0001
0000
0000
0010
0000
0100
0000
0000
0100
0000
0000
1000
0000
,
0010
0001
0010
1000
0100
0010
0001
2000
,
0010
0000
0000
3010
0000
0000
1000
0000
0001
0000
0000
0001
0000
0000
0010
0000
,
0100
0000
0000
0100
0000
0000
1000
0000
0010
0000
0000
0000
0110
0000
0000
0000
,
1020
0000
0000
0000
0000
0100
0130
0000
,
0002
0000
0000
0000
0000
0010
0013
0000
,
0200
0000
0000
0000
0000
1000
1300
0000
,
0001
0000
0000
0000
0001
0000
0100
0010
0100
0000
0010
0000
1000
0000
0100
0000
,
0010
0001
0100
0002
0000
0103
0101
0000
,
1000
0100
0010
0002
0000
0103
0110
0000
,
0010
0001
0010
0001
0100
0010
1000
0001
,
0010
0000
0100
0000
0010
0000
0000
0000
0001
1000
0001
0000
1000
0000
0100
0000
,
1100
1001
1100
1001
,
0001
0100
0001
0000
0100
0010
2000
0000
0000
0000
0000
0000
,
3001
0000
0001
0100
0010
0000
0001
0100
,
0010
0000
0001
0100
0010
0000
1000
0001
,
1000
0000
1000
0100
0010
1000
0010
0100
,
1000
0001
0100
0010
0100
0000
0001
1000
,
0001
0000
0001
0010
0100
0000
0001
0010
,
0100
0000
0001
0010
0100
0000
1000
0001
,
1000
0000
1000
0010
0100
0010
1000
0001
,
0010
1000
0010
0001
1000
0000
0001
1000
,
0001
0000
0001
1000
0010
0000
0001
1000
,
0010
0000
0001
1000
0010
0000
1000
0001
,
1000
0000
1000
0001
0010
0001
1000
0100
,
0001
0100
1000
0001
1000
0000
0001
0100
,
0101
0000
0000
0001
0000
0000
0001
0000
0110
0000
0000
0100
0000
0000
0100
0000
,
1010
0000
0000
0010
0000
0000
0010
0000
1001
0000
0000
0000
1000
0001
1000
0000
,
0010
0000
0010
0100
0001
1000
0100
0001
,
0200
1000
0310
0110
,
0020
0001
0130
1100
,
1002
0010
1003
0110
,
1000
0100
0001
0100
1000
0010
0100
0001
,
0020
0100
1030
1001
,
0002
0100
0013
0110
,
0010
1000
0100
1000
0001
0100
0001
1000
,
0001
0010
1000
0010
0001
0000
2002
0000
,
3003
0000
0000
0000
;

//---------------dance-single - ----------------
#NOTES:
     dance-single:
     :
     Challenge:
     14:
     0.719,0.707,0.166,0.266,0.603:
0001
0000
0000
0000
0000
0001
1000
0000
0000
0100
0000
0000
0010
0000
0000
0000
0000
0001
1000
0000
0000
0100
0000
0000
,
0010
0000
0000
0000
0000
0001
1000
0000
0000
0100
0000
0000
0010
0000
0000
0000
0000
0000
0001
0000
0000
0100
0000
0000
,
0010
0000
0000
0000
0000
0000
0000
0000
0000
0000
1000
0000
0001
0000
0000
0000
0000
0000
0010
0000
0000
0000
0000
0000
0100
0000
0000
0000
0000
0000
1000
0000
0000
0000
0000
0000
0001
0000
0000
0100
0000
0000
0001
0000
0000
0000
0000
0000
,
1000
0100
1000
0001
1000
0100
1000
0000
,
0100
0000
0010
0000
0001
0000
0010
0000
0100
0000
0000
1000
0010
0000
0000
0010
,
0100
0000
0001
0000
0010
0000
0001
0000
0100
0000
0000
0001
1000
0000
0000
1000
,
0001
0000
0100
0000
1000
0000
0100
0000
0001
0000
1000
0001
1000
0000
0100
0000
,
0010
0000
0001
0000
0100
0000
0010
0000
0100
0000
0000
0001
1000
0000
0000
1000
,
0100
0000
0010
0000
0100
0000
1000
0000
0001
0000
0000
0100
0001
0000
0000
0001
,
1000
0000
0100
0000
0010
0000
0100
0000
1000
0000
0000
0001
1000
0000
0000
1000
,
0010
0000
0100
0000
0001
0000
1000
0000
0100
1000
0200
0000
0010
0000
0310
0000
,
0001
0000
0000
0001
0100
0000
0000
0000
0001
0000
0000
0001
1000
0000
0000
0000
,
0100
0000
0000
0100
0010
0000
0000
0000
0001
0000
0000
0001
0100
0000
0020
0000
,
0100
0000
0000
0230
0000
0000
0000
0000
0001
0000
0000
0000
0001
0000
0000
0000
,
0010
0010
0001
0301
,
1000
0000
0000
1000
0001
0000
0000
0000
0010
0000
0000
0010
0100
0000
0000
0000
,
1000
0000
0000
1000
0010
0000
0000
0000
1000
0000
0000
1000
0001
0000
0200
0000
,
0001
0000
0000
0302
0000
0000
0000
0000
1000
0000
0000
0000
1000
0000
0000
0000
,
0100
0000
0000
0000
0103
0000
0000
0000
0001
1000
0001
1000
0001
0000
1000
0000
,
1001
0000
0000
1000
0001
0000
0010
0000
0001
0000
1000
0000
0010
0000
1000
0000
,
0001
0000
0010
0100
0000
0100
1000
0000
0020
0000
0000
0100
0000
0000
0230
0000
,
0001
0000
0000
0301
0000
0000
1000
0000
0100
0010
0100
0010
0100
0000
1000
0000
,
0001
0000
0100
0010
0200
0000
0000
0000
0301
1000
0000
0010
1000
0000
0001
0000
,
0010
0000
0100
1000
0100
1000
0010
0000
0100
0000
0001
0100
0000
0001
0100
0000
,
0001
0000
1000
0000
0100
0000
1000
0000
0001
1000
0000
0001
1000
0000
0002
0000
,
0100
0000
0000
0103
0000
0000
0001
0000
0100
0010
0100
0010
0100
0000
0001
0000
,
1000
0000
0100
0000
0010
0000
0100
0000
1000
0010
1000
0000
0001
1000
0001
0010
,
0200
0000
0000
0000
0000
0000
0000
0000
0000
1000
0000
0000
0000
0000
0000
0000
0000
0000
1300
0000
0000
0000
0000
0000
0010
0000
0000
0000
0000
0000
0100
0000
0001
0000
0100
0000
0001
0000
0000
0000
0000
0000
1000
0000
0000
0000
0000
0000
,
0001
0000
0000
0100
0000
0000
1000
0000
0000
0100
0000
0000
0001
0000
0000
0010
0100
0010
0100
0000
0000
2000
0000
0000
,
0001
0000
0000
3001
0000
0000
1000
0000
0020
0000
0000
0100
0000
0000
0130
0000
,
0002
0000
0000
0010
0000
0000
0013
0000
0200
0000
0000
0000
1300
0000
0010
0001
,
0200
0000
0000
0000
0000
0000
0000
0000
0000
0010
0000
0000
0000
0000
0000
0000
0000
0000
0310
0000
0000
0000
0000
0000
1000
0000
0000
0000
0000
0000
0001
0000
0100
0000
0001
0000
0100
0000
0000
0000
0000
0000
0010
0000
0000
0000
0000
0000
,
1000
0000
0000
0100
0000
0000
0001
0000
0000
0100
0000
0000
1000
0000
0000
0100
0010
0100
0010
0000
0000
0002
0000
0000
,
1000
0000
0000
1003
0000
0000
0001
0000
0200
0000
0000
0010
0000
0000
0310
0000
,
2000
0000
0000
0100
0000
0000
3100
0000
0010
0000
0001
1000
0001
1000
0001
0100
,
0020
0000
0000
1000
0000
0000
1000
0000
2000
0000
0000
0000
3030
0000
0100
0001
,
0020
0000
0000
0100
0000
0000
0100
0000
0200
0000
0000
0000
0330
0000
0100
1000
,
0002
0000
0000
0000
0000
0000
0000
0000
0000
1000
0000
0000
0000
0000
0000
0000
0000
0000
1000
0000
0000
0000
0000
0000
2003
0000
0000
0000
0000
0000
0000
0000
0000
0000
3010
0000
0100
0000
0000
0000
0000
0000
0001
0000
0000
0000
0000
0000
,
1002
0000
0000
0000
0103
0000
0001
1000
0010
0000
0010
0000
1000
0100
0010
0001
,
1000
0000
0000
1000
0001
0000
0100
0000
0000
0000
0101
0000
1001
0000
0000
0001
,
1000
0000
0100
0000
0010
0000
0100
0000
0000
0000
1100
0000
1001
0000
0000
1000
,
0001
0000
0000
0010
0000
0000
1000
0000
0000
0010
0000
0000
0001
0000
0000
1000
0100
1000
0100
0000
0000
0010
0000
0000
,
0100
0000
1000
0000
0001
0000
1000
0000
0100
1000
0100
0000
0010
0001
0010
0000
,
1001
0001
2002
3003
0110
0100
0220
0330
,
0010
0000
1000
0000
1010
0000
0000
0000
1000
0000
0001
0000
0011
0000
0000
0000
0000
0000
0010
0000
0000
0100
0000
0000
,
1000
0000
0000
0000
0000
1000
0010
0000
0100
0001
0000
0000
1000
0000
0000
0000
0000
1000
0010
0000
0100
0001
0000
0000
,
1000
0000
0000
0000
0000
1000
0010
0000
0100
0001
0000
0000
1000
0000
0000
0000
0000
0000
0100
0000
0000
0010
0000
0000
,
0001
0000
0000
0000
0000
0001
1000
0000
0100
0010
0000
0000
0001
0000
0000
0001
0000
0000
0100
0000
0000
0010
1000
0010
,
1000
0100
0010
0010
0100
0000
1000
0100
,
0010
0000
0000
0000
0000
0001
1000
0000
0100
0010
0000
0000
0001
0000
0000
0000
0000
0001
1000
0000
0100
0010
0000
0000
,
0001
0000
0000
0000
0000
0001
1000
0000
0100
0010
0000
0000
0001
0000
0000
0000
0000
0000
0100
0000
0000
0010
0000
0000
,
1000
0000
0000
0000
0000
1000
0001
0000
0010
0100
0000
0000
1000
0000
0000
0001
0000
0000
0001
0000
0000
0010
0001
0010
,
0001
1000
0010
0010
0100
0000
0010
0100
,
0001
0000
0000
0000
0000
0001
1000
0000
0100
0010
0000
0000
0001
0000
0000
0000
0000
0001
1000
0000
0100
0010
0000
0000
,
0001
0000
0000
0000
0000
0001
1000
0000
0100
0010
0000
0000
0001
0000
0000
0000
0000
0000
0100
0000
0000
0010
0000
0000
,
1000
0000
0000
0000
0000
1000
0001
0000
0100
0010
0000
0000
1000
0000
0000
1000
0000
0000
0001
0000
0000
0010
0100
0010
,
0100
1000
0001
0001
0100
0010
1000
0100
,
1100
0000
0000
1100
0000
0000
0010
0000
0110
0000
0000
0110
0000
0000
0001
0000
,
0101
0000
0000
0000
0000
0000
0000
0000
0000
0101
0000
0000
0000
0000
0000
0000
0000
0000
1000
0000
0000
0000
0000
0000
1001
0000
0000
0000
0000
0000
0000
0000
0000
0000
0000
0000
0001
0000
0100
0000
0001
0000
0100
0000
0000
0000
0000
0000
,
0010
0000
0000
0000
0000
0000
0000
0000
0000
0000
1000
0000
0001
0000
0000
0000
0100
0000
0010
0000
0000
0000
0000
0000
1000
0000
0000
0000
0000
0000
0010
0000
0000
0100
0000
0000
0020
0000
0000
0000
0000
0000
0000
0000
0000
0000
0000
0000
,
0130
0000
0001
0000
0100
0000
0001
0000
1000
0000
0000
0001
1000
0000
0000
1000
,
0100
0000
0010
0000
0100
0000
1000
0000
0010
0000
0000
0100
0001
0000
0000
0001
,
1000
0000
0100
0000
0010
0000
0100
0000
1000
0000
0000
0001
1000
0000
0000
1000
,
0001
0000
0000
0100
0000
0000
1000
0000
0000
0100
0000
0000
0001
0000
0000
0010
0100
0010
0100
0000
0000
1000
0000
0000
,
0010
0000
0100
0000
0010
0000
0100
0000
0001
0000
0000
1000
0010
0000
0000
0010
,
0100
0000
0001
0000
0010
0000
0100
0000
0010
0000
0000
0001
0100
0000
0000
0100
,
0010
1000
0100
0010
0100
1000
0010
0100
,
0001
1000
0001
1000
0100
0010
0100
0010
0001
0000
0000
0000
2002
0000
0000
0000
,
3003
0000
0000
0000
;

//---------------dance-double - ----------------
#NOTES:
     dance-double:
     :
     Easy:
     4:
     0.235,0.253,0.108,0.283,0.000:
10000000
00000000
10000000
00000000
,
10000000
00000000
10000000
00000000
,
00010000
00000000
00010000
00010000
,
20010000
00000000
00000000
00000000
,
30200000
00000000
01300000
00000000
,
00002000
00000000
00103000
00000000
,
00020000
00000000
00032000
00000000
,
00003200
00000000
00000310
00000000
,
00000002
00000000
00000103
00000000
,
00000020
00000000
00000130
00000000
,
00001000
00010000
00001000
00000000
,
20002000
00000000
00000000
00000000
,
00000000
00000000
00000000
00000000
,
30003000
00000000
00000000
00000000
,
00000000
00000000
00000000
00000000
,
02200000
00000000
00000000
00000000
,
00000000
00000000
00000000
00000000
,
03300000
00000000
00000000
00000000
,
00000000
00000000
02000000
00000000
,
03100000
00000000
10000000
00000000
,
01000000
00100000
01000000
10000000
,
00100000
00000000
00100000
01000000
,
00001000
00010000
00001000
00000000
,
00011000
00000000
00010000
00000010
,
00000100
00000010
00001000
00000000
,
00001001
00000000
00000001
00000010
,
00000100
00010000
00000100
00000000
,
00020000
00000000
00031000
00000000
,
01000000
00100000
01000000
00000000
,
00020000
00000000
10030000
00000000
,
00010000
10000000
00010000
00000000
,
02000000
00000000
03001000
00000000
,
00010000
00001000
00010000
00000000
,
00000010
00000100
00000010
00000000
,
00001000
00000100
00000010
00000000
,
00001002
00000000
00000000
00000000
,
00002003
00000000
00000000
00000000
,
00003002
00000000
00000000
00000000
,
00001003
00001000
00001000
00000000
,
00000120
00000000
00000000
00000000
,
00000230
00000000
00000000
00000000
,
00000320
00000000
00000000
00000000
,
00000230
00000000
00000320
00000000
,
00000130
00000100
00000100
00000000
,
00011000
00000000
00011000
00000000
,
00100000
01000000
00100000
00000000
,
00010000
01000000
00010000
00000000
,
10000000
01000000
10000000
00010000
,
00100000
01000000
10000000
00000000
,
00100000
01000000
00100000
00000000
,
01000000
00100000
01000000
00000000
,
00001000
00010000
00001000
00010000
,
00000010
00000100
00000001
00000000
,
00000010
00000100
00000010
00000000
,
00000001
00001000
00000001
00000000
,
00000100
00000010
00001000
00000100
,
00010000
00001000
00010000
00000000
,
01100000
00000000
01100000
00000000
,
01100000
00000000
00000000
00000000
,
10000000
00010000
10000000
01000000
,
00200000
00000000
00000000
00301000
,
00020000
00000000
00031000
00000000
,
00000020
00000000
00000130
00000001
,
00000020
00000000
00000230
00000000
,
00002300
00000000
00013000
00000000
,
00200000
00000000
02300000
00000000
,
23000000
00000000
30010000
00100000
,
00002000
00000000
00003000
00011000
;

//---------------dance-double - ----------------
#NOTES:
     dance-double:
     :
     Medium:
     8:
     0.462,0.481,0.333,0.491,0.000:
20000000
00000000
30020000
00000000
,
20030000
00000000
30010000
01000000
,
00200000
01000000
01300000
01100000
,
01002000
00000000
00000000
00013000
,
00000200
00000000
00000320
00000032
,
00000023
00000000
00000032
00000203
,
00000310
00000100
00000010
00000000
00010000
00000100
00010000
00000000
,
00002000
00000000
02003000
03200000
,
02300000
00000000
03020000
20030000
,
32000000
00000000
23000000
30200000
,
01300000
00001000
01000000
00001000
00010000
00000000
00010000
00000000
,
00000020
00000100
00000100
00000100
,
00000100
00000100
00000100
00000130
,
00000002
00000000
00000000
00000000
,
00000000
00000000
00000000
00000003
,
00000200
00000010
00000010
00000010
,
00000010
00000010
00000010
00000310
,
00002000
00000001
00000001
00000001
,
00000001
00000000
00000001
00000000
00003001
00001000
00000001
00000000
,
00000110
00000000
00000010
00000100
00010000
00000000
00010000
00000000
,
00001000
01000000
00100000
00000000
10000000
01000000
10000000
00000000
,
10010000
00000000
00010000
00100000
01000000
00000000
00100000
00010000
,
00100000
00000000
00001000
00010000
00000010
00000000
00000010
00000000
,
00001001
00000000
00001000
00000100
00000010
00000000
00000100
00010000
,
00000100
00000000
00001000
00010000
01000000
00000000
01000000
00000000
,
10010000
00000000
10000000
01000000
00100000
00000000
00001000
00100000
,
00001000
00000000
00010000
00000010
00000100
00000000
00000100
00000000
,
00001001
00000000
00001001
00000000
00010010
00000000
00010000
00000010
,
00010000
00000010
00010000
00001000
01000000
00000000
01000000
00000000
,
01100000
01100000
10100000
10100000
,
01001000
01001000
00011000
00000000
,
00001001
00001001
00010100
00010100
,
00010000
00000100
00010000
00000100
00010000
00001000
00100000
00000000
,
01100000
01100000
10100000
10100000
,
10001000
10001000
00101000
00000000
,
00020000
00000000
00000000
00000000
00000000
00001000
00031000
00000000
,
00000200
00000000
00000000
00000000
00000000
00000010
00000310
00000000
,
00000002
00000000
00000000
00000000
00000000
00001000
00001003
00000000
,
00000002
00000023
00000230
00002300
,
00003000
00000000
02001000
00000000
00000000
00100000
03100000
00000000
,
00000000
00000000
10200000
00000000
00000000
01000000
01300000
00000000
,
00010000
10000000
00010000
00000000
00100000
01000000
10000000
00000000
,
01000000
00100000
00010000
00000000
00001000
00010000
00000010
00000000
,
00000110
00000110
00000011
00000011
,
00001010
00000000
00011000
00000000
,
00100000
00000000
00100000
01000000
00100000
00000000
00100000
10000000
,
00100000
00000000
00100000
01000000
00100000
00000000
10000000
00000000
,
00010000
00000000
01000000
00001000
01000000
00000000
01000000
00100000
,
01000000
00100000
00001000
00010000
00000100
00000000
00001000
00000000
,
00000001
00000000
00000001
00000010
00000001
00000000
00000001
00001000
,
00000001
00000000
00000001
00000010
00000001
00000000
00000100
00000000
,
00000010
00000000
00000010
00001000
00000010
00000000
00000010
00010000
,
00000010
00010000
00001000
00100000
01000000
00000000
10000000
00000000
,
00010000
00000000
00010000
10000000
00010000
00000000
00010000
00100000
,
00010000
00000000
00010000
10000000
00010000
00000000
00100000
00000000
,
00001000
00000000
00010000
00000010
00010000
00000000
00010000
00000010
,
00010000
00000010
00000100
00000001
00000010
00000000
00000100
00000000
,
00022000
00033000
00022000
00033000
,
00022000
00033000
00022000
00033000
,
01000000
00000000
01000000
00100000
10000000
00000000
01000000
00100000
,
00002000
00000000
00000000
00013000
,
00000020
00000000
00002030
00003002
,
00000023
00000000
00000032
00000023
,
00000130
00010000
00000100
00010000
00002000
00000000
02003000
00000000
,
03200000
00000000
02300000
03020000
,
20030000
00000000
30200000
02300000
,
03002000
00000000
00000000
00000000
00013000
00001000
00010000
00000000
,
00000100
00000010
00000001
00000010
00000100
00000000
00002002
00000000
,
00003003
00000000
00000000
00000000
;

//---------------dance-double - ----------------
#NOTES:
     dance-double:
     :
     Hard:
     11:
     0.537,0.509,0.141,0.208,0.121:
10000000
00000000
10000000
00010000
01000000
00000000
10000000
00010000
,
01000000
00000000
10000000
00010000
01000000
00000000
00001000
00010000
,
00001000
00000000
00001000
00010000
00000100
00000010
00000001
00000100
,
00000120
00010000
00000100
00010030
,
00012000
00000000
00100000
00000000
00013000
00000010
00000100
00000000
,
00000002
00000010
00000203
00000010
,
00000301
00000010
00000100
00001000
00010000
00100000
01000000
10000000
,
00020000
01000000
00100000
01030000
,
00002000
00100000
00010000
00103000
,
00000020
00000100
00010000
00000130
,
00000001
00000000
00000010
00000000
00000100
00000000
00010000
00000000
00001000
00010000
00001000
00000000
00100000
00000000
01000000
00000000
,
10000000
00000000
00100000
01000000
00100000
00000000
10000000
00010000
,
10000000
00000000
00100000
01000000
00100000
00000000
10000000
00010000
,
10000000
00000000
00000000
10010000
00000000
00000000
00000000
00000000
00100000
00000000
00000000
00000000
00100000
00000000
00000000
00000000
,
01000000
01000000
00100000
00100000
,
00001000
00010000
00001000
00000000
00010000
00000010
00010000
00000000
,
00001000
00010000
00001000
00000000
00010000
00000010
00010000
00000010
,
00000100
00000000
00000000
00000110
00000000
00000000
00000000
00000000
00000001
00000000
00000000
00000000
00000001
00000000
00000000
00000000
,
00001000
00000000
00000000
00000000
00001000
00000000
00000000
00000000
00000001
00001000
00000001
00001000
00000001
00000000
00000000
00000000
,
00000110
00000000
00000100
00000010
00000001
00000010
00000100
00010000
,
00001000
01000000
00100000
10000000
00100000
00010000
00100000
20000000
,
00010000
00000000
00000000
30010000
00000000
00000000
00000000
00000000
10000000
00000000
00100000
00000000
01000000
00000000
00100000
00000000
,
10000000
01000000
00100000
00001000
00010000
00000100
00000010
00000000
,
00000001
00000001
00000100
00000010
00000100
00000001
00000010
00001000
,
00000010
00000001
00001000
00000100
00010000
00001000
00100000
02000000
,
00100000
00000000
00000000
03100000
00000000
00000000
00000000
00000000
00010000
00000000
10000000
00000000
01000000
00000000
10000000
00000000
,
00010000
00100000
01000000
00100000
00001000
00010000
00001000
00010000
,
00000010
00000000
00000000
00000010
00000000
00000000
00000100
00000000
00000001
00000000
00000000
00000001
00000000
00000000
00000010
00000000
,
00000100
00000000
00010000
00000000
00001000
00000000
00100000
00000000
01000000
00000000
00000000
01000000
00000000
00000000
20000000
00000000
,
00100000
00000000
00000000
30100000
00000000
00000000
01000000
00000000
00001000
00000000
00000000
00001000
00000000
00000000
00010000
00000000
,
00000100
00000000
00000000
00000100
00000000
00000000
00000010
00000000
00000001
00000000
00000000
00000000
00000000
00000000
00000100
00000010
,
00000100
00000000
00000000
00000100
00000000
00000000
00000001
00000000
00010000
00000000
00000000
00010000
00000000
00000000
00001000
00000000
,
00100000
01000000
00100000
00001000
10000000
00100000
01000000
00002000
,
00010000
00000000
00000000
00013000
00000000
00000000
00000010
00000000
00000100
00000000
00000000
00000100
00000000
00000000
00000001
00000000
,
00000010
00000000
00000000
00000010
00000000
00000000
00000100
00000000
00010000
00000000
00001000
00000000
00010000
00000000
00000000
00000000
,
00012000
00000000
00000000
00000000
00000000
01000000
01003000
00000000
,
00200000
00000000
00000000
00000000
00000000
01000000
01300000
00000000
,
00020000
00000000
00000000
00000000
00000000
00100000
00130000
00000000
,
00002000
00000000
00000000
00000000
00013000
00000000
00000010
00010000
00000010
00000000
00000100
00000000
00000001
00000000
00000010
00000000
,
00000100
00000010
00000001
00000200
00000000
00000310
00000110
00000000
,
00001000
00010000
01000000
00200000
00000000
01300000
01100000
00000000
,
10000000
01000000
00100000
01000000
10000000
00001000
00100000
00001000
,
00010000
00000000
00000100
00000000
00000010
00000000
00000000
00000000
00000001
00000100
00000001
00000000
00000100
00000000
00000010
00000000
,
00010010
00011000
00010010
00011000
,
00001000
01000000
00001000
00000000
00100000
01000000
20000000
00000000
00000000
00000000
00000000
00000000
,
30010000
00000000
10000000
00010000
01000000
00000000
10000000
00010000
,
01000000
00000000
10000000
00010000
01000000
00000000
00001000
00010000
,
00001000
00000000
00001000
00010000
00000010
00000100
00000001
00000010
,
00001000
00000010
00000001
00000010
00000100
00000000
00001000
00000001
,
00001000
00000000
00001000
00000001
00000100
00000000
00001000
00000001
,
00000100
00000000
00001000
00000001
00000100
00000000
00000010
00000100
,
00000010
00000000
00000010
00000100
00000001
00000010
00000100
00001000
,
00010000
00100000
01000000
10000000
00100000
00000000
01000000
00100000
,
01000000
00000000
01000000
00010000
10000000
00000000
01000000
00010000
,
10000000
00000000
01000000
00010000
10000000
00000000
00001000
00010000
,
00001000
00000000
00001000
00010000
00000100
00000010
00000001
00000010
,
00000100
00010000
00001000
01000000
00100000
00000000
10000000
00010000
,
10010000
00000000
00000000
10000000
00000000
00000000
10000000
00000000
01100000
00000000
00000000
00100000
00000000
00000000
00100000
00000000
,
10001000
00000000
00000000
00001000
00000000
00000000
00001000
00000000
00010010
00000000
00000000
00000000
00000010
00000100
00000010
00000000
,
00000100
00000001
00000010
00000100
00000010
00000001
00010000
00000010
,
00020000
00000100
00001000
00030100
,
02000000
00010000
00100000
03010000
,
20000000
00010000
00100000
30010000
,
10000000
01000000
00010000
01000000
10000000
00100000
01000000
00001000
,
00020000
00000010
00000100
00030010
,
00000200
00000001
00000010
00000301
,
00001000
00000010
00000001
00000010
00001000
00000100
00010000
00001000
,
00100000
10000000
00100000
00001000
01000000
00000000
02200000
00000000
,
03300000
00000000
00000000
00000000
;

//---------------dance-double - ----------------
#NOTES:
     dance-double:
     :
     Challenge:
     14:
     0.719,0.707,0.200,0.233,0.603: // measure 1
10000000
00000000
00000000
00000000
00000000
10000000
00100000
00000000
00000000
01000000
00000000
00000000
00010000
00000000
00000000
00000000
00000000
10000000
00100000
00000000
00000000
01000000
00000000
00000000
,  // measure 2
00010000
00000000
00000000
00000000
00000000
10000000
00100000
00000000
00000000
01000000
00000000
00000000
00010000
00000000
00000000
00000000
00000000
00000000
00100000
00000000
00000000
01000000
00000000
00000000
,  // measure 3
00100000
00000000
00000000
00000000
00000000
00000000
00000000
00000000
00000000
00000000
00001000
00000000
00010000
00000000
00000000
00000000
00000000
00000000
00000100
00000000
00000000
00000000
00000000
00000000
00000010
00000000
00000000
00000000
00000000
00000000
00000001
00000000
00000000
00000000
00000000
00000000
00000100
00000000
00000000
00000010
00000000
00000000
00000100
00000000
00000000
00000000
00000000
00000000
,  // measure 4
00000001
00001000
00000100
00001000
00000001
00001000
00000100
00000000
,  // measure 5
00010000
00000000
00001000
00000000
00100000
00000000
01000000
00000000
00100000
00000000
00000000
00010000
10000000
00000000
00000000
10000000
,  // measure 6
00100000
00000000
01000000
00000000
00001000
00000000
00010000
00000000
00000100
00000000
00000000
00000010
00000001
00000000
00000000
00000001
,  // measure 7
00000100
00000000
00000010
00000000
00001000
00000000
00000100
00000000
00000010
00000000
00000001
00000100
00000001
00000000
00010000
00000000
,  // measure 8
00001000
00000000
10000000
00000000
00100000
00000000
10000000
00000000
00001000
00000000
00000000
00100000
01000000
00000000
00000000
01000000
,  // measure 9
10000000
00000000
00100000
00000000
01000000
00000000
00100000
00000000
10000000
00000000
00000000
00010000
00100000
00000000
00000000
00100000
,  // measure 10
00001000
00000000
00010000
00000000
00000100
00000000
00000010
00000000
00000100
00000000
00000000
00001000
00000001
00000000
00000000
00000001
,  // measure 11
00000100
00000000
00000010
00000000
00001000
00000000
00010000
00000000
01000000
00100000
02000000
00000000
00100000
00000000
03100000
00000000
,  // measure 12
10000000
00000000
00000000
10000000
00010000
00000000
00000000
00000000
00100000
00000000
00000000
00100000
01000000
00000000
00000000
00000000
,  // measure 13
10000000
00000000
00000000
10000000
00100000
00000000
00000000
00000000
01000000
00000000
00000000
01000000
00001000
00000000
00010000
00000000
,  // measure 14
00010010
00000000
00000000
00010010
00000000
00000000
00000000
00000000
00000010
00000000
00000000
00000000
00000100
00000000
00000000
00000000
,  // measure 15
00000010
00000100
00000001
00000010
,  // measure 16
00000001
00000000
00000000
00000001
00000100
00000000
00000000
00000000
00000010
00000000
00000000
00000010
00010000
00000000
00000000
00000000
,  // measure 17
00001000
00000000
00000000
00001000
00010000
00000000
00000000
00000000
01000000
00000000
00000000
01000000
00100000
00000000
00010000
00000000
,  // measure 18
10010000
00000000
00000000
10010000
00000000
00000000
00000000
00000000
01000000
00000000
00000000
00000000
10000000
00000000
00000000
00000000
,  // measure 19
00100000
00000000
00000000
00000000
01000000
00000000
00000000
00000000
00001000
00010000
00001000
00010000
00001000
00000000
00010000
00000000
,  // measure 20
00011000
00000000
00000000
00000010
00000100
00000000
00000001
00000000
00000010
00000000
00000100
00000000
00000001
00000000
00000100
00000000
,  // measure 21
00000010
00000000
00000001
00001000
00000000
00001000
00000100
00000000
00020000
00000000
00000000
00001000
00000000
00000000
00032000
00000000
,  // measure 22
00100000
00000000
00000000
00103000
00000000
00000000
01000000
00000000
10000000
00010000
10000000
00010000
10000000
00000000
01000000
00000000
,  // measure 23
00100000
00000000
00001000
01000000
00002000
00000000
00000000
00000000
00013000
00000010
00000000
00000010
00000100
00000000
00000001
00000000
,  // measure 24
00000010
00000000
00000100
00010000
00000100
00010000
00001000
00000000
00100000
00000000
01000000
10000000
00000000
01000000
10000000
00000000
,  // measure 25
00100000
00000000
01000000
00000000
00010000
00000000
00100000
00000000
00001000
00010000
00000000
00001000
00010000
00000000
00000020
00000000
,  // measure 26
00000100
00000000
00000000
00000130
00000000
00000000
00000001
00000000
00000100
00000001
00000100
00000001
00000100
00000000
00000010
00000000
,  // measure 27
00010000
00000000
00000100
00000000
00000010
00000000
00000100
00000000
00010000
00001000
00010000
00000000
00001000
01000000
00001000
10000000
,  // measure 28
00200000
00000000
00000000
00000000
00000000
00000000
00000000
00000000
00000000
01000000
00000000
00000000
00000000
00000000
00000000
00000000
00000000
00000000
01300000
00000000
00000000
00000000
00000000
00000000
00010000
00000000
00000000
00000000
00000000
00000000
00100000
00000000
01000000
00000000
00100000
00000000
01000000
00000000
00000000
00000000
00000000
00000000
10000000
00000000
00000000
00000000
00000000
00000000
,  // measure 29
00010000
00000000
00000000
00010000
00000000
00000000
01000000
00000000
00000000
01000000
00000000
00000000
00001000
00000000
00000000
00010000
00000010
00010000
00000010
00000000
00000000
00000200
00000000
00000000
,  // measure 30
00000001
00000000
00000000
00000301
00000000
00000000
00001000
00000000
00000200
00000000
00000000
00010000
00000000
00000000
00010300
00000000
,  // measure 31
00002000
00000000
00000000
00010000
00000000
00000000
00013000
00000000
00200000
00000000
00000000
00000000
01300000
00000000
10000000
01000000
,  // measure 32
00200000
00000000
00000000
00000000
00000000
00000000
00000000
00000000
00000000
00010000
00000000
00000000
00000000
00000000
00000000
00000000
00000000
00000000
00310000
00000000
00000000
00000000
00000000
00000000
10000000
00000000
00000000
00000000
00000000
00000000
00100000
00000000
01000000
00000000
00100000
00000000
01000000
00000000
00000000
00000000
00000000
00000000
00010000
00000000
00000000
00000000
00000000
00000000
,  // measure 33
00100000
00000000
00000000
00100000
00000000
00000000
00001000
00000000
00000000
00001000
00000000
00000000
00010000
00000000
00000000
00000100
00000010
00000100
00000010
00000000
00000000
00000002
00000000
00000000
,  // measure 34
00000100
00000000
00000000
00000103
00000000
00000000
00000010
00000000
00002000
00000000
00000000
00000100
00000000
00000000
00003100
00000000
,  // measure 35
00020000
00000000
00000000
00001000
00000000
00000000
00031000
00000000
00100000
00000000
01000000
10000000
01000000
10000000
00100000
01000000
,  // measure 36
00002000
00000000
00000000
01000000
00000000
00000000
01000000
00000000
02000000
00000000
00000000
00000000
03003000
00000000
00001000
00010000
,  // measure 37
00000020
00000000
00000000
00010000
00000000
00000000
00010000
00000000
00020000
00000000
00000000
00000000
00030030
00000000
00000010
00000100
,  // measure 38
00000002
00000000
00000000
00000000
00000000
00000000
00000000
00000000
00000000
00000010
00000000
00000000
00000000
00000000
00000000
00000000
00000000
00000000
00000010
00000000
00000000
00000000
00000000
00000000
00000023
00000000
00000000
00000000
00000000
00000000
00000000
00000000
00000000
00000000
00000130
00000000
00001000
00000000
00000000
00000000
00000000
00000000
00000010
00000000
00000000
00000000
00000000
00000000
,  // measure 39
00000210
00000000
00000000
00000000
00000301
00000000
00000010
00000100
00001000
00000000
00001000
00000000
00000010
00010000
00001000
00010000
,  // measure 40
00000010
00000000
00000000
00010000
00001000
00000000
00100000
00000000
00000000
00000000
01100000
00000000
11000000
00000000
00000000
00100000
,  // measure 41
01000000
00000000
00010000
00000000
00100000
00000000
00001000
00000000
00000000
00000000
00011000
00000000
00010010
00000000
00000000
00000010
,  // measure 42
00000100
00000000
00000000
00000001
00000000
00000000
00000010
00000000
00000000
00000100
00000000
00000000
00000010
00000000
00000000
00000001
00001000
00000001
00001000
00000000
00000000
00000010
00000000
00000000
,  // measure 43
00010000
00000000
00001000
00000000
00100000
00000000
01000000
00000000
10000000
00100000
10000000
00000000
00010000
00100000
00010000
00000000
,  // measure 44
01100000
01000000
02002000
03003000
00011000
00010000
00020020
00030030
,  // measure 45
00000010
00000000
00000001
00000000
00000101
00000000
00000000
00000000
00000010
00000000
00010000
00000000
00011000
00000000
00000000
00000000
00000000
00000000
00100000
00000000
00000000
01000000
00000000
00000000
,  // measure 46
10000000
00000000
00000000
00000000
00000000
10000000
00010000
00000000
00100000
01000000
00000000
00000000
10000000
00000000
00000000
00000000
00000000
10000000
00010000
00000000
00100000
01000000
00000000
00000000
,  // measure 47
10000000
00000000
00000000
00000000
00000000
10000000
00010000
00000000
00100000
01000000
00000000
00000000
10000000
00000000
00000000
00000000
00000000
00000000
00100000
00000000
00000000
01000000
00000000
00000000
,  // measure 48
00001000
00000000
00000000
00000000
00000000
00001000
00010000
00000000
00000100
00000010
00000000
00000000
00000001
00000000
00000000
00000001
00000000
00000000
00000100
00000000
00000000
00000010
00010000
00000010
,  // measure 49
00010000
00001000
01000000
01000000
00100000
00000000
10000000
00010000
,  // measure 50
10000000
00000000
00000000
00000000
00000000
10000000
00010000
00000000
00100000
01000000
00000000
00000000
10000000
00000000
00000000
00000000
00000000
10000000
00010000
00000000
00100000
01000000
00000000
00000000
,  // measure 51
10000000
00000000
00000000
00000000
00000000
10000000
00010000
00000000
00100000
01000000
00000000
00000000
10000000
00000000
00000000
00000000
00000000
00000000
00001000
00000000
00000000
00100000
00000000
00000000
,  // measure 52
00001000
00000000
00000000
00000000
00000000
00001000
00010000
00000000
00000100
00000010
00000000
00000000
00000001
00000000
00000000
00000001
00000000
00000000
00000100
00000000
00000000
00000010
00000100
00000010
,  // measure 53
00000100
00000010
00010000
00010000
00001000
00000000
00010000
00000010
,  // measure 54
00010000
00000000
00000000
00000000
00000000
00010000
00000001
00000000
00000010
00000100
00000000
00000000
00010000
00000000
00000000
00000000
00000000
00010000
00000001
00000000
00000010
00000100
00000000
00000000
,  // measure 55
00010000
00000000
00000000
00000000
00000000
00010000
00000001
00000000
00000010
00000100
00000000
00000000
00010000
00000000
00000000
00000000
00000000
00000000
00001000
00000000
00000000
00100000
00000000
00000000
,  // measure 56
00001000
00000000
00000000
00000000
00000000
00001000
10000000
00000000
01000000
00100000
00000000
00000000
00100000
00000000
00000000
00010000
00000000
00000000
00100000
00000000
00000000
01000000
10000000
01000000
,  // measure 57
10000000
00100000
01000000
01000000
00010000
00001000
00000010
00000100
,  // measure 58
00000101
00000000
00000000
00000101
00000000
00000000
00010000
00000000
00011000
00000000
00000000
00011000
00000000
00000000
00100000
00000000
,  // measure 59
00110000
00000000
00000000
00000000
00000000
00000000
00000000
00000000
00000000
00110000
00000000
00000000
00000000
00000000
00000000
00000000
00000000
00000000
01000000
00000000
00000000
00000000
00000000
00000000
01100000
00000000
00000000
00000000
00000000
00000000
00000000
00000000
00000000
00000000
00000000
00000000
00010000
00000000
10000000
00000000
00010000
00000000
10000000
00000000
00000000
00000000
00000000
00000000
,  // measure 60
01000000
00000000
00000000
00000000
00000000
00000000
00000000
00000000
01000000
00000000
00000000
00000000
10000000
00000000
00000000
00000000
00100000
00000000
01000000
00000000
00000000
00000000
00000000
00000000
00001000
00000000
00000000
00000000
00000000
00000000
00010000
00000000
00000000
00001000
00000000
00000000
00020000
00000000
00000000
00000000
00000000
00000000
00000000
00000000
00000000
00000000
00000000
00000000
,  // measure 61
00030010
00000000
00000100
00000000
00000010
00000000
00000100
00000000
00000001
00000000
00000000
00000001
00000100
00000000
00000000
00000100
,  // measure 62
00000010
00000000
00001000
00000000
00010000
00000000
01000000
00000000
00100000
00000000
00000000
00100000
10000000
00000000
00000000
10000000
,  // measure 63
00010000
00000000
00100000
00000000
01000000
00000000
00100000
00000000
00010000
00000000
00000000
00010000
00001000
00000000
00000000
00001000
,  // measure 64
00000010
00000000
00000000
00000100
00000000
00000000
00000001
00000000
00000000
00000010
00000000
00000000
00000100
00000000
00000000
00010000
00001000
00010000
00001000
00000000
00000000
00100000
00000000
00000000
,  // measure 65
01000000
00000000
10000000
00000000
00100000
00000000
01000000
00000000
00100000
00000000
00000000
00100000
01000000
00000000
00000000
01000000
,  // measure 66
00001000
00000000
00010000
00000000
00000010
00000000
00000100
00000000
00000001
00000000
00000000
00000001
00000010
00000000
00000000
00000010
,  // measure 67
00000100
00001000
00010000
01000000
00100000
10000000
00010000
00100000
,  // measure 68
00001000
00010000
00001000
00010000
00000010
00000100
00000010
00000100
00000010
00000000
00000000
00000000
00002002
00000000
00000000
00000000
,  // measure 69
00003003
00000000
00000000
00000000
;

//---------------dance-single - ----------------
#NOTES:
     dance-single:
     :
     Beginner:
     2:
     0.097,0.141,0.058,0.000,0.000:
1000
0000
0000
0000
,
1000
0000
0000
0000
,
0001
0000
0000
0000
,
1001
0000
0000
0000
,
0010
0000
0000
0000
,
0100
0000
0000
0000
,
0010
0000
0000
0000
,
0100
0000
0000
0000
,
1000
0000
0000
0000
,
0010
0000
0000
0000
,
1000
0000
0000
0000
,
0001
0000
0000
0000
,
0000
0000
0000
0000
,
0000
0000
0000
0000
,
0000
0000
0000
0000
,
0001
0000
0000
0000
,
0000
0000
0000
0000
,
0000
0000
0000
0000
,
0000
0000
0100
0000
,
0110
0000
0000
0000
,
0010
0000
0000
0000
,
0100
0000
0000
0000
,
0010
0000
0000
0000
,
1000
0000
0000
0000
,
0100
0000
0000
0000
,
1000
0000
0000
0000
,
0001
0000
0000
0000
,
0100
0000
0100
0000
,
0100
0000
0000
0000
,
0010
0000
0010
0000
,
0010
0000
0000
0000
,
0100
0000
0100
0000
,
0100
0000
0000
0000
,
0010
0000
0010
0000
,
0010
0000
0000
0000
,
0100
0000
0000
0000
,
0000
0000
0000
0000
,
0000
0000
0000
0000
,
0100
0000
0000
0000
,
0000
0001
0000
0000
,
0000
1000
0000
0000
,
0001
0000
1000
0000
,
0001
0000
0000
0000
,
1001
0000
0000
0000
,
1001
0000
0000
0000
,
0010
0000
0100
0000
,
0010
0000
0000
0000
,
1000
0000
0001
0000
,
1000
0000
0000
0000
,
0001
0000
0010
0000
,
0001
0000
0000
0000
,
1000
0000
0100
0000
,
1000
0000
0000
0000
,
0001
0000
1000
0000
,
0001
0000
0000
0000
,
1000
0000
0001
0000
,
1000
0000
0000
0000
,
1001
0000
0000
0000
,
1001
0000
0000
0000
,
0001
0000
0100
0000
,
0010
0000
0000
0000
,
0010
0000
0000
0000
,
1000
0000
0000
0000
,
1000
0000
0000
0000
,
0100
0000
0000
0000
,
0010
0000
0000
0000
,
0001
0000
0001
0000
,
0001
0000
0000
1001
;
