#TITLE:Ride on the light;
#SUBTITLE:-erv skyline remix-;
#ARTIST:RANDO:;
#TITLETRANSLIT:;
#SUBTITLETRANSLIT:;
#ARTISTTRANSLIT:RANDO;
#CREDIT:DigiMindAxel;
#BANNER:Ride on the light -erv skyline remix-.png;
#BACKGROUND:Ride on the light -erv skyline remix--bg.png;
#LYRICSPATH:;
#CDTITLE:BEMANI game remix.png;
#MUSIC:Ride on the light -erv skyline remix-.ogg;
#METERTYPE:DDR X;
#OFFSET:-7.584;
#SAMPLESTART:52.900;
#SAMPLELENGTH:12.000;
#SELECTABLE:YES;
#BPMS:0.000=160.000;
#STOPS:;
#BGCHANGES:;

//---------------dance-single - ----------------
#NOTES:
     dance-single:
     :
     Easy:
     6:
     0.333,0.357,0.211,0.119,0.000:
1000
0000
0000
1000
0000
0000
1001
0000
,
0001
0000
0000
0001
0000
0000
1001
0000
,
1000
0000
0000
1000
0000
0000
1001
0000
,
0002
0000
2000
0000
,
3003
0001
1000
0001
,
1000
0010
0100
0000
,
0001
0010
0100
1000
,
1001
0001
0001
0001
,
1001
1000
0100
1000
,
0001
1000
0100
0000
,
0010
0001
0100
0010
,
2000
0000
3002
0000
,
1003
0000
1001
0000
,
2002
0000
0000
3003
,
0001
1000
0001
1000
,
0010
0100
0010
0100
,
0001
1000
0001
1000
,
0100
0010
0100
0010
,
0001
0100
0001
1000
,
0001
0100
0001
1000
,
0001
0100
0001
0010
,
0100
1000
0001
0000
,
0000
1001
0001
0100
,
0010
0100
0010
0100
,
1001
1000
0100
0010
,
0100
0010
0100
1000
,
1001
0001
0100
0010
,
1001
1000
0010
0100
,
1001
0001
0010
0100
,
1000
0000
0000
0000
,
0000
1001
1000
0010
,
0100
0010
0100
0010
,
1001
0001
0010
0100
,
0010
0100
0010
0100
,
1001
0001
0010
0100
,
1001
1000
0100
0010
,
1001
0001
1000
0001
,
2002
0000
0000
3003
,
0001
1000
0100
0010
,
0100
0000
1000
0001
,
0010
0100
0010
0001
,
1000
0000
0001
1000
,
0100
0010
0100
0000
,
1000
0001
0100
0010
,
0100
0001
1000
0001
,
2002
0000
0000
3003
,
0000
1001
1000
1000
,
1000
0110
0010
0010
,
0010
1001
0001
0001
,
0001
0010
0100
1000
,
1001
0000
0001
1000
,
0100
0000
0010
0100
,
1000
1000
0010
0010
,
0220
0000
0000
0330
,
1001
1000
0010
0010
,
1000
1000
0001
0001
,
1000
1000
0100
0100
,
1000
1000
0001
0001
,
0010
0100
0000
1000
,
0100
0010
0000
0001
,
1000
0010
1000
0001
,
0010
0100
0100
0100
,
0100
1001
1000
0010
,
1000
0010
1000
0001
,
1000
0001
0010
0100
,
0010
0100
1000
0001
,
1000
0000
0001
1000
,
0001
0000
1000
0001
,
1000
0000
0001
1000
,
0001
1000
0100
0010
,
0001
0000
0000
0001
0000
0000
0001
0000
,
1000
1000
1001
0000
,
0002
0000
1003
0010
,
0200
0000
0301
1000
,
0200
0000
1300
0100
,
0010
0001
1000
0100
,
0010
0001
1000
1001
,
0001
1000
0001
1001
,
1000
0001
0010
0010
,
0001
0001
0010
0010
,
0001
0001
0010
0010
,
0001
0001
1000
1000
,
0001
0000
0001
0000
0000
0000
0000
2002
,
0000
0000
0000
0000
,
0000
0000
0000
0000
0000
0000
0000
3003
;

//---------------dance-single - ----------------
#NOTES:
     dance-single:
     :
     Hard:
     12:
     0.581,0.625,0.576,0.140,0.105:
1000
1000
0000
0010
0010
0000
1001
0000
,
0001
0001
0000
0100
0100
0000
1001
0000
,
1000
1000
0000
0100
0100
0000
1001
0000
,
0001
0001
1000
1000
0002
0000
0000
0000
,
1003
0100
1000
0100
0010
0001
0000
1000
,
0000
1000
0001
0100
0000
0110
0000
0110
,
0100
0000
0001
0010
0100
1000
0001
0000
,
1001
1001
0110
0110
,
0010
0100
1000
0010
0100
0001
0000
0001
,
0000
1000
0100
1000
0000
1001
0000
1001
,
1000
0000
0100
0010
0100
1000
0010
0000
,
1000
1000
0001
0001
2000
0000
0000
0000
,
3001
0000
1001
0000
,
1001
0000
0110
0000
1001
0000
0001
0001
,
0010
0100
1000
0010
0001
0010
1000
1000
,
0100
0010
0001
0100
1000
0100
0001
0001
,
0010
0100
0000
0010
0100
0000
0000
0000
1100
0000
0000
0000
1001
0000
0000
0000
,
0001
0100
0010
1000
0001
0001
1000
1000
,
0001
0000
0000
0001
0010
0000
0100
0000
0000
1000
0010
0000
1000
0000
1000
0000
,
0001
0000
0000
0001
1000
0000
0010
0000
0000
0010
0100
0000
0001
0000
0001
0000
,
1000
0000
0000
1000
0010
0000
0100
0000
0000
0100
0001
0000
1000
0000
1000
0000
,
0100
0010
0100
0010
0001
1000
0001
1000
,
0000
1001
2000
0001
,
0100
0000
3001
1000
0000
0010
0100
0001
,
2000
0100
0001
0100
,
3001
1000
0000
0100
0000
0010
0100
1000
,
0001
0000
0100
0001
0000
1000
0100
0010
,
0100
0000
1000
0001
0000
0100
0001
1000
,
0100
0001
0100
1000
,
0001
0000
0100
0000
0000
0100
0000
0000
0000
0000
0010
0000
0000
0010
0000
0000
,
0000
1001
0002
1000
,
0100
0000
1003
0001
0000
0100
0010
1000
,
2000
0001
0100
0001
,
3100
1000
0000
0010
0000
0100
0001
0010
,
0100
0000
1000
0010
0000
1000
0001
0010
,
0100
0000
0010
0001
0000
0100
0010
1000
,
0100
0001
0100
1000
,
0001
1001
0000
1001
0000
1001
0000
2000
,
0000
0000
3001
0000
1000
0010
0001
0010
,
1000
0000
0001
0000
0100
1000
0100
0001
,
1000
0000
0100
0000
0010
0100
1000
0001
,
0100
0000
0001
0000
1000
0010
0100
0020
,
0000
0000
1030
0001
0010
0100
0010
0002
,
0000
0000
0103
0010
0000
1000
0000
0002
,
0000
1000
1000
1003
,
1001
0001
0000
0101
0000
0110
0000
0000
,
0000
0000
1000
0000
1010
0000
0000
0000
0010
0000
0000
0100
0000
0000
0001
0000
,
0000
0000
1000
0000
1100
0000
0000
0000
0100
0000
0000
0010
0000
0000
0001
0000
,
0000
0000
0010
0000
0011
0000
0000
0000
0100
0000
0000
1000
0000
0000
0010
0000
,
0000
1000
0100
0010
0001
1000
0100
0010
,
0001
0000
0000
0000
1001
0000
0000
0000
0001
0000
0000
0100
0000
0000
0010
0000
,
0000
0000
1000
0000
1001
0000
0000
0000
0001
0000
0000
0010
0000
0000
0100
0000
,
0000
1000
0010
1000
0100
0001
0100
1000
,
0000
1001
0000
1001
0000
1001
0000
1001
,
0000
0000
1001
0000
0000
1100
0000
1001
,
0001
0010
0100
0000
0000
1100
0000
1001
,
0001
0100
0010
0000
1000
0000
0010
0000
,
1001
0000
0011
0000
1100
1000
0001
0010
,
0100
0000
1001
0001
0100
0000
0001
1000
,
0001
0000
1001
1000
0100
0000
0010
0001
,
1001
0000
0000
1100
0000
0011
0000
0000
,
1001
0000
0001
0000
1000
0000
0100
0000
0010
0000
0001
0000
1000
0000
0010
1000
,
0000
0000
1001
0000
0011
0010
0100
1000
,
0001
0000
0101
0000
1001
1000
0010
0200
,
0000
0000
0301
1001
0000
1100
0000
0010
,
0100
0000
0101
0000
1001
1000
0010
0100
,
0001
0000
0101
0100
0010
1000
0100
0020
,
0000
0030
0011
0001
1000
0010
0100
0020
,
0000
0030
1001
0001
0010
0100
1000
0002
,
0000
0003
0101
0110
0000
0000
0110
0000
,
1010
0000
1001
0000
0000
0001
0100
0000
0010
0000
0100
0000
0100
0000
0001
0000
,
1001
0000
1001
0000
1001
0001
0100
0000
,
0001
0100
1000
0100
0001
1000
1100
1001
,
0001
0010
1000
0010
0001
1000
1010
1001
,
0001
0010
0000
0001
0010
0000
0000
0000
0001
0000
0010
0000
1000
0000
0010
0000
,
0001
0100
1000
0100
0001
1000
1001
1001
,
0001
0000
0000
0001
0100
0000
0010
0000
0000
0010
1000
0000
0001
0000
1001
0000
,
1000
0000
0000
1000
0100
0000
0010
0000
0000
0010
0001
0000
1000
0000
1001
0000
,
0001
0000
0000
0001
0100
0000
0010
0000
0000
0010
1000
0000
0001
0000
1001
0000
,
1000
0010
1000
0000
0020
0000
0000
0000
0130
0010
0100
0000
0002
0000
0000
0000
,
0013
0001
0010
0000
0200
0000
0000
0000
1300
0010
1000
0000
0020
0000
0000
0000
,
1030
0001
1000
0000
1001
0000
0000
0000
0011
0000
0000
0000
1100
0000
0000
0000
,
1001
0000
0110
0000
0000
0000
0000
2002
,
0000
0000
0000
0000
,
0000
0000
0000
0000
0000
0000
0000
3003
;

//---------------dance-single - ----------------
#NOTES:
     dance-single:
     :
     Challenge:
     14:
     0.710,0.804,0.519,0.281,0.291:
1000
0000
0000
0100
0000
0000
0010
0000
0000
0100
0000
0000
2000
0000
0000
0000
,
3001
0000
0000
0100
0000
0000
0010
0000
0000
0100
0000
0000
0002
0000
0000
0000
,
0013
0000
0000
0100
0000
0000
1000
0000
0000
0001
0000
0000
0200
0000
0000
0000
,
0301
0000
0001
0000
1000
0000
1000
0000
0100
1000
0100
0000
0010
0100
0010
0000
,
0001
0010
0100
1000
0001
0100
0000
0002
,
0000
1003
0100
0010
0000
0101
0000
0101
,
0001
1000
0010
0001
0010
1000
0010
0100
,
0110
0000
1001
0000
0110
0100
1001
1000
,
0001
0010
0100
1000
0010
0001
0010
0200
,
0000
0301
1000
0010
0000
1010
0000
1010
,
1000
0001
0010
1000
0010
0001
1000
0100
,
1000
0000
1000
0000
0001
0000
0001
0000
0100
0001
0100
0000
0010
0100
0010
0000
,
1000
0000
0100
0010
0001
0000
0001
0000
1000
0000
0100
0010
0001
0000
0001
0000
,
0100
0000
0010
1000
0010
0000
0100
0001
0100
0001
0100
0000
1001
0000
0000
0000
,
1000
0000
0100
1000
0010
0000
0100
0010
0100
0010
0100
0000
1001
0000
0001
0000
,
1000
0000
0100
0010
0001
0000
1000
0010
1000
0010
1000
0000
1001
0000
0001
0000
,
1000
0010
0000
1000
0001
0000
0010
0000
0100
1000
0100
0000
1000
0001
1000
0000
,
0001
0010
0100
1000
1100
0100
0110
0010
,
0001
0100
0000
0100
0010
0000
1000
0100
0000
0100
0010
0000
0101
0000
0100
0000
,
0001
1000
0000
1000
0100
0000
0010
0001
0000
0001
0100
0000
1001
0000
0001
0000
,
1000
0100
0000
0100
0010
0000
0001
0100
0000
0100
0010
0000
1001
0000
1000
0000
,
0001
0010
0100
1000
0010
0001
0010
1000
,
0001
0000
1001
0000
1000
0001
0100
0002
,
0000
1003
0100
0020
0000
0130
1000
0001
,
1001
1000
0100
0001
0100
0000
1000
0000
,
0100
0110
0000
0011
0000
1001
1000
0010
,
0110
0000
0100
0001
1000
0100
0010
0100
,
1100
0000
0010
0002
0000
0013
0100
1000
,
1001
0002
0000
0103
0010
1000
0010
0001
,
0010
0000
1000
0000
0000
2002
0000
0000
3003
0000
0001
0000
0000
0202
0000
0000
,
0303
0000
1001
0000
1000
0001
0010
0200
,
0000
0310
0001
2000
0000
3001
0100
0010
,
0110
0000
0100
0001
1000
0000
0100
0000
,
0010
0110
0000
1100
0000
1001
0001
0100
,
0110
0000
1000
0020
0000
0130
0001
1000
,
1002
0000
0013
0200
0000
0310
0001
0100
,
0110
0010
0100
0001
,
1001
1100
0000
1100
0000
1100
0000
0020
,
0000
0000
0031
1000
0100
1000
0001
2000
,
0000
0000
3010
0000
0100
0001
1000
0200
,
0000
0000
0310
0000
0001
0100
0010
0200
,
0000
0000
0301
0000
1000
0100
0010
0002
,
0000
1003
0001
0100
0010
0100
0001
2000
,
0000
0000
3100
0020
0000
0032
0000
1003
,
0100
0010
0100
0000
1000
0001
0100
0000
,
0101
1001
0000
1001
0000
1001
0000
0000
,
1000
0000
0001
0000
0100
0000
0000
0000
0001
0000
1000
0100
0000
1000
0001
0000
,
0100
0000
0010
0000
1000
0000
0000
0000
0001
0000
0010
0100
0000
1000
0010
0000
,
0100
0000
0001
0000
1000
0000
0000
0000
0100
0000
0010
0001
0000
0100
0010
0000
,
0000
0110
0100
0001
0010
0100
1000
0001
,
1001
0000
1000
0000
0010
0000
0000
0000
0100
0000
0001
1000
0000
0100
1000
0000
,
0001
0000
0010
0000
0100
0000
0000
0000
0010
0000
0001
1000
0000
0010
1000
0000
,
0100
0010
0001
0100
1000
0100
0001
1000
,
0000
1001
0000
1001
0000
1001
0000
1001
,
0000
0000
1001
0000
0001
0100
0001
2000
,
0000
0100
3100
0000
0010
0001
1000
0020
,
0000
0000
1030
0001
0010
0100
0010
0001
,
1000
0000
1001
0000
0011
0010
0001
1000
,
0010
0000
1001
0002
0000
0000
1003
0010
,
0100
0000
1001
2000
0000
3100
0010
0001
,
0101
0000
0100
0110
0000
0110
0000
1010
,
1000
0100
0010
0001
0100
1000
0100
0001
,
0010
0000
1001
0000
1000
0001
0010
0200
,
0000
0000
1300
0001
0100
0001
1000
0200
,
0000
0310
0001
2000
0000
3001
0100
0010
,
0100
0000
0110
0000
1001
1000
0100
0010
,
0001
0000
0101
0100
0010
1000
0100
0020
,
0000
0030
0011
0001
1000
0010
0100
0020
,
0000
0030
1010
1000
0001
0010
0100
0020
,
0000
0030
0011
0001
1000
0010
0100
0010
,
1000
0000
1001
0000
0000
0001
0010
0000
0001
0000
1001
0000
1000
0000
0100
0010
,
0002
0000
0000
0000
0203
0000
0000
0000
0310
0000
0100
0010
0100
0000
0000
0000
,
0001
1000
0001
1000
0001
0000
1000
0100
1000
0100
1000
0000
0001
0000
1001
0000
,
1000
0010
1000
0010
1000
0000
0001
1000
0001
1000
0001
0000
1000
0000
1001
0000
,
0001
0010
0000
0001
1000
0000
0010
0000
0100
0001
0100
0000
0001
1000
0001
0000
,
1000
0100
0010
0001
0101
0100
0110
0010
,
1000
0001
0000
0001
0010
0000
0100
0010
0000
0010
0001
0000
1000
0000
1001
0000
,
0001
0100
0000
0100
0010
0000
1000
0100
0000
0100
0010
0000
0001
0000
1001
0000
,
1000
0010
0000
0010
0100
0000
0001
1000
0000
1000
0100
0000
1000
0000
1001
0000
,
0001
0010
0001
0000
1000
0000
1000
0000
0001
0010
0001
0000
1000
0000
1000
0000
,
0001
0100
0001
0000
1000
0000
1000
0000
0100
0010
0100
0000
1000
0000
1000
0000
,
0100
0010
0001
0000
0100
0000
0100
0000
0010
1000
0001
0000
0010
0000
0010
0000
,
0001
0100
0010
0000
1000
0000
1000
0000
0000
0000
0000
0000
0000
0000
2002
0000
,
0000
0000
0000
0000
,
0000
0000
0000
0000
0000
0000
0000
3003
;

//---------------dance-single - ----------------
#NOTES:
     dance-single:
     :
     Medium:
     10:
     0.467,0.477,0.400,0.197,0.000: // measure 1
1000
0001
0000
1000
0001
0000
1001
0000
,  // measure 2
0010
0001
0000
0010
0001
0000
0011
0000
,  // measure 3
0100
0010
0000
0100
0010
0000
0110
0000
,  // measure 4
1000
0001
1000
0001
2000
0000
0000
0000
,  // measure 5
3001
0100
0001
0100
0001
1000
0000
1000
,  // measure 6
0000
1000
0001
0010
0000
0011
0000
0001
,  // measure 7
1000
0000
0010
0000
0100
0001
0100
0000
,  // measure 8
1001
1001
1001
1001
,  // measure 9
0001
0010
0001
0010
0001
1000
0000
1000
,  // measure 10
0000
1000
0001
0100
0000
0101
0000
0001
,  // measure 11
0000
1001
0000
0000
1100
0000
0010
0000
,  // measure 12
0001
1000
0001
1000
0002
0000
0000
0000
,  // measure 13
1003
0000
1001
0000
,  // measure 14
1001
1000
1000
1001
,  // measure 15
0001
0010
0100
0000
0100
0000
1100
0000
,  // measure 16
1000
0100
0010
0000
0010
0000
0011
0000
,  // measure 17
0001
1000
0010
0000
1000
0001
1000
0010
,  // measure 18
0100
0000
0101
0000
0001
0010
0100
1000
,  // measure 19
0002
0100
0103
1001
,  // measure 20
2000
0100
3100
1001
,  // measure 21
0002
0010
0013
1001
,  // measure 22
1000
0010
0100
0000
0010
0100
0001
1000
,  // measure 23
0000
1001
1000
0100
,  // measure 24
0001
0000
0100
0000
1000
0000
0010
0100
,  // measure 25
0001
0010
1000
0010
,  // measure 26
0001
1000
0000
0100
0000
0010
0000
0001
,  // measure 27
1000
0000
0001
0100
0000
0001
1000
0100
,  // measure 28
0010
0000
0001
1000
0000
0100
1000
0010
,  // measure 29
0100
0001
1000
0100
,  // measure 30
0000
2200
0000
0000
0000
0000
0000
0000
,  // measure 31
3300
0000
1001
0000
0001
0100
0001
0100
,  // measure 32
0000
0001
1000
0100
0000
0000
0010
0001
,  // measure 33
1000
0100
0001
0100
,  // measure 34
1000
0001
0000
0010
0000
0100
0000
1000
,  // measure 35
0001
0000
0010
0001
0000
0100
0010
1000
,  // measure 36
0100
0000
0010
0100
0000
1000
0001
0010
,  // measure 37
0100
1000
0010
0100
,  // measure 38
2002
0000
0000
0000
,  // measure 39
3003
0001
0100
1000
,  // measure 40
0100
0001
0010
1000
,  // measure 41
0010
0001
0100
1000
,  // measure 42
0100
0000
0001
0000
0010
0000
0100
0020
,  // measure 43
0000
0000
0031
2000
0000
0000
3100
0020
,  // measure 44
0000
0000
0031
1000
0000
0100
0000
0020
,  // measure 45
0000
0001
0001
0031
,  // measure 46
1000
0001
0000
0101
0000
0110
0000
0000
,  // measure 47
0000
0010
0010
0000
1000
0100
0010
0100
,  // measure 48
0000
1000
1000
0000
0010
0100
0001
0010
,  // measure 49
0000
0001
0001
0000
0010
0100
1000
0001
,  // measure 50
0000
1000
0100
1000
0100
0010
0001
0010
,  // measure 51
0000
0001
0001
0000
0100
0010
1000
0010
,  // measure 52
0000
0100
0100
0000
0001
0010
0100
0010
,  // measure 53
0000
0001
0001
0000
0010
0100
0000
1000
,  // measure 54
0000
1100
0000
1001
0000
1100
0000
1001
,  // measure 55
0000
1001
0011
1100
,  // measure 56
0000
0000
1001
0000
1000
0010
0100
0000
,  // measure 57
0101
0000
0001
1000
0000
0100
0000
1000
,  // measure 58
0001
1001
1010
0101
,  // measure 59
0000
0000
0001
2000
0000
0000
3010
0200
,  // measure 60
0000
0000
0301
2000
0000
3010
0100
0020
,  // measure 61
0000
0000
0000
1000
0000
1000
0000
0000
,  // measure 62
1030
0000
0000
0000
1001
0000
0001
0001
,  // measure 63
1000
0000
1100
0000
0010
0000
0001
0200
,  // measure 64
0000
0000
0301
0000
1000
0100
1000
0200
,  // measure 65
0000
0000
0000
0010
0000
0010
0000
0310
,  // measure 66
0000
0000
1001
0000
0001
0010
0100
0000
,  // measure 67
1000
0000
1002
0000
0000
0010
0000
0013
,  // measure 68
0000
0000
2001
0000
0000
0100
0000
3100
,  // measure 69
0000
0000
1002
0000
0000
0100
0000
0103
,  // measure 70
0000
0000
0001
2000
0000
0000
0100
0000
,  // measure 71
3100
0010
0000
0010
0000
0001
0001
0001
,  // measure 72
0100
0010
1001
0000
,  // measure 73
1000
0100
0010
0000
0101
0000
1001
0000
,  // measure 74
1000
0100
0010
0000
0101
0000
1001
0000
,  // measure 75
1100
1100
0011
0011
,  // measure 76
0001
1000
0010
0000
0100
0001
0100
0001
,  // measure 77
2000
0100
3100
1001
,  // measure 78
0002
0100
0103
1001
,  // measure 79
2000
0010
3010
1001
,  // measure 80
0001
0001
1000
0000
0001
0001
0010
0000
,  // measure 81
0001
0001
1000
0000
0001
0001
0010
0000
,  // measure 82
0100
0100
0010
0000
0001
0001
0100
0000
,  // measure 83
0010
0010
1000
0000
0000
0000
0000
2002
,  // measure 84
0000
0000
0000
0000
,  // measure 85
0000
0000
0000
0000
0000
0000
0000
3003
;

//---------------dance-single - ----------------
#NOTES:
     dance-single:
     :
     Beginner:
     3:
     0.144,0.291,0.133,0.000,0.000:
1000
0000
0000
0000
,
1000
0000
0000
0000
,
0001
0000
0000
0000
,
1001
0000
0000
0000
,
0001
0000
0000
0000
,
0100
0000
0000
0000
,
0010
0000
0000
0000
,
0100
0000
0100
0000
,
0001
0000
0000
0000
,
1000
0000
0000
0000
,
0100
0000
0000
0000
,
1000
0000
1000
0000
,
1001
0000
0001
0000
,
0001
0000
0000
0000
,
1000
0000
0000
0100
,
0000
0000
0000
1000
,
0000
0000
0000
0010
,
0000
0000
0100
0100
,
0100
0000
0000
0001
,
0000
0000
0000
1000
,
0000
0000
0000
0001
,
1000
1000
1000
0000
,
0000
1001
0000
0001
,
0000
1000
0000
0001
,
0000
1000
0000
0100
,
0000
1000
0000
0100
,
0000
0010
0000
0100
,
0000
0010
0000
0001
,
0000
0010
0000
0001
,
0000
0000
0000
0000
,
0000
1001
0000
1000
,
0000
0001
0000
1000
,
0000
0001
0000
1000
,
0000
0001
0000
0000
,
1001
0000
1000
0000
,
1001
0000
0001
0000
,
1001
0000
0000
0000
,
1001
0000
0000
0000
,
0001
0000
0000
0000
,
0100
0000
0000
0000
,
0001
0000
0000
0000
,
1000
0000
0000
0000
,
0100
0000
0000
0000
,
0010
0000
0000
0000
,
0001
0000
0000
0000
,
1001
0000
0000
0000
,
1000
0000
0000
0000
,
0010
0000
0000
0000
,
0100
0000
0000
0000
,
0010
0000
0000
0000
,
1000
0000
0000
0000
,
0001
0000
0000
0000
,
0010
0000
0010
0000
,
0010
0000
0000
0000
,
0000
1001
0000
1000
,
0000
0001
0000
1000
,
0000
0100
0000
1000
,
0000
0001
0000
0000
,
0000
0100
0000
0010
,
0000
0100
0000
0001
,
0000
0100
0000
0010
,
0000
0000
0000
0000
,
0000
1001
0000
0001
,
0000
1000
0000
0001
,
0000
0010
0000
0001
,
0000
1000
0000
0000
,
0010
0000
0000
0000
,
0000
0100
0000
0000
,
0000
0001
0000
0000
,
0000
1000
0000
0000
,
1001
0000
0000
0000
,
0001
0001
0001
0000
,
1000
0000
0000
0100
,
1000
0000
0000
0010
,
0100
0000
0000
0001
,
0010
0000
0001
0001
,
0001
0000
0000
0100
,
0010
0000
0000
1000
,
0100
0000
0000
1000
,
0001
0000
1001
0000
,
1001
0000
1001
0000
,
1001
0000
1001
0000
,
1001
0000
0000
0000
0000
0000
0000
1001
;
