#TITLE:Reflection Into the EDEN;
#SUBTITLE:;
#ARTIST:猫叉Master;
#TITLETRANSLIT:;
#SUBTITLETRANSLIT:;
#ARTISTTRANSLIT:Nekomata Master;
#CREDIT:DigiMindAxel;
#BANNER:Reflection Into the EDEN.png;
#BACKGROUND:Reflection Into the EDEN-bg.png;
#LYRICSPATH:;
#CDTITLE:beatmania IIDX.png;
#MUSIC:Reflection Into the EDEN.ogg;
#METERTYPE:DDR X;
#OFFSET:-0.432;
#SAMPLESTART:80.065;
#SAMPLELENGTH:12.000;
#SELECTABLE:YES;
#BPMS:0.000=110.000;
#STOPS:;
#BGCHANGES:-4.000=Reflection Into the EDEN.avi=1.000=1=1=0,
99999=-nosongbg-=1.000=0=0=0 // don't automatically add -songbackground-
;

//---------------dance-single - ----------------
#NOTES:
     dance-single:
     :
     Easy:
     3:
     0.189,0.197,0.086,0.408,0.000:
0000
0000
0000
0000
,
0000
0000
0000
0000
,
0000
0000
0000
0000
,
0000
0000
0000
0000
,
2000
0000
0000
0000
,
3200
0000
0000
0000
,
0320
0000
0000
0000
,
0032
0000
0000
0000
,
2003
0000
0000
3010
,
0200
0000
0320
0000
,
2230
0000
0000
3100
,
0020
0000
0032
0000
,
0203
0000
0000
0301
,
2000
0000
3200
0000
,
0320
0000
0000
0031
,
0200
0000
0000
0300
,
1001
0000
0000
0000
,
1001
0000
0000
0000
,
1001
0000
0000
0000
,
1001
0000
0000
0000
,
0001
0100
0001
0000
,
1000
0100
1000
0000
,
0001
1000
0001
1000
,
0100
1000
0100
0000
,
0010
0001
0010
0000
,
0100
0010
0100
0000
,
1000
0100
1000
0100
,
1000
0001
1000
0000
,
0200
0000
0320
0000
,
0032
0000
2003
0000
,
3020
0000
0030
0100
,
0002
0000
0023
0000
,
0230
0000
2300
0000
,
3002
0000
2003
0000
,
3200
0000
0310
0001
,
1001
0000
0000
0000
,
0000
0000
2000
0000
,
3010
0100
0002
0000
,
0103
0010
2000
0000
,
3100
0010
0001
1000
,
0100
0010
0002
0000
,
0003
1000
0200
0000
,
0320
0000
0031
1000
,
0100
0010
0002
0000
,
0000
0103
0020
0000
,
1030
0001
0020
0000
,
0230
0000
1300
0001
,
0100
0001
1000
0100
,
0020
0000
0130
0000
,
0000
1000
1002
0000
,
0023
0000
0230
0000
,
0310
0001
2000
0000
,
0000
3000
2002
0000
,
0000
3003
0220
0000
,
0000
0330
2002
0000
,
0000
3003
0220
0000
,
0000
0330
2002
0000
,
0000
3003
0002
0000
,
0000
0003
2000
0000
,
0000
3000
0200
0000
,
0320
0000
0000
0000
,
0030
0000
0000
0000
;

//---------------dance-single - ----------------
#NOTES:
     dance-single:
     :
     Medium:
     7:
     0.321,0.350,0.416,0.193,0.000: // measure 1
0000
0000
0000
0000
,  // measure 2
0000
0000
0000
0000
,  // measure 3
0000
0000
0000
0000
,  // measure 4
0000
0000
0000
0000
,  // measure 5
2000
0000
0000
0000
,  // measure 6
3020
0000
0000
0000
,  // measure 7
0230
0000
0000
0000
,  // measure 8
0301
0001
0001
0001
,  // measure 9
1001
0001
0100
0101
,  // measure 10
1001
1000
1100
0100
,  // measure 11
0110
0001
1000
1001
,  // measure 12
1001
0011
0011
1001
,  // measure 13
0110
0100
0001
0011
,  // measure 14
1001
1000
1010
0010
,  // measure 15
0110
0100
0001
1001
,  // measure 16
1100
0010
0001
1000
,  // measure 17
2002
0000
3003
0000
,  // measure 18
2002
0000
3003
0000
,  // measure 19
2002
0000
3003
0000
,  // measure 20
2002
0000
3003
0000
,  // measure 21
0001
0100
0010
0000
0100
0010
0100
0000
,  // measure 22
0001
0010
0100
0000
0010
0001
0010
0000
,  // measure 23
0100
1000
0100
0000
0010
0001
0010
0000
,  // measure 24
0100
1000
0100
0000
0010
0001
1000
0000
,  // measure 25
0010
0100
0001
0000
0100
0010
0100
0000
,  // measure 26
0001
1000
0100
0000
1000
0100
1000
0000
,  // measure 27
0100
0010
0001
0000
0010
0100
1000
0000
,  // measure 28
0100
0010
0001
0000
0010
0100
1000
0000
,  // measure 29
1010
0100
0110
0001
,  // measure 30
1001
1000
1100
0010
,  // measure 31
0220
0000
0330
0001
,  // measure 32
1001
1100
0110
0011
,  // measure 33
1001
1000
1010
0010
,  // measure 34
0110
0100
0101
0001
,  // measure 35
1001
1000
1100
0110
,  // measure 36
0220
0000
0000
0000
,  // measure 37
0330
0000
0000
0000
0100
0001
1000
0000
,  // measure 38
0100
1000
0100
0000
0010
0001
0010
0000
,  // measure 39
0001
0010
0100
0000
0010
0001
0010
0000
,  // measure 40
0001
1000
0010
0000
0100
0010
0100
0001
,  // measure 41
0100
0010
0100
0000
0001
1000
0100
0000
,  // measure 42
0010
0001
0010
0000
1001
0000
0100
1000
,  // measure 43
0100
0000
0010
0001
0100
0000
0010
0000
,  // measure 44
1000
0000
0100
0010
0001
0010
0100
0000
,  // measure 45
1000
1010
0110
0100
,  // measure 46
0001
0010
0100
0000
1000
0001
0100
0000
,  // measure 47
0001
0100
0001
0000
0010
0100
1000
0000
,  // measure 48
0010
0100
0010
0000
1000
0100
1000
0010
,  // measure 49
1000
0100
1000
0000
2002
0000
0000
0000
,  // measure 50
3003
0000
1001
0000
0110
0000
0100
0001
,  // measure 51
0100
0000
0100
0010
1000
0000
0100
0010
,  // measure 52
0001
0000
0110
0000
0100
1000
0010
0000
,  // measure 53
0100
0001
0100
0000
1001
0000
0100
0000
,  // measure 54
1100
0010
0110
0100
,  // measure 55
0101
0001
1001
1000
,  // measure 56
1100
0010
0110
0100
,  // measure 57
0101
0001
2002
0000
,  // measure 58
0000
3003
0022
0000
,  // measure 59
0000
0033
0220
0000
,  // measure 60
0000
0330
2200
3300
,  // measure 61
2002
0000
0000
0000
,  // measure 62
3003
0000
0000
0000
;

//---------------dance-single - ----------------
#NOTES:
     dance-single:
     :
     Hard:
     11:
     0.477,0.546,0.215,0.301,0.577: // measure 1
0000
0000
0000
0000
,  // measure 2
0000
0000
0000
0000
,  // measure 3
0000
0000
0000
0000
,  // measure 4
0000
0000
0000
0000
,  // measure 5
0000
2000
0000
0000
0000
0000
0000
0000
0000
0000
0000
0000
0000
0100
0000
0000
,  // measure 6
0000
3200
0000
0000
0000
0000
0000
0000
0000
0000
0000
0000
0000
0010
0000
0000
,  // measure 7
0000
0320
0000
0000
0000
0000
0000
0000
0000
0000
0000
0000
0000
0001
0000
0000
,  // measure 8
0000
0032
0000
0000
0000
0000
0000
0000
0000
0000
1003
0010
0000
1000
0010
0000
,  // measure 9
0100
0000
0001
0000
0010
0000
0000
0100
0000
0100
0000
0000
0010
0000
0000
0000
,  // measure 10
0001
0000
1000
0000
0010
0000
0000
0100
0000
0100
0000
0000
0010
0000
0000
0000
,  // measure 11
1000
0000
0100
0000
0010
0000
0000
0100
0000
0100
0000
0000
0010
0000
0000
0000
,  // measure 12
0101
0110
1100
1001
,  // measure 13
1000
0001
0000
0100
0000
0001
0000
1000
0000
1000
0000
0000
0100
0000
0000
0000
,  // measure 14
0010
0001
0000
0100
0000
0010
0000
1000
0000
1000
0000
0000
0100
0000
0000
0000
,  // measure 15
0010
0100
0000
1000
0000
0010
0000
0100
0000
0100
0000
0000
0001
0000
0000
0000
,  // measure 16
0100
0000
0100
0000
0010
1000
0000
0010
1000
0001
0010
0100
0010
0100
0010
0100
,  // measure 17
2000
0000
3000
0000
,  // measure 18
0200
0000
0300
0000
,  // measure 19
0020
0000
0030
0000
,  // measure 20
0002
0000
0000
0000
0000
0000
0000
0000
0000
0000
0000
0000
1003
0000
0010
0000
0010
0000
0100
0000
0000
0001
0000
0000
,  // measure 21
0001
0000
1000
0010
0000
1000
0000
0001
0000
0001
0000
0100
0010
0000
1000
0000
,  // measure 22
1000
0000
0100
0010
0000
0001
0000
0100
0000
0100
0000
0010
1000
0000
0100
0000
,  // measure 23
0100
0000
0010
0001
0000
0000
1000
0000
0010
0000
0010
0100
0000
0000
0001
0000
,  // measure 24
0100
0000
0100
0010
0000
0000
1000
0000
0100
0000
0100
0010
0000
0000
0001
0000
,  // measure 25
1001
0000
1000
0001
0000
0010
0000
0100
0000
0100
0000
0010
0001
0000
1000
0000
,  // measure 26
1000
0000
0001
1000
0000
0010
0000
0100
0000
0100
0000
0010
1000
0000
0001
0000
,  // measure 27
0001
0000
1000
0100
0000
0000
0010
0000
0001
0000
0001
0100
0000
0000
0010
0000
,  // measure 28
1000
0000
1000
0100
0000
0000
0010
0000
0001
0000
0001
0100
0000
0000
0110
0000
,  // measure 29
2001
3100
1002
0013
,  // measure 30
0201
0310
1020
0130
,  // measure 31
0012
0000
0000
0000
0000
0000
1000
0000
0000
0000
0000
0000
0013
0000
0000
0000
0000
0000
1100
0000
0000
0000
1000
0001
,  // measure 32
2000
3020
0230
0301
,  // measure 33
2001
3100
1002
0013
,  // measure 34
0210
1300
0120
0031
,  // measure 35
1002
0000
0000
0000
0000
0000
0013
0000
0000
0000
0000
0000
1100
0000
0000
0000
0000
0000
1001
0000
0000
0000
0001
1000
,  // measure 36
0002
0000
0000
0000
0000
0000
0000
0003
,  // measure 37
1000
0001
1000
0001
1000
0000
1000
0000
0001
0100
0001
0100
0001
0000
1000
0100
,  // measure 38
0000
1000
0000
0010
0200
0000
0000
0000
0301
1000
0001
1000
0001
0000
0100
0001
,  // measure 39
0000
0010
0000
0001
0200
0000
0000
0000
0310
1000
0010
1000
0010
0000
1000
0001
,  // measure 40
0000
0010
0000
0001
2000
0000
0000
0000
3001
0000
0000
0100
0010
0000
0000
0010
,  // measure 41
2000
0000
0000
0000
0001
0000
0000
0000
3001
0010
0001
0010
0001
0000
1000
0010
,  // measure 42
1000
0000
0000
0001
0000
0000
0010
0000
0000
0100
0000
0000
1000
0000
0000
0000
1000
0000
0000
0000
0001
0000
0000
0000
0200
0000
0000
0000
0000
0000
0000
0000
0000
0000
0000
0000
0310
0000
0000
0000
0000
0000
1000
0000
0000
0100
0000
0000
,  // measure 43
0010
0000
0001
0000
1000
0010
0000
0000
1000
0001
1000
0001
1000
0000
0100
0010
,  // measure 44
0001
0000
1000
0000
0020
0000
0000
0000
1030
0001
0000
0010
0000
0001
1000
0100
,  // measure 45
0010
0100
1000
0010
1000
0000
0001
0000
0100
0010
0100
0010
0100
0000
0001
1000
,  // measure 46
0000
0010
0000
1000
0001
0010
0000
0000
0010
0100
0010
0100
0010
0000
0001
1000
,  // measure 47
0000
0100
0000
1000
0001
0100
0000
0000
0100
0010
0100
0010
0100
0000
0001
1000
,  // measure 48
0000
0100
0000
1000
0002
0000
0000
0000
1003
0000
0000
0001
0100
0000
0000
0100
,  // measure 49
0020
0000
0000
0000
1000
0000
0000
0000
1030
0000
0000
1001
0000
1001
0000
0011
,  // measure 50
0000
0011
0000
0100
1000
0000
1100
0000
1000
0001
1000
0001
1000
0000
0010
0100
,  // measure 51
0001
0000
1000
0000
0001
0010
0000
0000
0010
0100
0010
0100
0010
0000
0001
0100
,  // measure 52
0010
0100
0001
0000
1000
0001
0000
0000
0001
0100
0001
0100
0001
0000
1000
0100
,  // measure 53
0010
0100
1000
0010
1000
0001
0000
0000
1000
0001
1000
0000
0001
0010
0001
0010
,  // measure 54
0100
0000
0010
0100
1000
0000
0001
1000
0001
0000
0100
0000
1000
0000
0100
0000
,  // measure 55
0001
0000
0010
0000
1000
0000
0010
0000
0001
0010
0002
0000
1003
0000
0001
1000
,  // measure 56
0002
0000
0013
0000
0100
1000
0001
1000
1001
0000
0001
0100
0000
0001
0100
0000
,  // measure 57
0010
0000
0000
1000
0000
0000
0000
0000
0000
0010
0000
0000
1000
0000
0000
0000
1000
0000
0000
0000
0100
0000
0000
0000
0220
0000
0000
0000
0000
0000
0000
0000
0000
0000
0000
0000
0000
0000
0000
0000
0000
0000
0000
0000
0000
0000
0000
0000
,  // measure 58
0000
0330
0202
0000
,  // measure 59
0000
0303
2002
0000
,  // measure 60
0000
3003
2020
3030
,  // measure 61
0220
0000
0000
0000
,  // measure 62
0330
0000
0000
0000
;

//---------------dance-single - ----------------
#NOTES:
     dance-single:
     :
     Beginner:
     1:
     0.071,0.107,0.064,0.000,0.000:
0000
0000
0000
0000
,
0000
0000
0000
0000
,
0000
0000
0000
0000
,
0000
0000
0000
0000
,
0000
0000
0000
0000
,
0000
0000
0000
0000
,
0000
0000
0000
0000
,
0000
0000
0000
0000
,
1001
0000
0000
0000
,
1000
0000
0000
0000
,
0001
0000
0000
0000
,
1000
0000
0000
0000
,
1001
0000
0000
0000
,
0001
0000
0000
0000
,
1000
0000
0000
0000
,
0001
0000
0000
0000
,
0110
0000
0000
0000
,
0100
0000
0000
0000
,
0110
0000
0000
0000
,
0100
0000
0000
0000
,
1001
0000
0000
0000
,
1000
0000
0000
0000
,
0010
0000
0100
0000
,
0010
0000
0100
0000
,
0001
0000
0000
0000
,
1000
0000
0000
0000
,
0100
0000
0010
0000
,
0100
0000
0010
0000
,
0001
0000
0000
0000
,
0100
0000
0000
0000
,
0010
0000
0000
0000
,
1000
0000
0000
0000
,
0001
0000
0000
0000
,
0010
0000
0000
0000
,
0100
0000
0000
0000
,
1001
0000
0000
0000
,
0000
0000
0001
0000
,
0000
0000
0010
0000
,
0000
0000
0100
0000
,
0000
0000
0010
0000
,
0000
0000
0001
0000
,
0000
0000
1000
0000
,
0000
0000
0010
0000
,
0000
0000
0100
0000
,
0000
0000
1001
0000
,
0000
0000
0001
0000
,
1000
0000
0001
0000
,
0000
0000
1000
0000
,
0100
0000
1000
0000
,
0000
0000
1001
0000
,
0001
0000
1000
0000
,
0000
0000
0001
0000
,
0000
0000
0100
0000
,
0000
0000
0010
0000
,
0000
0000
1000
0000
,
0000
0000
0010
0000
,
0000
0000
0110
0000
,
0000
0000
0100
0000
,
0000
0000
0100
0000
,
0000
0000
0100
0000
,
0100
0000
0000
0000
;
