#TITLE:Reanimation;
#SUBTITLE:;
#ARTIST:DC feat.S!N;
#TITLETRANSLIT:;
#SUBTITLETRANSLIT:;
#ARTISTTRANSLIT:;
#CREDIT:DigiMindAxel;
#BANNER:Reanimation.png;
#BACKGROUND:Reanimation-bg.png;
#LYRICSPATH:Reanimation.lrc;
#CDTITLE:CROSSxBEATS.png;
#MUSIC:Reanimation.ogg;
#METERTYPE:DDR X;
#OFFSET:-10.014;
#SAMPLESTART:75.348;
#SAMPLELENGTH:12.000;
#SELECTABLE:YES;
#BPMS:0.000=205.000,192.000=102.500,208.000=205.000;
#STOPS:;
#BGCHANGES:;

//---------------dance-single - ----------------
#NOTES:
     dance-single:
     :
     Easy:
     5:
     0.257,0.288,0.029,0.185,0.000:
1000
0000
0001
0000
,
0100
0000
0000
0000
,
0001
0000
1000
0000
,
0100
0000
0000
0000
,
0010
0000
0001
0000
,
1000
0000
0000
0000
,
2002
0000
0000
0000
,
0000
0000
3003
0000
,
1000
0100
1000
0000
,
0001
1000
0001
0000
,
0100
0001
0100
0000
,
0001
1000
0001
0000
,
1000
0100
1000
0000
,
0001
1000
0001
0000
,
0100
0010
0100
0000
,
0001
1000
0100
0010
,
0001
0100
0001
0000
,
1000
0001
1000
0000
,
0100
1000
0100
0000
,
1000
0001
1000
0100
,
0010
0001
0100
0000
,
0001
0100
0010
0000
,
0100
0010
1000
0000
,
0002
0000
0000
0000
,
1003
0000
0010
0000
,
0100
0000
0001
0000
,
1000
0000
0100
0000
,
0010
0000
0001
0000
,
1000
0000
0010
0000
,
0100
0000
0001
0000
,
1000
0000
0100
0000
,
0010
0000
0001
0000
,
2000
0000
3002
0000
,
1003
0100
1000
0000
,
0001
0000
0100
0010
,
0100
0000
0001
0000
,
1000
0100
1000
0000
,
0001
0000
0100
0000
,
0010
0100
0010
0000
,
1000
0001
1000
0000
,
0002
0000
0000
0000
,
0203
0000
0000
0000
,
0320
0000
0000
0000
,
2030
0000
0000
0000
,
3001
0000
0100
0000
,
0010
0000
1000
0000
,
0100
0010
0100
0000
,
1000
0010
0100
0000
,
0002
0000
2003
0000
,
3200
0000
0300
0000
,
2000
0000
3002
0000
,
0023
0000
0030
0000
,
1001
0000
0001
0100
,
0010
0000
0100
0000
,
0001
0010
0100
0000
,
1000
0000
0010
0100
,
0001
0000
1000
0000
,
0100
1000
0010
0000
,
0100
0001
0010
0000
,
0100
0000
1000
0000
,
0001
0010
0100
0000
,
0010
0000
0001
0000
,
0100
0010
1000
0000
,
0010
0000
0100
0000
,
0001
1000
0100
0000
,
0010
0001
1000
0000
,
0100
0010
0001
0010
,
0100
0000
1000
0000
,
0020
0000
0000
0000
,
0200
0000
0000
0000
,
0330
0000
0000
0000
,
0110
0000
0000
0000
,
0020
0000
0000
0000
,
0200
0000
0000
0000
,
0330
0000
0000
0000
;

//---------------dance-single - ----------------
#NOTES:
     dance-single:
     :
     Medium:
     10:
     0.518,0.505,0.136,0.331,0.000: // measure 1
1000
0000
0000
0001
0000
0000
0100
0000
,  // measure 2
0001
0000
1000
0100
,  // measure 3
0010
0000
0000
0100
0000
0000
1000
0000
,  // measure 4
0001
0000
0100
0010
,  // measure 5
1000
0000
0000
0100
0000
0000
0010
0000
,  // measure 6
0100
0000
1000
0001
,  // measure 7
0200
0000
0000
0000
,  // measure 8
0010
0000
0310
0000
,  // measure 9
1001
0000
1000
0010
0000
1000
0010
0000
,  // measure 10
0100
0001
0000
0100
0001
0000
0010
0000
,  // measure 11
0100
0000
1000
0001
0000
1000
0001
0000
,  // measure 12
0010
0001
0010
0001
0010
0000
0100
0000
,  // measure 13
1000
0000
0001
0100
0000
0001
0100
0000
,  // measure 14
0010
1000
0000
0010
1000
0000
0001
0000
,  // measure 15
0010
0000
0100
1000
0000
0100
1000
0000
,  // measure 16
0010
0100
0010
0100
0010
0000
1000
0000
,  // measure 17
0001
0000
0100
0001
0000
0100
0010
0000
,  // measure 18
0100
0001
0000
0100
0010
0000
1000
0000
,  // measure 19
0100
0000
0010
0100
0000
1000
0100
0000
,  // measure 20
0010
0100
0000
1000
0100
0000
0010
0000
,  // measure 21
0001
0000
0100
0001
0000
0010
0100
0000
,  // measure 22
0010
0001
0000
0100
0010
0000
1000
0000
,  // measure 23
0100
0000
0010
0001
0000
0100
0010
0000
,  // measure 24
2002
0000
0000
3003
,  // measure 25
1100
0010
0002
0100
,  // measure 26
0203
0000
0010
0000
0310
1000
0010
0000
,  // measure 27
1000
0100
0020
0001
,  // measure 28
0032
0000
1000
0000
1003
0100
1000
0000
,  // measure 29
0010
0100
0002
0100
,  // measure 30
0203
0000
0010
0000
0310
1000
0010
0000
,  // measure 31
2000
0100
3200
0010
,  // measure 32
0320
0001
0031
0000
,  // measure 33
0201
0000
0010
0010
,  // measure 34
0310
0000
1000
0000
0100
0010
0100
0000
,  // measure 35
1000
0001
0200
0010
,  // measure 36
0310
1000
0100
0000
0010
0100
0010
0000
,  // measure 37
0001
1000
0100
0000
0020
0000
0001
0000
,  // measure 38
0032
0000
0100
0000
0103
0010
0100
0000
,  // measure 39
0001
1000
0010
0000
0100
0010
0100
0000
,  // measure 40
0002
0000
1000
0000
1003
0010
0100
0010
,  // measure 41
1000
0000
0001
0100
0000
0001
0100
0000
,  // measure 42
0001
0000
0010
0100
0010
0000
0001
1000
,  // measure 43
0100
0000
0010
0001
0000
0010
0001
0000
,  // measure 44
1000
0010
0100
0000
0010
0100
0010
0000
,  // measure 45
1000
0000
0001
0100
0000
0001
0100
0000
,  // measure 46
0010
1000
0100
0000
0010
0100
0010
0000
,  // measure 47
0001
0000
1000
0100
0000
1000
0100
0000
,  // measure 48
0010
0001
0100
0000
0010
0100
0010
0000
,  // measure 49
2002
0000
0000
0003
0200
0000
0000
3000
,  // measure 50
0020
0000
0000
0000
0330
0001
0010
0100
,  // measure 51
2000
0000
0000
0000
0020
0000
0000
3000
,  // measure 52
0200
0000
0330
0000
,  // measure 53
1001
0000
0001
1000
0000
0100
1000
0000
,  // measure 54
0010
0100
0010
0100
0010
0100
0010
0000
,  // measure 55
1000
0000
0010
0100
0000
0001
0100
0000
,  // measure 56
0001
1000
0001
0000
0010
0100
1000
0000
,  // measure 57
0001
0000
0100
0001
0000
0010
0100
0000
,  // measure 58
1000
0010
0100
0000
0010
0100
0010
0000
,  // measure 59
0100
0000
0001
0010
0000
0100
1000
0000
,  // measure 60
0010
0100
0010
0000
1000
0001
1000
0000
,  // measure 61
1001
0000
1000
0001
0000
0010
0100
0000
,  // measure 62
1000
0001
0100
0000
0001
0100
0001
0000
,  // measure 63
0010
0000
0100
1000
0000
0001
0010
0000
,  // measure 64
0100
0010
0001
0000
0100
0001
0100
0000
,  // measure 65
0001
0000
1000
0010
0000
0100
0001
0000
,  // measure 66
0010
0100
1000
0000
0001
0100
0001
0000
,  // measure 67
0100
0010
1000
0000
0010
0100
0001
0000
,  // measure 68
2001
0000
3100
0000
,  // measure 69
1001
0002
0000
0000
,  // measure 70
0103
0220
0000
0330
,  // measure 71
1001
2000
0000
0000
,  // measure 72
3010
0220
0000
0330
,  // measure 73
1001
0002
0000
0000
,  // measure 74
0013
0220
0000
0000
,  // measure 75
0330
0000
0000
0000
;

//---------------dance-single - ----------------
#NOTES:
     dance-single:
     :
     Hard:
     12:
     0.597,0.541,0.234,0.302,0.010: // measure 1
0001
0000
1000
0010
0000
1000
0001
0000
,  // measure 2
0010
0100
0000
0010
0100
1000
0001
0000
,  // measure 3
1001
0000
0001
0010
0000
0100
0010
0000
,  // measure 4
0001
0100
0000
0001
0100
0010
0100
0000
,  // measure 5
0110
0000
1000
0100
0000
1000
0001
0000
,  // measure 6
0100
0010
0000
0100
0010
1000
0001
0000
,  // measure 7
2001
0000
0100
0000
,  // measure 8
3200
0000
1000
0000
,  // measure 9
1300
0000
0010
0100
0000
0100
0001
0000
,  // measure 10
0010
0100
1000
0100
0010
0000
0001
0100
,  // measure 11
0010
0000
1000
0001
0000
0001
0010
0000
,  // measure 12
0100
1000
0010
1000
0100
0000
0010
0000
,  // measure 13
0001
0000
0100
0010
0000
0010
1000
0000
,  // measure 14
0100
0010
0001
0010
0100
0000
1000
0000
,  // measure 15
0010
0000
0100
0001
0000
0001
1000
0000
,  // measure 16
0010
0100
0001
0100
0010
0000
0100
0001
,  // measure 17
1000
0000
0100
0010
0000
0010
0001
0000
,  // measure 18
1000
0010
0100
0010
1000
0000
0100
0010
,  // measure 19
0001
0000
0100
0010
0000
0010
1000
0000
,  // measure 20
0001
0010
0100
0010
0001
0000
0100
0001
,  // measure 21
1000
0000
0100
1000
0000
1000
0010
0000
,  // measure 22
0100
0001
0010
0100
0010
0000
0001
0000
,  // measure 23
0100
0000
0010
1000
0000
1000
0100
0000
,  // measure 24
1200
0000
2300
0000
,  // measure 25
3001
0100
0120
0000
,  // measure 26
1030
0100
0010
0001
1000
0100
1000
0000
,  // measure 27
0100
0010
0012
0000
,  // measure 28
0103
0010
1000
0010
0100
0001
0010
0000
,  // measure 29
0100
1000
1010
0010
,  // measure 30
0110
0000
0100
0000
0001
0010
0100
0010
,  // measure 31
0001
0100
0110
0010
,  // measure 32
1010
1000
0001
0000
,  // measure 33
2001
0000
3200
0010
,  // measure 34
0310
0001
1000
0010
1000
0000
0001
0000
,  // measure 35
0010
0100
1000
0000
1000
0100
0010
0000
,  // measure 36
0010
0001
0100
0000
0100
0010
1000
0000
,  // measure 37
0001
0100
0001
0000
0010
0100
1000
0001
,  // measure 38
0200
0000
0010
0000
0310
1000
0100
0000
,  // measure 39
0010
0001
1000
0000
1000
0001
0010
0000
,  // measure 40
0100
1000
0010
0100
0001
0100
1000
0100
,  // measure 41
0001
0000
0010
0100
0000
1000
0001
0100
,  // measure 42
0001
0000
1000
0100
1000
0001
0010
1000
,  // measure 43
0010
0000
0001
1000
0000
0001
0100
0010
,  // measure 44
0100
0001
1000
0100
1000
0000
0001
0000
,  // measure 45
0100
0000
0010
1000
0000
0100
0010
0001
,  // measure 46
1000
0010
1000
0001
0000
0010
0100
0000
,  // measure 47
1000
0000
0001
0100
0000
0001
1000
0100
,  // measure 48
1000
0010
0100
0000
0001
1000
0100
0000
,  // measure 49
1002
0000
0000
0023
0000
0000
0200
0000
0000
0000
0000
0000
0000
0000
0030
0000
,  // measure 50
2000
0000
0000
0000
3300
1000
0100
0010
,  // measure 51
2001
0000
0000
3020
0000
0000
0200
0000
0000
0000
0000
0000
0000
0000
0030
0000
,  // measure 52
0002
0000
0303
0000
,  // measure 53
1001
0000
1000
0010
0000
1000
0001
0000
,  // measure 54
0010
0100
1000
0100
0010
0100
1000
0010
,  // measure 55
0100
0000
0001
1000
0000
0100
1000
0000
,  // measure 56
0001
0100
0010
0100
0001
0100
0010
1000
,  // measure 57
0100
0000
0010
0100
0000
1000
0010
0000
,  // measure 58
0100
0001
1000
0100
1000
0001
0100
0000
,  // measure 59
0001
0000
0010
0100
0000
1000
0010
0000
,  // measure 60
0100
0000
0001
1000
0100
0010
0100
0000
,  // measure 61
1001
0000
0001
0100
0000
0001
1000
0000
,  // measure 62
0100
0010
0001
0010
0100
0010
0001
1000
,  // measure 63
0010
0000
0100
0001
0000
0010
0100
0000
,  // measure 64
1000
0001
0010
0000
0100
0010
0001
0000
,  // measure 65
1001
0000
1000
0100
0000
1000
0001
0000
,  // measure 66
0100
0010
1000
0010
0100
0010
1000
0000
,  // measure 67
0100
0010
0001
0000
0001
1000
0010
0000
,  // measure 68
0101
0202
0000
0303
,  // measure 69
0020
0200
0000
0330
,  // measure 70
1100
2200
0000
3300
,  // measure 71
0200
0020
0000
0330
,  // measure 72
0101
0202
0000
0303
,  // measure 73
2000
0002
0000
3003
,  // measure 74
0110
0220
0000
0000
,  // measure 75
0330
0000
0000
0000
;

//---------------dance-single - ----------------
#NOTES:
     dance-single:
     :
     Challenge:
     15:
     0.818,0.829,0.234,0.682,0.317: // measure 1
1001
0000
2000
0020
3030
0020
0200
0330
,  // measure 2
0200
0002
0303
0001
1000
0100
0001
0100
,  // measure 3
1000
0000
0002
0020
0033
0020
0200
0330
,  // measure 4
0200
2000
3300
1000
0001
0010
1000
0010
,  // measure 5
0001
0000
0200
0002
0303
0002
2000
3003
,  // measure 6
2000
0200
3300
0200
0020
0330
0010
0001
,  // measure 7
2000
0000
3200
0000
,  // measure 8
0320
0000
0032
0000
,  // measure 9
1003
0000
0020
0100
0000
0230
0001
0000
,  // measure 10
0301
0000
0010
0000
0100
0000
1000
0001
1000
0000
0000
0000
0001
0000
1000
0000
,  // measure 11
0100
0000
0020
0001
0000
0032
1000
0000
,  // measure 12
1003
0000
0001
0000
0010
0000
0100
1000
0100
0000
1000
0000
0001
0100
0001
0000
,  // measure 13
1000
0000
0200
1000
0000
2300
0001
0000
,  // measure 14
3001
0000
1000
0000
0100
0010
0100
0000
1000
0000
0001
0000
0100
0000
0000
0000
,  // measure 15
0001
1000
0200
0010
0000
0320
0001
0000
,  // measure 16
0031
0000
1000
0000
0100
0000
0010
0000
0001
0100
0001
0000
1000
0000
0100
1000
,  // measure 17
0100
0000
0000
0000
0010
0000
0001
0100
0001
0000
0100
0000
0010
0000
0000
0000
,  // measure 18
1000
0000
0100
0000
0001
0000
0100
0000
1000
0001
1000
0000
0001
0000
0010
0000
,  // measure 19
0100
0000
2000
0001
0000
3002
0100
0000
,  // measure 20
0103
0000
0001
0000
1000
0000
0100
0000
0010
0100
0010
0000
0001
0000
0100
0001
,  // measure 21
0100
0000
0002
1000
0000
2003
0100
0000
,  // measure 22
3100
0010
0001
0100
1000
0100
0001
0000
,  // measure 23
0100
0000
0010
0000
1000
0001
1000
0000
0100
0000
0010
0000
0001
0000
0100
0010
,  // measure 24
0100
0010
0100
0010
0100
0010
1000
0100
1000
0100
1000
0100
,  // measure 25
0010
0001
2001
0100
,  // measure 26
3001
0000
1000
0000
0100
0000
0010
0000
0100
0000
1000
0000
0001
0100
0001
0100
,  // measure 27
0001
1000
1002
0010
,  // measure 28
1003
0001
0100
0010
0100
0001
1000
0100
,  // measure 29
0010
0000
0100
0000
1100
0000
0100
1000
,  // measure 30
0001
0000
0000
0000
1000
0000
0001
0000
1000
0000
0000
0000
0100
0010
0100
0010
,  // measure 31
0100
1000
0001
0000
0100
0001
1000
0000
,  // measure 32
0100
0010
0001
0010
0100
1000
0001
0000
,  // measure 33
2000
0000
0000
0000
0000
0000
0000
0000
0000
3001
0000
0000
1000
0000
0010
0000
0001
0000
0010
0000
1000
0000
0001
0000
,  // measure 34
1000
0010
1000
0000
0001
0000
0010
0000
0100
1000
0100
0000
1000
0001
1000
0000
,  // measure 35
0001
0010
0100
0010
0001
1000
0010
1000
,  // measure 36
0001
0010
0001
0000
1000
0000
0100
0000
0010
0001
0010
0000
0001
1000
0001
0000
,  // measure 37
1000
0100
0010
0100
1000
0001
0100
0000
,  // measure 38
0001
0000
1000
0000
0100
0000
0010
0001
0010
0000
0001
0000
1000
0000
0000
0000
,  // measure 39
0001
0000
1000
0000
0100
0000
1000
0000
0001
0100
0001
0000
1000
0000
0000
0000
,  // measure 40
0100
0000
0000
0000
0000
0000
0010
0000
0000
0000
0000
0000
0001
0000
0000
0000
0000
0000
0100
0000
0000
0000
0000
0000
0001
0000
0000
0000
0010
0000
0000
0000
0100
0000
0000
0000
1000
0000
0000
0000
0000
0000
0001
0000
0000
1000
0000
0000
,  // measure 41
0001
0000
0000
0000
0200
0000
0001
0000
0000
0000
0301
0000
1000
0100
1000
0000
,  // measure 42
0001
0000
0100
0000
1000
0000
0100
0000
0001
1000
0001
0000
1000
0010
1000
0000
,  // measure 43
0001
0010
0200
1000
0000
1300
0001
0000
,  // measure 44
1000
0000
0010
0000
0001
0000
0010
0000
1000
0010
1000
0000
0001
1000
0001
0000
,  // measure 45
1000
0000
0200
0010
0000
0310
0001
0000
,  // measure 46
1000
0000
0010
0000
0001
0000
0010
0000
1000
0001
1000
0000
0001
0010
0001
0000
,  // measure 47
1000
0000
0020
0100
0000
0130
0001
1000
,  // measure 48
0100
0000
0010
0000
0001
0000
0010
0000
0100
0000
0000
0000
1000
0001
1000
0000
,  // measure 49
1001
0000
0000
0011
0000
0000
2100
0000
0000
0000
0000
0000
0000
0000
0000
0000
,  // measure 50
0001
0002
0000
0000
3003
1000
0100
0010
,  // measure 51
0101
0000
0000
1010
0000
0000
1002
0000
0000
0000
0000
0000
0000
0000
0000
0000
,  // measure 52
0100
0000
0200
0000
0000
0000
0303
0000
0100
0010
0100
0010
2000
0000
0000
0000
,  // measure 53
3001
0000
0200
0010
0000
0310
1000
0000
,  // measure 54
0001
0000
0010
0000
1000
0000
0010
0000
0001
0000
1000
0000
0010
1000
0010
0000
,  // measure 55
1000
0000
0100
0000
0010
0000
0002
0000
0000
0100
0000
0000
0000
0000
0000
0103
0000
0000
0010
0000
0000
0000
0000
0000
,  // measure 56
1000
0001
0020
0001
0031
0100
0010
0100
,  // measure 57
0002
0000
0000
0000
0103
0000
0010
0100
0010
0000
1000
0000
0100
0000
0010
0000
,  // measure 58
0001
0100
0001
0000
1000
0000
0010
0000
0100
0000
0000
0000
0001
1000
0001
1000
,  // measure 59
0001
1000
0020
0100
0000
0130
0001
0000
,  // measure 60
1000
0000
0010
0000
0001
0000
0010
0000
1000
0000
0100
0000
0010
0001
0010
0000
,  // measure 61
0100
0000
2000
0010
0000
3010
0100
0001
,  // measure 62
1000
0010
0001
0010
1000
0100
0010
0001
,  // measure 63
0100
0000
0000
0000
0001
0000
0000
0000
1000
0000
0000
0000
0200
0000
0000
0000
0000
0000
0010
0000
0000
0000
0000
0000
0000
0000
0000
0000
0000
0000
0310
0000
0000
0000
0000
0000
0001
0000
0000
0100
0000
0000
0001
0000
0000
0000
0000
0000
,  // measure 64
1000
0000
0100
0000
0010
0000
0000
0000
0001
1000
0001
0000
0010
0000
0100
0000
,  // measure 65
1000
0000
0001
0100
0001
1000
0010
0100
,  // measure 66
0001
0100
1000
0100
0001
0000
0010
0100
,  // measure 67
2000
0000
0000
0000
3001
0100
0001
0000
1000
0000
0001
0000
0100
0010
0100
0000
,  // measure 68
0110
2002
0000
3003
,  // measure 69
1010
2020
0000
3030
,  // measure 70
0110
0022
0000
0033
,  // measure 71
0110
0220
0000
0330
,  // measure 72
1100
2002
0000
3003
,  // measure 73
0101
0202
0000
0303
,  // measure 74
1010
0220
0000
0000
,  // measure 75
0330
0000
0000
0000
;

//---------------dance-single - ----------------
#NOTES:
     dance-single:
     :
     Beginner:
     3:
     0.118,0.213,0.107,0.000,0.000:
1000
0000
0000
0000
,
0000
0000
0000
0000
,
0001
0000
0000
0000
,
0000
0000
0000
0000
,
1000
0000
0000
0000
,
0000
0000
0000
0000
,
0001
0000
0000
0000
,
0000
0000
0000
0000
,
1001
0000
0000
0000
,
1000
0000
0000
0000
,
0010
0000
0000
0000
,
1000
0000
0000
0000
,
0001
0000
0000
0000
,
0010
0000
0000
0000
,
0001
0000
0000
0000
,
1000
0000
0010
0000
,
1000
0000
0000
0000
,
0001
0000
0000
0000
,
0010
0000
0000
0000
,
0001
0000
0100
0000
,
0010
0000
0000
0000
,
0100
0000
0000
0000
,
0001
0000
0000
0000
,
1000
0000
0000
0000
,
1001
0000
0000
0000
,
0001
0000
0000
0000
,
1000
0000
0000
0000
,
1000
0000
0000
0000
,
0001
0000
0000
0000
,
0001
0000
0000
0000
,
0010
0000
0000
0000
,
0100
0000
0000
0000
,
0000
0000
0000
0000
,
1000
0000
0000
0000
,
0001
0000
0000
0000
,
0100
0000
0000
0000
,
0001
0000
0000
0000
,
1000
0000
0000
0000
,
0100
0000
0000
0000
,
0010
0000
0000
0000
,
0001
0000
1000
0000
,
0001
0000
0000
0000
,
1000
0000
0001
0000
,
1000
0000
0000
0000
,
0001
0000
1000
0000
,
0001
0000
0000
0000
,
1000
0000
0001
0000
,
1000
0000
0000
0000
,
1001
0000
0000
0000
,
0000
0000
0000
0000
,
1001
0000
0000
0000
,
0000
0000
0000
0000
,
1001
0000
0000
0000
,
0001
0000
0000
0000
,
1000
0000
0000
0000
,
0001
0000
0000
0000
,
0010
0000
0000
0000
,
0100
0000
0000
0000
,
1000
0000
0000
0000
,
1000
0000
0000
0000
,
0010
0000
0000
0000
,
0100
0000
0000
0000
,
0001
0000
0000
0000
,
0001
0000
0000
0000
,
1000
0000
0000
0000
,
0010
0000
0100
0000
,
0010
0000
0000
0000
,
0010
0000
0000
0000
,
1001
0000
0000
0000
,
1001
0000
0000
0000
,
1001
0000
0000
0000
,
1001
0000
0000
0000
,
1001
0000
0000
0000
,
1001
0000
0000
0000
;
