#TITLE:Realize Maze;
#SUBTITLE:;
#ARTIST:movies (moimoi×Xceon×Dai.);
#TITLETRANSLIT:;
#SUBTITLETRANSLIT:;
#ARTISTTRANSLIT:movies (moimoi x Xceon x Dai.);
#CREDIT:DigiMindAxel;
#BANNER:Realize Maze.png;
#BACKGROUND:Realize Maze-bg.png;
#LYRICSPATH:Realize Maze.lrc;
#CDTITLE:pop'n music.png;
#MUSIC:Realize Maze.ogg;
#METERTYPE:DDR X;
#OFFSET:-8.361;
#SAMPLESTART:55.808;
#SAMPLELENGTH:12.000;
#SELECTABLE:YES;
#BPMS:0.000=149.000;
#STOPS:;
#BGCHANGES:;

//---------------dance-single - ----------------
#NOTES:
     dance-single:
     :
     Easy:
     3:
     0.204,0.251,0.199,0.153,0.000:
2000
0000
0000
0000
,
3002
0000
0000
0000
,
2003
0000
0000
0000
,
3002
0000
2003
0000
,
3001
0000
0000
0000
,
1001
0000
0010
0010
,
0010
0000
0100
0100
,
0100
0000
0001
0000
,
1000
0000
0001
0000
,
1001
0000
0100
0100
,
0100
0000
0010
0010
,
0010
0000
0110
0000
,
1001
0000
0000
0000
,
0002
0000
0000
0000
,
2003
0000
0000
0000
,
3002
0000
0000
0000
,
2003
0000
0000
0000
,
3001
0000
0100
0000
,
0001
0000
1000
0000
,
0001
0000
0010
0000
,
0100
0000
0000
0000
,
1001
0000
0100
0000
,
0010
0000
0001
0000
,
0110
0000
0110
0000
,
0110
0000
0000
0000
,
1001
0000
0010
0000
,
0100
0000
1000
0000
,
0110
0000
0110
0000
,
0110
0000
0000
0000
,
1001
0000
0000
0000
,
1001
0000
0001
1000
,
0001
0000
1000
0001
,
1000
0100
0010
0001
,
0100
0010
0100
0000
,
0110
0000
0001
1000
,
0001
0000
1000
0001
,
1000
0000
1001
0000
,
0110
0000
0000
0000
,
0020
0000
0000
0000
,
0230
0000
0000
0000
,
0320
0000
0000
0000
,
0230
0000
0000
0000
,
0310
0000
0000
0000
,
0010
0000
0000
0000
,
0000
0010
0000
0010
,
0010
0000
0000
0000
,
1001
0000
0001
0100
,
0001
0000
1000
0001
,
1000
0100
0010
0001
,
2000
0000
0000
0000
,
3002
0000
0000
0000
,
0003
0000
0000
0000
,
0000
1001
0010
0100
,
1000
0001
1000
0100
,
0010
0000
0001
0000
,
0100
0010
0100
0010
,
1000
0000
0001
1000
,
0001
0000
1000
0100
,
1001
0000
1001
0000
,
0110
0000
0000
0000
,
0110
0000
0010
0100
,
0001
0000
0010
0001
,
0100
0010
0100
0010
,
1000
0000
0000
0000
,
1001
0000
0001
1000
,
0001
0000
1000
0100
,
1000
0000
1001
0000
,
0110
0000
0000
0000
,
0020
0000
0000
0000
,
0230
0000
0000
0000
,
0320
0000
0230
0000
,
0302
0000
0000
0000
,
0000
0000
0000
0000
,
0003
0000
0000
0000
;

//---------------dance-single - ----------------
#NOTES:
     dance-single:
     :
     Medium:
     6:
     0.332,0.391,0.199,0.130,0.000:
1000
0001
1000
0001
,
1000
0001
1000
0001
,
0010
0100
1000
0001
,
0010
0100
0010
0100
,
2000
0000
0000
0000
,
3001
0000
0000
0000
1000
0001
1000
0000
,
0100
0000
0000
0000
0010
0001
0010
0000
,
0001
0100
0010
0100
,
0000
0000
0001
1000
0000
0100
1000
0100
,
1000
0000
0000
0000
0001
1000
0001
0000
,
1000
0000
0000
0000
0100
1000
0100
0000
,
0110
0000
0110
0000
,
2002
0000
0000
3003
,
0001
0100
0001
0100
,
0001
1000
0001
1000
,
0001
0010
0001
0010
,
0001
1000
0001
1000
,
0100
1000
0100
0000
0010
0000
0010
0000
,
0001
0100
0001
0000
0100
0000
0100
0000
,
0010
0000
0000
1000
0000
0000
0001
0000
,
0010
0000
0000
0100
0000
0000
0000
0000
,
1001
0000
0000
0000
1000
0100
1000
0000
,
0010
0000
0000
0000
0100
0001
0100
0000
,
0001
1001
0001
1001
,
1000
0000
0000
0000
0010
0100
0010
0100
,
0001
0000
1000
0000
0100
1000
0100
0000
,
0010
0000
0001
0000
1000
0100
1000
0000
,
0010
0110
0010
0110
,
0200
0000
0000
0000
,
0310
0000
0000
0000
,
1001
0000
0001
0000
1000
0100
1000
0100
,
0010
0000
0001
0000
0100
0001
0100
0001
,
0010
0100
1000
0010
,
0100
0000
0001
1000
0000
0001
1000
0000
,
0100
0000
1000
0000
0100
0010
0100
0010
,
0001
0000
1000
0000
0001
0100
0001
0100
,
0010
0000
0110
0000
,
2002
0000
0000
3003
,
1000
0000
0000
0000
,
0100
0000
0000
0000
,
0010
0000
0001
0000
,
0100
0000
0010
0000
,
0120
0000
0000
0000
,
2030
0000
0000
0000
,
3001
1001
0000
1001
,
0000
1001
0100
0010
,
0001
0000
0100
0000
0010
0100
0010
0000
,
1000
0000
0100
0000
0010
0001
0010
0000
,
0001
1001
1000
1001
,
0002
0000
0000
0000
,
2003
0000
3200
0000
,
2300
0000
0000
3000
,
0000
0000
1001
0000
0001
0100
0001
0100
,
0010
0000
1000
0000
0100
0010
0100
0010
,
0001
0000
1000
0001
0000
1000
0001
0000
,
0100
0000
0010
0100
0000
0010
0100
0000
,
0001
0000
1000
0100
1000
0100
0010
0000
,
0001
0000
0100
0010
0100
0010
1000
0000
,
0001
1001
1000
1001
,
0110
0000
0100
0100
,
1001
0000
1000
0000
0010
0100
0010
0100
,
0001
0000
0010
0000
0100
1000
0100
1000
,
0001
0000
0010
0100
0000
0010
0100
0000
,
1000
0000
0001
0100
0000
0001
1000
0000
,
1001
0000
0001
0000
1000
0100
1000
0100
,
0010
0000
0001
0000
0100
0010
0100
0010
,
1000
0000
1001
0000
,
0110
0000
0100
0100
,
1002
0000
0000
0000
,
0203
0000
0000
0000
,
0320
0000
0230
0000
,
0302
0000
0000
0000
,
0000
0000
0000
0000
,
0003
0000
0000
0000
;

//---------------dance-single - ----------------
#NOTES:
     dance-single:
     :
     Hard:
     9:
     0.434,0.447,0.184,0.199,0.076: // measure 1
1020
1000
0100
0130
,  // measure 2
0002
0010
0100
0013
,  // measure 3
0200
1000
0010
1300
,  // measure 4
0020
0001
1000
0031
,  // measure 5
0210
0000
0000
0310
,  // measure 6
1001
0000
1000
0010
0001
0010
0100
0001
,  // measure 7
1000
0000
0001
0010
0100
0001
0100
1000
,  // measure 8
0001
0000
0100
0001
0000
1000
0000
1000
,  // measure 9
0000
0000
0001
0001
0000
0100
0100
0001
,  // measure 10
1000
0000
0001
0100
1000
0100
0010
1000
,  // measure 11
0001
0000
1000
0010
0001
0010
0100
0001
,  // measure 12
1000
0000
0000
1000
0000
0000
0100
0000
0010
0000
0000
0010
0000
0000
0001
0000
,  // measure 13
0200
0000
0010
0310
,  // measure 14
1000
0100
1000
0000
0010
0000
0001
0000
,  // measure 15
0010
0100
0010
0000
0001
0000
0100
0000
,  // measure 16
1000
0001
1000
0000
0100
0000
0001
0000
,  // measure 17
0100
0010
0100
0000
0001
0000
0100
0000
,  // measure 18
1000
0000
0100
0000
0000
1000
0000
0000
0010
0000
0000
0100
0000
0000
0001
0000
,  // measure 19
0000
0000
0010
0000
0000
0100
0000
0000
1000
0000
0000
0010
0000
0000
0100
0000
,  // measure 20
0001
0000
0000
1000
0000
0000
0001
0000
0000
0000
0000
0000
1000
0000
0001
0000
,  // measure 21
1000
0000
0000
0010
0000
0000
0110
0000
0000
0000
0000
0000
0000
0000
0000
0000
,  // measure 22
2001
0000
0000
0000
3100
0010
0001
0010
,  // measure 23
0200
0000
0000
0000
1300
0010
0100
0010
,  // measure 24
1000
1001
0100
1001
,  // measure 25
0011
0000
0000
0001
0010
0100
1000
0001
,  // measure 26
0200
0000
0001
0000
0301
1000
0100
1000
,  // measure 27
0002
0000
0010
0000
0013
0100
1000
0100
,  // measure 28
0010
0000
0000
0010
0000
0000
0001
0000
0100
0000
0000
0100
0000
0000
0010
0000
,  // measure 29
2000
0000
0000
0000
,  // measure 30
3100
0000
0000
0000
,  // measure 31
1001
0000
0001
0100
1000
0100
0010
1000
,  // measure 32
0001
0000
1000
0010
0001
0010
0100
0001
,  // measure 33
1000
0000
0100
1000
0000
0001
0010
0100
,  // measure 34
0000
0000
1000
1000
0000
0010
0010
0100
,  // measure 35
0001
0000
1000
0100
0001
0100
0010
0001
,  // measure 36
1000
0000
0001
0010
1000
0010
0100
1000
,  // measure 37
0001
0000
0000
0010
0000
0000
0100
0000
1000
0000
0000
0010
0000
0000
0100
0000
,  // measure 38
0020
0000
1000
1030
,  // measure 39
0002
0000
0103
0100
,  // measure 40
0002
0000
0103
0100
,  // measure 41
1020
0000
0230
0000
,  // measure 42
0301
1000
0001
0000
,  // measure 43
1002
0000
0000
0000
,  // measure 44
0203
0000
0000
0000
,  // measure 45
0310
1100
0010
0101
,  // measure 46
0010
0000
0000
0000
0010
0001
1000
0100
,  // measure 47
0010
0000
0001
1000
0100
1000
0001
0010
,  // measure 48
0100
0000
1000
0001
0100
0001
1000
0100
,  // measure 49
0010
0000
0000
0010
0000
0000
0001
0000
1000
0000
0000
1000
0000
0000
0010
0000
,  // measure 50
0100
0110
1001
0110
,  // measure 51
0010
1000
0001
0010
0100
1000
0001
0010
,  // measure 52
0200
0000
0000
0300
,  // measure 53
0000
0000
1001
0000
1000
0010
0001
0010
,  // measure 54
0100
0000
0001
0100
1000
0100
0010
1000
,  // measure 55
0001
0000
0100
0010
0000
1000
0000
1000
,  // measure 56
0000
0000
0100
0100
0000
0010
0001
1000
,  // measure 57
1001
0000
1000
0010
0001
0010
0100
0000
,  // measure 58
0001
0000
1000
0100
0001
1000
0100
0010
,  // measure 59
1000
0000
0000
1000
0000
0000
0001
0000
0100
0000
0000
0100
0000
0000
0010
0000
,  // measure 60
2000
0000
0001
3001
,  // measure 61
0110
0000
0001
0010
0001
0100
0010
0001
,  // measure 62
0010
0000
0100
0000
1000
0010
0100
1000
,  // measure 63
0100
0000
0001
1000
0000
0100
1000
0010
,  // measure 64
0100
0000
0001
0001
0000
0010
0001
1000
,  // measure 65
1001
0000
0110
0000
0100
0001
0010
0001
,  // measure 66
1000
0000
0010
0001
0010
1000
0100
0010
,  // measure 67
0001
0000
0000
0001
0000
0000
0010
0000
0100
0000
0000
0100
0000
0000
1000
0000
,  // measure 68
0002
0000
1000
1003
,  // measure 69
0220
0000
0000
0330
,  // measure 70
0202
0000
0000
0303
,  // measure 71
1001
0000
0000
0001
0000
0000
0010
0000
0100
0000
0000
0100
0000
0000
1000
0000
,  // measure 72
0002
0000
0000
0000
,  // measure 73
0000
0000
0000
0000
,  // measure 74
0003
0000
0000
0000
;

//---------------dance-single - ----------------
#NOTES:
     dance-single:
     :
     Challenge:
     12:
     0.611,0.586,0.436,0.161,0.401: // measure 1
1001
0000
0010
0000
0100
1000
0001
1000
,  // measure 2
0100
0000
0010
0001
0100
0001
0010
0000
,  // measure 3
0100
0000
0000
0100
0000
0000
1000
0000
0010
0000
0000
0010
0000
0000
0100
0000
,  // measure 4
0001
0000
1000
0000
0001
0000
1000
0000
0100
0010
0100
0010
0100
0000
1000
0001
,  // measure 5
2000
0000
0000
0000
0000
3010
0110
0000
,  // measure 6
1001
0000
0000
0000
1000
0000
0001
0000
1000
0010
0000
1000
0000
0000
0001
0000
,  // measure 7
0010
0000
0000
0000
0100
0000
0010
0000
0001
0100
0000
0001
0000
0000
0100
0000
,  // measure 8
0010
0100
0001
0010
0100
1000
0100
0010
,  // measure 9
0001
0000
0100
0110
0000
0110
0010
0100
,  // measure 10
1001
0000
0000
0000
0001
0000
1000
0000
0001
0010
0000
0100
0000
0000
1000
0000
,  // measure 11
0010
0000
0000
0000
0100
0000
0001
0000
0010
0100
0000
1000
0000
0000
0001
0000
,  // measure 12
0101
0000
0000
0101
0000
0000
1000
0000
1100
0000
0000
1100
0000
0000
0010
0000
,  // measure 13
0110
0000
0000
0000
0100
0000
0000
0000
0100
0010
0100
0010
1000
0000
0001
1000
,  // measure 14
0001
0000
0010
0000
0001
0000
0010
0000
0100
0000
0000
1000
0000
0000
0001
0000
,  // measure 15
0000
0000
0100
0000
0001
0000
0010
0000
0001
0000
0000
0100
0000
0000
0010
0000
,  // measure 16
0000
0000
1000
0000
0001
0000
0100
0000
0001
0000
0000
0010
0000
0000
0100
0000
,  // measure 17
1000
0000
0000
0001
0000
0000
0010
0000
0200
0000
0000
0000
1300
0000
0001
0000
,  // measure 18
1000
0000
0100
0000
0010
0000
0001
0000
0100
0001
0000
0100
0001
0000
1000
0000
,  // measure 19
0000
0000
0100
0000
0010
0000
0001
0000
0100
0001
0000
0100
0001
0000
1000
0000
,  // measure 20
0100
0000
1000
0100
0000
1000
0001
0000
0000
0000
0010
0000
0100
0000
1000
0000
,  // measure 21
0010
0000
0100
0001
0000
1000
0100
0000
0010
0000
0001
0000
1000
0001
1000
0001
,  // measure 22
0200
0000
0000
0000
0001
0000
0000
0000
0301
0000
0000
1000
0000
0000
0100
0000
,  // measure 23
0020
0000
0000
0000
0001
0000
0000
0000
0031
0000
0000
0100
0000
0000
0010
0000
,  // measure 24
1000
0001
1001
0000
0100
0001
0101
0000
,  // measure 25
0100
0000
0000
0000
0100
0000
0010
0000
0001
0100
0001
0100
0010
0000
1000
0001
,  // measure 26
1000
0000
0000
0000
0100
0000
0010
0000
0001
0000
1000
0010
0000
1000
0010
0000
,  // measure 27
0100
0000
0000
0000
0001
0000
0010
0000
0100
0000
0010
0001
0000
0100
0010
0000
,  // measure 28
1010
0000
0000
1010
0000
0000
0100
0000
0110
0000
0000
0110
0000
0000
0001
0000
,  // measure 29
0101
0000
0000
0100
0000
0100
0010
0100
,  // measure 30
1001
0000
0000
0000
,  // measure 31
1001
0000
0000
0000
0001
0000
0100
0000
0001
1000
0000
0200
0000
0000
1300
0000
,  // measure 32
0010
0000
0000
0000
0100
0000
0001
0000
0010
0100
0000
2000
0000
0000
3100
0000
,  // measure 33
0010
0001
0010
1000
0010
0001
1000
0010
,  // measure 34
1000
0000
0100
1100
0000
0110
0100
0010
,  // measure 35
1001
0000
0000
0000
0100
0000
0001
0000
0010
0100
0000
2000
0000
0000
3010
0000
,  // measure 36
0110
0000
0100
0010
0001
0100
1000
0100
,  // measure 37
0011
0000
0000
0011
0000
0000
0100
0000
0110
0000
0000
0110
0000
0000
1000
0000
,  // measure 38
1001
0000
0000
0000
0001
0000
0000
0000
0100
0010
0100
0010
1000
0000
0001
1000
,  // measure 39
0001
0000
0000
0000
0000
0000
0100
0000
0100
0000
0010
0100
0000
0000
0010
0000
,  // measure 40
0100
0000
0000
0000
0000
0000
0001
0000
0001
0000
1000
0001
0000
0000
1000
0000
,  // measure 41
0100
0000
0000
0100
0000
0000
0010
0000
0001
0000
0000
0001
0000
0000
0010
0000
,  // measure 42
0100
0000
1000
0000
0100
0000
1000
0000
0100
0010
0100
0010
0001
0000
1000
0001
,  // measure 43
2000
0000
0000
0000
0000
0000
0000
0000
0100
0000
0000
0100
0000
0000
3100
0000
,  // measure 44
0020
0000
0000
0000
0000
0000
0000
0000
0001
0000
0000
0001
0000
0000
0031
0000
,  // measure 45
1000
0110
0001
0110
,  // measure 46
1001
0000
0000
0000
0000
0000
0000
0000
1000
0010
1000
0010
0100
0000
0001
1000
,  // measure 47
0001
0000
0000
0000
0010
0000
0100
0000
1000
0000
0000
0010
0000
0000
1000
0000
,  // measure 48
0001
0000
0000
0000
0100
0000
0001
0000
1000
0000
0000
0010
0000
0000
1000
0000
,  // measure 49
1010
0000
0000
1010
0000
0000
0100
0000
0110
0000
0000
0110
0000
0000
0001
0000
,  // measure 50
0011
0000
0000
0000
1001
0000
0010
0000
0100
1000
0000
0100
1000
0000
0010
0000
,  // measure 51
1000
0000
0001
1000
0001
1000
0001
0000
0010
0000
0100
0010
0100
0010
0100
0000
,  // measure 52
2000
0000
0001
3001
,  // measure 53
0000
0000
0000
0000
1001
0000
0001
0000
1000
0010
0000
2000
0000
0000
3001
0000
,  // measure 54
0001
0000
1000
0000
0100
0000
0010
0000
0001
1000
0000
0020
0000
0000
1030
0000
,  // measure 55
0100
1000
0010
0001
0010
1000
0001
0100
,  // measure 56
0001
0000
0100
0101
0000
0110
0010
0100
,  // measure 57
1001
0000
0000
0000
1000
0000
0010
0000
1000
0001
0000
0020
0000
0000
0031
0000
,  // measure 58
0001
0000
1000
0000
0010
0000
1000
0000
0010
0100
0000
0002
0000
0000
1003
0000
,  // measure 59
1010
0000
0000
1010
0000
0000
0100
0000
0101
0000
0000
0101
0000
0000
0010
0000
,  // measure 60
0110
0000
0000
0000
0000
0000
0000
0000
0100
0001
0100
0001
1000
0000
0001
1000
,  // measure 61
0001
0000
0000
0000
1001
0000
1000
0000
0010
0100
0000
0002
0000
0000
0013
0000
,  // measure 62
0100
1000
0001
0100
0001
1000
0010
0001
,  // measure 63
0010
1000
1100
0000
0100
0001
0110
0000
,  // measure 64
0100
0000
0000
0000
0100
0000
1000
0000
0010
0100
0010
0100
0001
0000
1000
0001
,  // measure 65
1000
0000
0000
0000
1001
0000
1000
0000
0001
0100
0000
0002
0000
0000
1003
0000
,  // measure 66
0100
0000
1000
0000
0001
0000
0100
0000
0001
1000
0000
0200
0000
0000
0310
0000
,  // measure 67
0110
0000
0000
0110
0000
0000
0001
0000
0101
0000
0000
0101
0000
0000
1000
0000
,  // measure 68
1100
0000
0000
0000
0000
0000
0000
0000
0100
0010
0100
0010
0001
0000
1000
0001
,  // measure 69
2000
0000
0100
3100
,  // measure 70
1002
0000
0100
0103
,  // measure 71
0001
0000
0000
0100
0000
0000
1000
0000
0001
0000
0000
0010
0000
0000
2000
0000
,  // measure 72
0002
0000
0000
0000
,  // measure 73
0000
0000
0000
0000
,  // measure 74
3003
0000
0000
0000
;

//---------------dance-double - ----------------
#NOTES:
     dance-double:
     :
     Easy:
     4:
     0.217,0.251,0.222,0.153,0.000:
20000000
00000000
00000000
00000000
,
30020000
00000000
00000000
00000000
,
20030000
00000000
00000000
00000000
,
30020000
00000000
20030000
00000000
,
30010000
00000000
00000000
00000000
,
10010000
00000000
10000000
01000000
,
10000000
00000000
00010000
00100000
,
00010000
00000000
00100000
00000000
,
00001000
00000000
00010000
00000000
,
00011000
00000000
00000010
00000100
,
00000010
00000000
00001000
00000001
,
00001000
00000000
00001001
00000000
,
00000110
00000000
00000000
00000000
,
00000001
00000000
00000001
00000000
,
00000010
00000000
00000010
00000000
,
00000100
00000000
00000100
00000000
,
00001000
00000000
00001000
00000000
,
00000001
00001000
00000001
00000000
,
00010000
00001000
00010000
00000000
,
00001000
01000000
00001000
00000000
,
02200000
00000000
03300000
00000000
,
10020000
00000000
10000000
00000000
,
10030000
00000000
00100000
00000000
,
10010000
00000000
10010000
00000000
,
10010000
00000000
00000000
00000000
,
00021000
00000000
00000001
00000000
,
00030001
00000000
00000100
00000000
,
00001001
00000000
00001001
00000000
,
00001001
00000000
00000000
00000000
,
00000220
00000000
00000000
00000330
,
00001001
00000000
00000001
00000010
,
00000001
00000000
00000100
00000010
,
00000100
00000001
00000010
00000100
,
00010000
00001000
00010000
00000000
,
00011000
00000000
00001000
01000000
,
00001000
00000000
01000000
00100000
,
01000000
00000000
01100000
00000000
,
10010000
00000000
00000000
00000000
,
20000000
00000000
00000000
00000000
,
32000000
00000000
00000000
00000000
,
03200000
00000000
00000000
00000000
,
00320000
00000000
00000000
00000000
,
00031000
00000000
00000000
00000000
,
00000100
00000000
00000000
00000000
,
00000000
00000010
00000000
00000001
,
00001001
00000000
00000000
00000000
,
00001001
00000000
00000001
00000100
,
00000001
00000000
00000100
00000010
,
00010000
00001000
00100000
01000000
,
20000000
00000000
00000000
00000000
,
30020000
00000000
00000000
00000000
,
00030000
00000000
00000000
00000000
,
00000000
10010000
10000000
00010000
,
01000000
00100000
01000000
00001000
,
00010000
00000000
00000100
00000000
,
00000010
00000001
00000010
00000001
,
00000100
00000000
00000010
00001000
,
00000010
00000000
00010000
00001000
,
00011000
00000000
01100000
00000000
,
10010000
00000000
00000000
00000000
,
10010000
00000000
10000000
00010000
,
00100000
00000000
00010000
00100000
,
00001000
00010000
00000100
00000010
,
00000001
00000000
00000000
00000000
,
00001001
00000000
00000100
00000010
,
00000100
00000000
00000010
00010000
,
00011000
00000000
01100000
00000000
,
10010000
00000000
00000000
00000000
,
20000000
00000000
00000000
00000000
,
30020000
00000000
00000000
00000000
,
10030000
01000000
00100000
00001000
,
00020000
00000000
00000000
00000000
,
00000000
00000000
00000000
00000000
,
00030000
00000000
00000000
00000000
;

//---------------dance-double - ----------------
#NOTES:
     dance-double:
     :
     Medium:
     6:
     0.343,0.419,0.222,0.153,0.000:
10000000
00010000
10000000
00010000
,
10000000
01000000
10000000
01000000
,
00100000
00001000
00100000
00001000
,
00010000
00000100
00010000
00000100
,
00000020
00000000
00000000
00000000
,
00000031
00000000
00000000
00000000
00000100
00000010
00000100
00000001
,
00000010
00000000
00000000
00000000
00000100
00010000
00000100
00010000
,
00001000
00100000
01000000
10000000
,
00000000
00000000
00100000
01000000
00000000
00010000
01000000
00010000
,
01000000
00000000
00000000
00000000
00001000
00010000
00001000
00010000
,
00000100
00000000
00000000
00000000
00000010
00000001
00000010
00000000
,
00001001
00000000
00001001
00000000
,
00000220
00000000
00000000
00000330
,
00000100
00000001
00000100
00000001
,
00000010
00000100
00000010
00000100
,
00010000
00001000
00010000
00001000
,
00100000
01000000
00100000
01000000
,
10000000
00100000
10000000
00000000
00100000
00000000
01000000
00000000
,
00001000
00010000
00001000
00000000
00010000
00000000
00000010
00000000
,
00000200
00000000
00000000
00000310
00000000
00000000
00001000
00000000
,
00000002
00000000
00000000
00001003
00000000
00000000
00000000
00000000
,
00000120
00000000
00001000
00001000
,
00000230
00000000
00000001
00000001
,
00000310
00000110
00001000
00001001
,
00000001
00000000
00000000
00000000
00000100
00000001
00000100
00000001
,
00010000
00000000
00001000
00000000
00100000
01000000
10000000
00000000
,
10000000
00000000
00100000
00000000
01000000
00010000
00100000
00000000
,
00100000
10010000
00100000
10010000
,
02000000
00000000
00000000
00000000
,
03100000
00000000
00000000
00000000
,
00011000
00000000
00001000
00000000
00010000
00000100
00010000
00000100
,
00000010
00000000
00000001
00000000
00000100
00000001
00000100
00000001
,
00010000
00001000
00100000
01000000
,
10000000
00000000
00100000
01000000
00000000
00100000
01000000
00000000
,
00010000
00000000
01000000
00000000
00001000
00010000
00001000
00010000
,
00000100
00000000
00000010
00000000
00000001
00000100
00000001
00000100
,
00000110
00000000
00000110
00000000
,
00002002
00000000
00000000
00003003
,
00000010
00000000
00000000
00000000
,
00000100
00000000
00000000
00000000
,
00001000
00000000
00010000
00000000
,
00100000
00000000
01000000
00000000
,
20010000
00000000
00000000
00000000
,
30020000
00000000
00000000
00000000
,
10030000
01100000
00000000
01100000
,
00000000
01100000
01000000
00100000
,
01000000
00000000
00010000
00000000
10000000
00010000
10000000
00000000
,
01000000
00000000
00100000
00000000
00001000
00010000
00001000
00000000
,
00010000
00011000
00001000
00011000
,
00010001
00000100
00000010
00000001
,
00000200
00000000
00000320
00000000
,
00000200
00000000
00000000
00000330
,
00000000
00000000
00001001
00000000
00000001
00000010
00000001
00000010
,
00000100
00000000
00001000
00000000
00010000
01000000
00010000
01000000
,
00100000
00000000
01000000
00100000
00000000
01000000
00100000
00000000
,
10000000
00000000
00010000
10000000
00000000
00010000
10000000
00000000
,
00100000
00000000
01000000
00010000
01000000
00010000
10000000
00000000
,
01000000
00000000
00100000
00010000
00100000
00010000
00001000
00000000
,
00000010
00000110
00000100
00000110
,
00001001
00000000
00000100
00000100
,
00001001
00000000
00000001
00000000
00000100
00000001
00000100
00000001
,
00010000
00000000
00001000
00000000
00100000
01000000
00100000
01000000
,
10000000
00000000
00010000
10000000
00000000
00010000
10000000
00000000
,
01000000
00000000
00100000
00010000
00000000
00001000
00010000
00000000
,
00011000
00000000
00010000
00000000
00000010
00000100
00000010
00000100
,
00000001
00000000
00000010
00000000
00000100
00010000
00000100
00010000
,
00011000
00000000
00011000
00000000
,
01100000
00000000
01000000
01000000
,
20010000
00000000
00000000
00000000
,
32000000
00000000
00000000
00000000
,
23000000
00000000
30002000
00000000
,
00023000
00000000
00000000
00000000
,
00000000
00000000
00000000
00000000
,
00030000
00000000
00000000
00000000
;

//---------------dance-double - ----------------
#NOTES:
     dance-double:
     :
     Hard:
     9:
     0.428,0.447,0.153,0.184,0.088:
10010000
01000000
00100000
00010000
,
00100000
01000000
10000000
00010000
,
01000000
00001000
00010000
00000100
,
00000010
00000001
00000010
00000100
,
00021000
00000000
00000000
00031000
,
00011000
00000000
00100000
01000000
00100000
00010000
10000000
01000000
,
00100000
00000000
00001000
00010000
00000100
00000010
00000100
00010000
,
00000010
00000000
00000100
00000001
00000000
00000010
00000000
00000010
,
00000000
00000000
00000001
00001000
00000000
00000001
00001000
00000100
,
00010000
00000000
00001000
00100000
01000000
00100000
00001000
01000000
,
00100000
00000000
10000000
01000000
00100000
01000000
10000000
00100000
,
01000000
00000000
00000000
01000000
00000000
00000000
00001000
00000000
00010000
00000000
00000000
00010000
00000000
00000000
00000100
00000000
,
00000020
00000000
00000100
00000130
,
00001000
00000010
00000001
00000010
,
00001000
00000100
00010000
00100000
,
10000000
00100000
00010000
01000000
,
00001000
00010000
00000100
00000010
,
00000001
00000000
00001000
00000000
00000000
00000010
00000000
00000000
00010000
00000000
00000000
00001000
00000000
00000000
00100000
00000000
,
00000000
00000000
01000000
00000000
00000000
10000000
00000000
00000000
00100000
00000000
00000000
01000000
00000000
00000000
00001000
00000000
,
00010000
00000000
00000000
00010000
00000000
00000000
00020000
00000000
00000000
00000000
00000000
00000000
00030100
00000000
00000010
00000000
,
00000001
00000000
00000000
00000001
00000000
00000000
00000002
00000000
00000000
00000000
00000000
00000000
00000003
00000000
00000000
00000000
,
00000210
00000000
00000000
00000000
00000301
00000010
00000100
00001000
,
00020000
00000000
00000000
00000000
00130000
01000000
10000000
00100000
,
01000000
01100000
00001000
00011000
,
00010010
00000000
00000000
00000010
00000100
00000001
00000010
00000100
,
00020000
00000000
00001000
00000000
00031000
01000000
00100000
01000000
,
00020000
00000000
10000000
00000000
10030000
01000000
00100000
00010000
,
10000000
00000000
00000000
10000000
00000000
00000000
00100000
00000000
01000000
00000000
00000000
01000000
00000000
00000000
00001000
00000000
,
00020000
00000000
00000000
00000000
,
00031000
00000000
00000000
00000000
,
00000110
00000000
00000100
00000010
00000001
00000010
00000100
00010000
,
00001000
00000000
01000000
00100000
01000000
00001000
00100000
01000000
,
10000000
00000000
00010000
01000000
00000000
00100000
01000000
00001000
,
00000000
00000000
00010000
00001000
00000000
00010000
00001000
00010000
,
00000010
00000000
00001000
00000100
00000001
00000100
00001000
00000001
,
00001000
00000000
00000010
00010000
00001000
00010000
00001000
01000000
,
00100000
00000000
00000000
10000000
00000000
00000000
00010000
00000000
01000000
00000000
00000000
00001000
00000000
00000000
00010000
00000000
,
00000200
00000000
00000010
00000310
,
00000002
00000000
00001000
00001003
,
00000200
00000000
00010000
00010300
,
00012000
00000000
02003000
00000000
,
03100000
01000000
00100000
00000000
,
20010000
00000000
00000000
00000000
,
30020000
00000000
00000000
00000000
,
10030000
01100000
00001000
00011000
,
00010000
00000000
00000000
00000000
00000100
00000010
00000001
00000010
,
00000100
00000000
00001000
00000010
00000001
00000010
00001000
00000100
,
00010000
00000000
00001000
00100000
10000000
00100000
00001000
00100000
,
01000000
00000000
00000000
01000000
00000000
00000000
10000000
00000000
00100000
00000000
00000000
00100000
00000000
00000000
10000000
00000000
,
00010000
00000000
10000000
01000000
00100000
00001000
00010000
00000100
,
00000010
00000000
00000001
00001000
00000001
00000000
00000000
00000000
00010000
00000000
00001000
00100000
00001000
00100000
00001000
00000000
,
00200000
00000000
00000000
00300000
,
00000000
00000000
10010000
00000000
10000000
00100000
00010000
00100000
,
10000000
00000000
01000000
00100000
00001000
00010000
00000100
00000001
,
00000100
00000000
00001000
00000010
00000000
00000100
00000000
00000100
,
00000000
00000000
00000001
00001000
00000000
00000001
00001000
00000100
,
00000110
00000000
00001000
00000010
00000001
00000010
00001000
00000000
,
00000100
00000000
00010000
00001000
00100000
01000000
10000000
00100000
,
01000000
00000000
00000000
01000000
00000000
00000000
00001000
00000000
00010000
00000000
00000000
00010000
00000000
00000000
00000100
00000000
,
00000020
00000000
00000001
00000031
,
00001001
00000000
00000100
00000001
00000100
00001000
00000001
00000100
,
00000001
00000000
00010000
00000000
00001000
01000000
10000000
01000000
,
00001000
00000000
00100000
01000000
00000000
10000000
00100000
10000000
,
00010000
00000000
00100000
01000000
00000000
00100000
01000000
10000000
,
10010000
00000000
01100000
00000000
10000000
00100000
01000000
00010000
,
00100000
00000000
00001000
00000100
00000010
00000001
00000100
00000010
,
00001000
00000000
00000000
00001000
00000000
00000000
00000100
00000000
00010000
00000000
00000000
00010000
00000000
00000000
00100000
00000000
,
02000000
00000000
10000000
13000000
,
20020000
00000000
00000000
30030000
,
02002000
00000000
00000000
03003000
,
00011000
00000000
00000000
00010000
00000000
00000000
00000100
00000000
00000010
00000000
00000000
00000010
00000000
00000000
00000001
00000000
,
00000200
00000000
00000000
00000000
,
00000000
00000000
00000000
00000000
,
00000300
00000000
00000000
00000000
;

//---------------dance-double - ----------------
#NOTES:
     dance-double:
     :
     Challenge:
     12:
     0.592,0.586,0.367,0.092,0.279:
10000000
01000000
10000000
00000000
00010000
01000000
00100000
01000000
,
00001000
00000000
00010000
00000100
00000010
00000100
00010000
00000000
,
00000001
00000000
00000000
00000001
00000000
00000000
00000100
00000000
00000010
00000000
00000000
00000010
00000000
00000000
00001000
00000000
,
00010000
00000000
01000000
00000000
00100000
00000000
01000000
00000000
00010000
10000000
00010000
10000000
00010000
00000000
01000000
00100000
,
02000000
00000000
00000000
00000000
00000000
00100000
03100000
00000000
,
10000000
00010000
10000000
01000000
00100000
00001000
00010000
00000100
,
00000010
00000001
00001000
00000010
00000100
00000010
00010000
00001000
,
01000000
00010000
00100000
01000000
10000000
00010000
01000000
00010000
,
00001000
00000000
00000010
00000010
00000000
00000100
00000100
00000001
,
00001001
00000000
00001000
00000001
00001000
00000100
00010000
00001000
,
00100000
01000000
00100000
00010000
10000000
00100000
10000000
00100000
,
01100000
00000000
00000000
01100000
00000000
00000000
00001000
00000000
00011000
00000000
00000000
00011000
00000000
00000000
00000010
00000000
,
00000110
00000000
00000000
00000000
00000100
00000000
00000000
00000000
00000100
00000010
00000100
00000010
00001000
00000000
00000001
00001000
,
00000001
00000010
00000100
00000000
00010000
00001000
01000000
00000000
,
00010000
00100000
01000000
00000000
10000000
00010000
01000000
00000000
,
00100000
01000000
00001000
00000000
00010000
00000100
00000010
00000000
,
00000100
00000010
00000001
00001000
00000001
00000000
00010000
00010000
,
00001000
00000000
01000000
00000000
00001000
00000000
10000000
00000000
01000000
00000000
00000000
00100000
00000000
00000000
00110000
00000000
,
00000000
00001000
00010000
00000100
00000010
00000100
00010000
00000001
,
00000100
00000000
00000000
00000010
00000000
00000000
00010010
00000000
00000000
00000000
00000000
00000000
00001000
00000000
00100000
00000000
,
01100000
00000000
00000000
10100000
00000000
00000000
01010000
00000000
01000000
00000000
00000000
00000000
01000000
00100000
01000000
00100000
,
20000000
00000000
00000000
00000000
01000000
00000000
00000000
00000000
30010000
00000000
00000000
01000000
00000000
00000000
00001000
00000000
,
00020000
00000000
00000000
00000000
00000100
00000000
00000000
00000000
00030010
00000000
00000000
00000100
00000000
00000000
00000001
00000000
,
00000010
00000100
00001000
00000000
00010000
00100000
01000000
00000000
,
10000000
00000000
00010000
00000000
01000000
00000000
00000000
00000000
00001000
00010000
00001000
00010000
00000010
00000000
00000100
00000010
,
00000100
00000000
00000000
00000000
00000001
00000000
00000100
00000000
00000001
00000000
00000000
00001000
00000000
00000000
00000100
00000000
,
00010000
00000000
00000000
00000000
00001000
00000000
01000000
00000000
00100000
00000000
00000000
10000000
00000000
00000000
00001000
00000000
,
00101000
00000000
00000000
00101000
00000000
00000000
00010000
00000000
00011000
00000000
00000000
00011000
00000000
00000000
00000010
00000000
,
00000110
00000000
00000000
00000100
00000000
00000100
00000001
00001000
,
00001001
00000000
00000000
00000000
,
00000100
00000000
00000010
00000100
00000010
00000000
00010000
00000000
00001000
00000000
00100000
00000000
01000000
00000000
10000000
00000000
,
00010000
00000000
01000000
00010000
01000000
00000000
00100000
00000000
10000000
00000000
01000000
00000000
00100000
00000000
00001000
00000000
,
00010000
00000010
00000100
00000010
00010000
00000100
00000010
00000001
,
00000100
00000000
00000010
00000010
00000000
00000010
00000100
00000001
,
00001001
00000000
00001000
00000010
00000100
00000010
00010000
00001000
,
00100000
00000000
01000000
10000000
01000000
00000000
10000000
00000000
00100000
00000000
01000000
00000000
00100000
00000000
10000000
00000000
,
10100000
00000000
00000000
10100000
00000000
00000000
00001000
00000000
00011000
00000000
00000000
00011000
00000000
00000000
00000100
00000000
,
00000110
00000000
00000000
00000000
00000010
00000000
00000000
00000000
00000001
00001000
00000001
00001000
00000001
00000000
00001000
00000010
,
00001000
00000000
00000000
00000000
00000000
00000000
00000001
00000000
00000001
00000000
00000010
00000100
00000000
00000000
00010000
00000000
,
00001000
00000000
00000000
00000000
00000000
00000000
00100000
00000000
00100000
00000000
00010000
10000000
00000000
00000000
01000000
00000000
,
00100000
00000000
00000000
00100000
00000000
00000000
00001000
00000000
00010000
00000000
00000000
00010000
00000000
00000000
00000100
00000000
,
00000010
00000000
00000001
00000000
00000010
00000000
00000001
00000000
00000100
00000010
00000100
00000010
00001000
00000000
00000001
00001000
,
00000002
00000000
00000000
00000000
00000000
00000000
00000000
00000000
00000010
00000000
00000000
00000010
00000000
00000000
00000013
00000000
,
00000200
00000000
00000000
00000000
00000000
00000000
00000000
00000000
00010000
00000000
00000000
00010000
00000000
00000000
00010300
00000000
,
00001000
01100000
10000000
10010000
,
01100000
00000000
00000000
00000000
00000000
00000000
00000000
00000000
00100000
00010000
00100000
00010000
10000000
00000000
00010000
10000000
,
00010000
00000000
00000000
00000000
10000000
00000000
00100000
00000000
02000000
00000000
00000000
00001000
00000000
00000000
00001000
00000000
,
03001000
00000000
00000000
00000000
00010000
00000000
00000010
00000000
00000200
00000000
00000000
00000001
00000000
00000000
00000301
00000000
,
00001001
00000000
00000000
00001001
00000000
00000000
00000010
00000000
00010010
00000000
00000000
00010010
00000000
00000000
00001000
00000000
,
00011000
00000000
00000000
00000000
00100000
00000000
01000000
00000000
10000000
00100000
00000000
10000000
00100000
00000000
01000000
00000000
,
00001000
00000000
00010000
00001000
00010000
00001000
00000100
00000000
00000010
00000000
00000001
00000100
00000001
00000100
00000010
00000000
,
00020000
00000000
00001000
00031000
,
00000000
00000000
01100000
01000000
00010000
10000000
01000000
00100000
,
00001000
00000000
00010000
00000010
00010000
00000000
00000010
00000000
00000100
00000000
00000001
00000000
00000010
00000000
00000100
00000000
,
00010000
00000010
00000001
00000010
00010000
00001000
01000000
00100000
,
01000000
00000000
00100000
00100000
00000000
00100000
10000000
00010000
,
10010000
00000000
01000000
10000000
00100000
01000000
00100000
10000000
,
01000000
00000000
00100000
00010000
00100000
00000000
00001000
00000000
00010000
00000000
00000010
00000000
00000100
00000000
00000010
00000000
,
00001010
00000000
00000000
00001010
00000000
00000000
00000100
00000000
00000110
00000000
00000000
00000110
00000000
00000000
00010000
00000000
,
00011000
00000000
00000000
00000000
00000000
00000000
00000000
00000000
01000000
00100000
01000000
00100000
10000000
00000000
00010000
10000000
,
00010000
00000000
01100000
00100000
01000000
10000000
00010000
01000000
,
00001000
00000000
00010000
00001000
00010000
00000000
00000100
00000000
00000010
00000000
00000100
00000000
00010000
00000000
00000010
00000000
,
00000100
00000001
00001001
00000000
00000100
00000010
00010010
00000000
,
00010000
00000000
00000000
00000000
00010000
00000000
00001000
00000000
00100000
01000000
00100000
01000000
10000000
00000000
00010000
10000000
,
00010000
00000000
01100000
01000000
00100000
00010000
00001000
00000010
,
00000100
00000000
00000001
00000100
00000001
00000000
00000010
00000000
00000100
00000000
00010000
00000000
00001000
00000000
01000000
00000000
,
01010000
00000000
00000000
01010000
00000000
00000000
00100000
00000000
01100000
00000000
00000000
01100000
00000000
00000000
10000000
00000000
,
10010000
00000000
00000000
00000000
00000000
00000000
00000000
00000000
00010000
10000000
00010000
10000000
00100000
00000000
01000000
00100000
,
02000000
00000000
00100000
03100000
,
10020000
00000000
10000000
10030000
,
00010000
00000000
00000000
00100000
00000000
00000000
00010000
00000000
00001000
00000000
00000000
00000010
00000000
00000000
00000200
00000000
,
00000002
00000000
00000000
00000000
,
00000000
00000000
00000000
00000000
,
00000303
00000000
00000000
00000000
;

//---------------dance-single - ----------------
#NOTES:
     dance-single:
     :
     Beginner:
     2:
     0.094,0.136,0.092,0.000,0.000:
1000
0000
0000
0000
,
1000
0000
0000
0000
,
1000
0000
0000
0000
,
0001
0000
0000
0000
,
0001
0000
0000
0000
,
1001
0000
0000
0000
,
0100
0000
0000
0000
,
0010
0000
0000
0000
,
0001
0000
0000
0000
,
1000
0000
0000
0000
,
0100
0000
0000
0000
,
0010
0000
0010
0000
,
0010
0000
0000
0000
,
0100
0000
0000
0000
,
0000
0000
0000
0000
,
1000
0000
0000
0000
,
0000
0000
0000
0000
,
0001
0000
0000
0000
,
0100
0000
0000
0000
,
0001
0000
0000
0000
,
1001
0000
0000
0000
,
0100
0000
0000
0000
,
0100
0000
0000
0000
,
0010
0000
0000
0000
,
0000
0000
0000
0000
,
0110
0000
0000
0000
,
0100
0000
0000
0000
,
0010
0000
0010
0000
,
0010
0000
0000
0000
,
1000
0000
0000
0000
,
1001
0000
0000
0000
,
0001
0000
0000
0000
,
1000
0000
0000
0000
,
0100
0000
0000
0000
,
1001
0000
0000
0000
,
0010
0000
0000
0000
,
0110
0000
0100
0000
,
0100
0000
0000
0000
,
0001
0000
0000
0000
,
0000
0000
0000
0000
,
1001
0000
0000
0000
,
1000
0000
0000
0000
,
1001
0000
0000
0000
,
0001
0000
0000
0000
,
1000
0000
0000
0000
,
0000
0000
0000
0000
,
1001
0000
0000
0000
,
1000
0000
0000
0000
,
0001
0000
1000
0000
,
0001
0000
0000
0000
,
0010
0000
0010
0000
,
0000
0000
0000
0000
,
0000
1000
0000
0000
,
0100
0000
0000
0000
,
0010
0000
0000
0000
,
0001
0000
0000
0000
,
1000
0000
0000
0000
,
0001
0000
0000
0000
,
1001
0000
1000
0000
,
1000
0000
0000
0000
,
0100
0000
0000
0000
,
0010
0000
0000
0000
,
0001
0000
1000
0000
,
0001
0000
0000
0000
,
1001
0000
0000
0000
,
0010
0000
0000
0000
,
0100
0000
0100
0000
,
0100
0000
0000
0000
,
1000
0000
0000
0000
,
0001
0000
0000
0000
,
1000
0000
0000
0000
,
1001
0000
0000
0000
;
