#TITLE:Rainbow Resort;
#SUBTITLE:(EBISU Remix);
#ARTIST:安藤浩和;
#TITLETRANSLIT:;
#SUBTITLETRANSLIT:;
#ARTISTTRANSLIT:HIROKAZU ANDO;
#CREDIT:DigiMindAxel;
#BANNER:Rainbow Resort (EBISU Remix).png;
#BACKGROUND:Rainbow Resort (EBISU Remix)-bg.png;
#LYRICSPATH:;
#CDTITLE:DigiMindAxel original simfile.png;
#MUSIC:Rainbow Resort (EBISU Remix).ogg;
#METERTYPE:DDR X;
#OFFSET:-8.432;
#SAMPLESTART:33.544;
#SAMPLELENGTH:12.000;
#SELECTABLE:YES;
#BPMS:0.000=172.000,168.000=86.000,216.000=172.000;
#STOPS:;
#BGCHANGES:;

//---------------dance-single - ----------------
#NOTES:
     dance-single:
     :
     Easy:
     5:
     0.270,0.247,0.000,0.465,0.000:
2000
0000
3100
0020
,
0000
0031
0200
0000
,
0310
2000
0000
3100
,
0020
0000
0130
2000
,
0000
3001
0200
0000
,
0301
2000
0000
0000
,
3002
0000
0013
0100
,
1000
0100
2000
0000
,
3001
0200
0000
0000
,
0302
0000
1003
0100
,
0010
0001
0020
0000
,
0000
0032
0000
0000
,
2003
0000
3100
1000
,
0100
0010
0002
0000
,
0000
0203
0000
0000
,
0320
0000
1030
0001
,
1000
0100
0020
0000
,
0000
0032
0000
0000
,
2003
0000
3001
0200
,
0000
0301
1000
0100
,
0010
0002
0000
1003
,
0020
0000
0130
0001
,
0010
0100
2000
0000
,
0000
3002
0000
0000
,
2003
0000
3100
0020
,
0000
0031
0100
0010
,
1000
0200
0000
0310
,
0002
0000
1003
0010
,
0100
0001
2000
0000
,
0000
3002
0000
0000
,
0023
0000
0130
2000
,
0000
3001
1000
0010
,
0100
0002
0000
1003
,
0200
0000
0310
0001
,
1000
0100
0020
0000
,
0000
0230
0000
0000
,
2300
0000
3001
0200
,
0000
0301
1000
0100
,
0010
0002
0000
0103
,
0020
0000
0130
0001
,
0010
0100
2000
0000
,
0000
3002
0000
0000
,
0103
0000
0000
0100
0000
0000
0100
0000
,
0000
0100
0000
0000
0100
0000
0000
0100
,
0000
0000
0100
0000
0000
0100
0000
0000
,
0010
0000
0000
0010
0000
0000
0010
0000
,
0000
0010
0000
0000
0010
0000
0000
0010
,
0000
0000
0010
0000
0000
0010
0000
0000
,
1000
0000
0000
1000
0000
0000
0001
0000
,
0000
0001
0000
0000
1000
0000
0000
1000
,
0000
0000
0001
0000
0000
0001
0000
0000
,
0010
0000
0000
0100
0000
0000
0010
0000
,
0000
0100
0000
0000
1000
0000
0000
0010
,
0000
0000
1000
0000
0000
0001
0000
0000
,
2000
0000
0100
3200
,
0000
0310
0001
0010
,
0001
2000
0000
3010
,
0200
0000
0301
1000
,
0100
0010
0002
0000
,
0000
0203
0000
0000
,
0302
0000
1000
2003
,
0000
3001
0100
0010
,
1000
0200
0000
0310
,
0002
0000
0103
0010
,
1000
0100
0020
0000
,
0000
0230
0000
0000
,
0300
0000
0000
0000
;

//---------------dance-single - ----------------
#NOTES:
     dance-single:
     :
     Medium:
     7:
     0.361,0.411,0.008,0.747,0.000:
1000
0010
1000
0010
,
0100
0010
0100
0001
,
0100
0001
1000
0001
,
1000
0100
1000
0100
,
0010
0100
0010
0001
,
0010
0002
0000
0000
,
2003
0000
0000
0000
3100
1000
0100
0000
,
0010
0001
2000
0000
,
3001
0200
0000
0000
,
0302
0000
0000
0000
1003
0100
1000
0000
,
0010
0100
0002
0000
,
1003
0000
0200
0000
0000
0000
0000
0300
,
0020
0000
0000
0000
0031
0100
0001
0000
,
1000
0100
0020
0000
,
0031
2000
0000
0000
,
3200
0000
0000
0000
1300
0100
1000
0000
,
0010
0100
0002
0000
,
1003
0200
0000
0000
,
2300
0000
0000
0000
3010
0100
0002
0000
,
0000
2003
3200
0320
,
0230
2300
0000
3001
,
0200
0000
0310
2000
,
3020
0230
0320
0000
,
0000
2030
0000
0000
,
3002
0000
0000
0000
0103
0010
2000
0000
,
3002
0023
0230
0320
,
0032
2003
0000
3100
,
0020
0000
0130
2000
,
3020
0230
0302
0000
,
0000
2003
0000
0000
,
3200
0000
0000
0000
0310
0001
2000
0000
,
0000
3002
0203
2300
,
3200
0302
0000
0013
,
0200
0000
2300
3020
,
0032
0023
2030
0000
,
0000
3002
0000
0000
,
2003
0000
0000
0000
3001
0010
0200
0000
,
0000
2300
3200
0302
,
0203
2300
0000
3001
,
0200
0000
0310
2000
,
3020
0032
0023
0000
,
0000
2030
0000
0000
,
3002
0000
0000
0203
0000
0000
0302
0000
,
0000
2003
0000
0000
3200
0000
0000
2300
,
0000
3002
0000
0000
,
2003
0000
0000
3020
0000
0000
0230
0000
,
0000
0320
0000
0000
2030
0000
0000
3002
,
0000
0000
2003
0000
0000
3002
0000
0000
,
2003
0000
0000
0100
0000
0000
3200
0000
,
0000
0310
0000
0000
0002
0000
0000
0100
,
0000
0000
0203
0000
0000
0310
0000
0000
,
2000
0000
0000
0100
0000
0000
3200
0000
,
0000
0310
0000
0000
0002
0000
0000
0100
,
0000
0000
0203
0000
0000
0310
0000
0000
,
1000
0000
0001
0100
0001
0000
1000
0000
,
0001
0010
0001
0000
1000
0000
0001
0100
,
0001
0000
1000
0000
0001
0010
0001
0000
,
0100
0000
0010
1000
0100
0000
0010
0000
,
0001
1000
0001
0000
0100
0000
0010
1000
,
0100
0000
0010
0000
0001
1000
0001
0000
,
0100
0000
0001
0010
0100
0000
1000
0000
,
0001
0100
0001
0000
0100
0000
0001
0010
,
0100
0000
1000
0000
0001
0100
0001
0000
,
1000
0000
0100
0100
,
0000
0010
0010
0000
,
0000
0100
0000
0000
,
1001
0000
0000
0000
;

//---------------dance-single - ----------------
#NOTES:
     dance-single:
     :
     Hard:
     10:
     0.533,0.529,0.075,0.623,0.042: // measure 1
1000
0000
0001
0010
0100
0000
1000
0000
,  // measure 2
0001
0010
0100
0000
1000
0000
0001
0100
,  // measure 3
0010
0000
1000
0000
0001
0100
0010
0000
,  // measure 4
0100
0000
0001
1000
0010
0000
0100
0000
,  // measure 5
0001
1000
0100
0000
0010
0000
0001
1000
,  // measure 6
0010
0100
0010
1000
,  // measure 7
1002
0000
0000
0000
1003
0010
0200
0000
,  // measure 8
0302
0000
2003
0000
3200
0000
0000
0301
,  // measure 9
0200
2000
0000
3300
,  // measure 10
2001
0000
0000
0000
3100
0010
0002
0000
,  // measure 11
2003
0000
3002
0000
0203
0000
0000
1300
,  // measure 12
0200
0002
0000
0303
,  // measure 13
2001
0000
0000
0000
3010
0100
0002
0000
,  // measure 14
0203
0000
2300
0000
3200
0000
0000
0301
,  // measure 15
2000
0020
0000
3030
,  // measure 16
1002
0000
0000
0000
0103
0010
2000
0000
,  // measure 17
3200
0000
0302
0000
0203
0000
0000
1300
,  // measure 18
0002
0000
0013
0001
1000
0100
0010
0001
,  // measure 19
2000
0000
0010
0000
3010
0100
0002
0000
,  // measure 20
0010
0000
0023
0000
0130
1000
0001
0100
,  // measure 21
0010
0100
0002
0000
0100
0000
0203
0000
,  // measure 22
2300
0100
3200
0302
,  // measure 23
1003
0100
0010
0001
0200
0000
0010
0000
,  // measure 24
0001
0320
1000
0100
,  // measure 25
2030
0000
0100
0000
3100
0010
0002
0000
,  // measure 26
0100
0000
0103
0000
0001
0100
0010
0001
,  // measure 27
0010
0100
0002
0000
1000
0000
2003
0000
,  // measure 28
3002
0010
0023
0230
,  // measure 29
1300
0010
0100
0001
0200
0000
0010
0000
,  // measure 30
0310
0000
2000
0000
0001
0001
3001
0000
,  // measure 31
1001
0000
0001
0100
0010
0100
0000
0100
,  // measure 32
0001
1000
0100
1000
0000
1000
0010
0001
,  // measure 33
0010
1000
0000
1000
0001
0010
0100
0010
,  // measure 34
0000
0010
0001
0100
0010
1000
0000
1000
,  // measure 35
0100
0001
0100
1000
0000
1000
0001
0010
,  // measure 36
0100
0010
0000
0010
0001
0100
0010
1000
,  // measure 37
0000
0001
1000
0100
0010
0001
0000
0001
,  // measure 38
1000
0010
0100
0010
0000
0010
1000
0010
,  // measure 39
0100
0001
0000
0001
0100
1000
0100
0001
,  // measure 40
0000
0001
1000
0100
0010
0100
0000
0100
,  // measure 41
1000
0010
0100
0001
0000
0001
0010
1000
,  // measure 42
0010
0001
0000
0001
1000
0010
0100
0010
,  // measure 43
2001
0000
0000
0000
3001
0010
0002
0000
0000
0000
0103
0000
0010
0000
0010
0000
,  // measure 44
0100
0200
0000
0301
2000
0000
3100
0020
,  // measure 45
0001
0031
0200
0000
0000
0020
0000
0330
,  // measure 46
1002
0000
0000
0000
1000
0010
2003
0000
0000
0000
3001
0000
0100
0000
0100
0000
,  // measure 47
0010
0020
0000
1030
0002
0000
0013
0200
,  // measure 48
1000
1300
0020
0000
0000
0002
0000
0033
,  // measure 49
2001
0000
0000
0000
3010
0100
0001
0000
1000
0000
0010
0000
0001
0000
0000
0010
,  // measure 50
1000
0000
0002
0000
0000
0000
0000
0000
2003
0000
0000
0000
3100
0010
0001
0000
,  // measure 51
1000
0000
0100
0000
0001
0000
0000
0100
1000
0000
0020
0000
0000
0000
0000
0000
,  // measure 52
0230
0000
0000
0000
0301
1000
0100
0000
0001
0000
0100
0000
1000
0000
0000
0010
,  // measure 53
0100
0000
0002
0000
0000
0000
0000
0000
0203
0000
0000
0000
0310
1000
0001
0000
,  // measure 54
0010
0000
1000
0000
0010
0000
0000
0001
1000
0000
0020
0000
0000
0000
0000
0000
,  // measure 55
1030
0001
0100
1000
0100
0001
0100
0010
,  // measure 56
0001
0010
0100
0000
0001
1000
0100
0001
,  // measure 57
0100
1000
0010
0100
1000
0100
0010
0000
,  // measure 58
1000
0001
0010
1000
0010
0001
0010
0100
,  // measure 59
0001
0100
0010
0000
0001
1000
0010
0001
,  // measure 60
0010
1000
0100
0010
1000
0010
0100
0000
,  // measure 61
1000
0010
0001
0010
1000
0001
0100
1000
,  // measure 62
0100
0001
1000
0000
0001
0010
1000
0010
,  // measure 63
0001
1000
0010
0001
0010
1000
0001
0000
,  // measure 64
0200
0000
0001
0302
,  // measure 65
0023
0100
0230
0000
,  // measure 66
0000
2300
0000
3000
,  // measure 67
2002
0000
0000
0000
,  // measure 68
3003
0000
0000
0000
;

//---------------dance-single - ----------------
#NOTES:
     dance-single:
     :
     Beginner:
     2:
     0.072,0.110,0.017,0.000,0.000:
1000
0000
0000
0000
,
0000
0000
0100
0000
,
0000
0000
0000
0000
,
0010
0000
0000
0000
,
0000
0000
0100
0000
,
0000
0000
0000
0000
,
1000
0000
0000
0000
,
0000
0000
0001
0000
,
0000
0000
0000
0000
,
0100
0000
0000
0000
,
0000
0000
0001
0000
,
0000
0000
0000
0000
,
1000
0000
0000
0000
,
0000
0000
0100
0000
,
0000
0000
0000
0000
,
0010
0000
0000
0000
,
0000
0000
0100
0000
,
0000
0000
0000
0000
,
1000
0000
0000
0000
,
0000
0000
0001
0000
,
0000
0000
0000
0000
,
0100
0000
0000
0001
,
0000
0000
1000
0000
,
0000
0000
0000
0000
,
0001
0000
0000
0000
,
0000
0000
1000
0000
,
0000
0000
0000
0000
,
0100
0000
0000
1000
,
0000
0000
0010
0000
,
0000
0000
0000
0000
,
0100
0000
0000
0000
,
0000
0000
0001
0000
,
0000
0000
0000
0000
,
1000
0000
0000
0100
,
0000
0000
1000
0000
,
0000
0000
0000
0000
,
0010
0000
0000
0000
,
0000
0000
0100
0000
,
0000
0000
0000
0000
,
0001
0000
0000
1000
,
0000
0000
0100
0000
,
0000
0000
0000
0000
,
1000
0000
0000
0100
,
0000
0000
1000
0000
,
0000
0001
0000
0000
,
0100
0000
0000
0001
,
0000
0000
0010
0000
,
0000
0100
0000
0000
,
1000
0000
0000
1000
,
0000
0000
0001
0000
,
0000
0001
0000
0000
,
1000
0000
0000
1000
,
0000
0000
0001
0000
,
0000
0001
0000
0000
,
1001
0000
0000
0000
,
0000
0000
1000
0000
,
0000
0000
0000
0000
,
0010
0000
0000
0000
,
0000
0000
0100
0000
,
0000
0000
0000
0000
,
0001
0000
0000
0000
,
0000
0000
1000
0000
,
0000
0000
0000
0000
,
0100
0000
0000
0100
,
0000
0000
0100
0000
,
0000
0100
0000
0000
,
1001
0000
0000
0000
;
